<?xml version="1.0" standalone="no"?>
<!DOCTYPE svg PUBLIC "-//W3C//DTD SVG 1.1//EN" "http://www.w3.org/Graphics/SVG/1.1/DTD/svg11.dtd" >
<svg xmlns="http://www.w3.org/2000/svg" xmlns:xlink="http://www.w3.org/1999/xlink" version="1.1">
<metadata>
Created by FontForge 20161013 at Thu Oct  6 17:43:03 2016
 By ,,,
Copyright 2016 The Muli Project Authors (contact@sansoxygen.com)
</metadata>
<defs>
<font id="Muli-Black" horiz-adv-x="0" >
  <font-face 
    font-family="Muli Black"
    font-weight="900"
    font-stretch="normal"
    units-per-em="1000"
    panose-1="0 0 10 0 0 0 0 0 0 0"
    ascent="800"
    descent="-200"
    x-height="507"
    cap-height="712"
    bbox="-368 -284 1355 1096"
    underline-thickness="50"
    underline-position="-150"
    unicode-range="U+000D-FB02"
  />
<missing-glyph horiz-adv-x="476" 
d="M390 736v-952h-301v952h301zM317 672h-157v-31h62v-35h-63v-32h158v32h-63v35h63v31zM254 549h-95v-99h158v33h-63v66zM222 517v-34h-32v34h32zM317 425h-158v-32h63v-35h-63v-31h95v66h63v32zM317 368h-31v-63h-127v-33h158v96zM317 251h-95v-53h32v22h32v-45h-96v76
h-31v-107h158v107zM317 87h-158v-108h158v108zM286 55v-44h-96v44h96zM317 -43h-158v-31h67l-67 -45v-31h158v31h-97l67 45h30v31z" />
    <glyph glyph-name="fi" unicode="fi" horiz-adv-x="694" 
d="M454 762h192v-166h-192v166zM279 508h362v-508h-182v375h-180v-375h-181v375h-95v133h95v31q0 76 24.5 119t79 62t149.5 19h44v-129h-24q-41 0 -59.5 -6t-25.5 -23t-7 -55v-18z" />
    <glyph glyph-name="fl" unicode="fl" horiz-adv-x="694" 
d="M298 576.5q-21 -18.5 -21 -56.5v-12h99v-133h-99v-375h-181v375h-93v133h93v14q0 103 53.5 161t155.5 58q58 0 94 -14v-139q-29 7 -48 7q-32 0 -53 -18.5zM459 0v736h181v-736h-181z" />
    <glyph glyph-name=".notdef" horiz-adv-x="476" 
d="M390 736v-952h-301v952h301zM317 672h-157v-31h62v-35h-63v-32h158v32h-63v35h63v31zM254 549h-95v-99h158v33h-63v66zM222 517v-34h-32v34h32zM317 425h-158v-32h63v-35h-63v-31h95v66h63v32zM317 368h-31v-63h-127v-33h158v96zM317 251h-95v-53h32v22h32v-45h-96v76
h-31v-107h158v107zM317 87h-158v-108h158v108zM286 55v-44h-96v44h96zM317 -43h-158v-31h67l-67 -45v-31h158v31h-97l67 45h30v31z" />
    <glyph glyph-name=".null" 
 />
    <glyph glyph-name="nonmarkingreturn" unicode="&#xd;" horiz-adv-x="290" 
 />
    <glyph glyph-name="NULL" 
 />
    <glyph glyph-name="NULL" 
 />
    <glyph glyph-name="space" unicode=" " horiz-adv-x="290" 
 />
    <glyph glyph-name="exclam" unicode="!" horiz-adv-x="276" 
d="M83 247l-57 466l223 -1l-56 -465h-110zM43 186h189v-186h-189v186z" />
    <glyph glyph-name="quotedbl" unicode="&#x22;" horiz-adv-x="494" 
d="M76 402l-44 310h207l-42 -310h-121zM298 402l-44 310h207l-42 -310h-121z" />
    <glyph glyph-name="numbersign" unicode="#" horiz-adv-x="606" 
d="M551 452h-69l-36 -183h81v-109h-103l-32 -160h-116l32 160h-87l-32 -160h-117l32 160h-48v109h70l36 183h-83v108h105l30 152h116l-30 -152h87l30 152h117l-30 -152h47v-108zM329 269l37 183h-87l-37 -183h87z" />
    <glyph glyph-name="dollar" unicode="$" horiz-adv-x="600" 
d="M532.5 74q-55.5 -57 -150.5 -75v-115h-144v110q-133 12 -217 72l59 132q80 -53 172 -62v149q-67 17 -113.5 38.5t-78.5 63.5t-32 110q0 80 58 139t152 78v114h144v-112q57 -8 106.5 -26.5t80.5 -43.5l-59 -133q-71 45 -140 59v-150q66 -17 111 -37.5t76 -62t31 -109.5
q0 -82 -55.5 -139zM252 457v109q-18 -8 -28 -23t-10 -34q0 -32 38 -52zM402 204q0 28 -32 44v-99q32 18 32 55z" />
    <glyph glyph-name="percent" unicode="%" horiz-adv-x="974" 
d="M79 345.5q-51 56.5 -51 162.5q0 104 51 160t140 56t140 -56.5t51 -160.5q0 -106 -51 -162t-140 -56t-140 56.5zM356 0h-152l414 712h151zM253 423.5q10 23.5 10 83.5q0 57 -11 81.5t-33 24.5t-32.5 -24.5t-10.5 -81.5q0 -59 10.5 -83t32.5 -24q24 0 34 23.5zM615 49.5
q-50 56.5 -50 162.5q0 104 50 160t139 56q90 0 140 -56t50 -161q0 -106 -50 -162t-140 -56q-89 0 -139 56.5zM787.5 128q10.5 24 10.5 83q0 57 -11 81.5t-33 24.5t-32.5 -24.5t-10.5 -81.5q0 -59 10.5 -83t32.5 -24q23 0 33.5 24z" />
    <glyph glyph-name="ampersand" unicode="&#x26;" horiz-adv-x="709" 
d="M660 -10q-95 23 -161 76q-96 -74 -212 -74q-77 0 -137 25.5t-93.5 72t-33.5 106.5q0 62 31.5 110.5t98.5 87.5q-62 65 -62 142q0 54 27.5 95.5t77.5 64.5t114 23q91 0 145 -46t54 -122q0 -110 -120 -178l102 -94q36 78 42 163h148q-4 -73 -24.5 -140t-55.5 -123
q65 -50 144 -65zM267.5 585q-17.5 -17 -17.5 -47q0 -18 9.5 -34t36.5 -43q38 20 55 39t17 44q0 27 -15.5 42.5t-39.5 15.5q-28 0 -45.5 -17zM224 150q25 -22 68 -22q53 0 104 35l-148 141q-49 -37 -49 -95q0 -37 25 -59z" />
    <glyph glyph-name="quotesingle" unicode="'" horiz-adv-x="272" 
d="M76 402l-44 310h207l-42 -310h-121z" />
    <glyph glyph-name="parenleft" unicode="(" horiz-adv-x="404" 
d="M129.5 46.5q-30.5 102.5 -30.5 219.5q0 118 31.5 223.5t107.5 222.5h143q-56 -143 -76 -241.5t-20 -204.5q0 -104 19.5 -202.5t73.5 -245.5h-142q-76 126 -106.5 228.5z" />
    <glyph glyph-name="parenright" unicode=")" horiz-adv-x="404" 
d="M25 -182q54 146 73.5 244.5t19.5 203.5q0 107 -19.5 205.5t-75.5 240.5h142q75 -118 107.5 -224t32.5 -222t-31.5 -218.5t-107.5 -229.5h-141z" />
    <glyph glyph-name="asterisk" unicode="*" horiz-adv-x="460" 
d="M160 325l-97 72l85 100l-129 32l38 115l122 -50l-9 132h121l-10 -130l123 48l37 -115l-129 -31l86 -101l-99 -72l-69 111z" />
    <glyph glyph-name="plus" unicode="+" horiz-adv-x="600" 
d="M546 351v-121h-185v-186h-122v186h-185v121h185v186h122v-186h185z" />
    <glyph glyph-name="comma" unicode="," horiz-adv-x="276" 
d="M232 186v-117q0 -65 -23.5 -118t-80.5 -108l-67 54q55 55 67 103h-85v186h189z" />
    <glyph glyph-name="hyphen" unicode="-" horiz-adv-x="450" 
d="M64 201v140h324v-140h-324z" />
    <glyph glyph-name="period" unicode="." horiz-adv-x="276" 
d="M43 186h189v-186h-189v186z" />
    <glyph glyph-name="slash" unicode="/" horiz-adv-x="353" 
d="M117 -64h-145l263 822h146z" />
    <glyph glyph-name="zero" unicode="0" horiz-adv-x="600" 
d="M97.5 85q-70.5 94 -70.5 272q0 175 70.5 268.5t202.5 93.5t202.5 -93.5t70.5 -268.5q0 -178 -70.5 -272t-202.5 -94t-202.5 94zM369 184.5q21 52.5 21 172.5q0 117 -21 169t-69 52t-69 -52t-21 -169q0 -120 21 -172.5t69 -52.5t69 52.5z" />
    <glyph glyph-name="one" unicode="1" horiz-adv-x="600" 
d="M432 149h154v-149h-494v149h153v359l-143 -82v161l220 125h110v-563z" />
    <glyph glyph-name="two" unicode="2" horiz-adv-x="601" 
d="M559 149v-149h-502v138l232 242q65 68 65 127q0 69 -82 69q-42 0 -88.5 -16.5t-93.5 -47.5l-59 133q43 35 111.5 55.5t139.5 20.5q77 0 134.5 -24.5t89 -70t31.5 -106.5q0 -62 -24.5 -112.5t-83.5 -113.5l-142 -145h272z" />
    <glyph glyph-name="three" unicode="3" horiz-adv-x="600" 
d="M522.5 304q33.5 -45 33.5 -110q0 -62 -33.5 -107.5t-96.5 -70t-147 -24.5q-75 0 -145.5 20.5t-112.5 55.5l59 133q93 -64 190 -64q60 0 85 17.5t25 59.5q0 40 -24.5 57t-81.5 17h-111v144h92q56 0 80.5 15.5t24.5 50.5q0 38 -23.5 58t-65.5 20q-43 0 -90.5 -16.5
t-90.5 -47.5l-59 133q43 34 112.5 55t140.5 21q76 0 133 -24t88.5 -68.5t31.5 -103.5q1 -56 -28 -97t-82 -61q62 -18 95.5 -63z" />
    <glyph glyph-name="four" unicode="4" horiz-adv-x="600" 
d="M588 263v-143h-92v-120h-184v120h-285v138l319 454h150v-449h92zM195 263h117v168z" />
    <glyph glyph-name="five" unicode="5" horiz-adv-x="600" 
d="M466 438q52 -29 81 -81t29 -120q0 -74 -35.5 -129.5t-101 -85.5t-152.5 -30q-69 0 -137 21t-109 55l58 133q92 -64 191 -64q56 0 83 22.5t27 69.5q0 46 -28.5 70.5t-79.5 24.5q-28 0 -60.5 -9.5t-60.5 -24.5h-103v422h470v-142h-288v-122q41 19 98 19q66 0 118 -29z" />
    <glyph glyph-name="six" unicode="6" horiz-adv-x="600" 
d="M470.5 439q48.5 -30 76 -82.5t27.5 -119.5q0 -71 -32 -127t-89 -87.5t-129 -31.5q-143 0 -220.5 93t-77.5 265q0 115 37.5 199t107.5 128.5t166 44.5q68 0 131 -20t107 -56l-59 -133q-45 33 -89 48.5t-81 15.5q-120 0 -132 -177q23 32 62 51t85 19q61 0 109.5 -30z
M376 161q23 26 23 68q0 44 -22.5 69.5t-62.5 25.5q-38 0 -61.5 -26t-23.5 -69q0 -41 23.5 -67.5t61.5 -26.5q39 0 62 26z" />
    <glyph glyph-name="seven" unicode="7" horiz-adv-x="600" 
d="M36 712h529v-140l-310 -572h-200l309 563h-328v149z" />
    <glyph glyph-name="eight" unicode="8" horiz-adv-x="600" 
d="M543 305q38 -44 38 -109q0 -63 -36 -109t-99.5 -70.5t-145.5 -24.5t-145.5 24.5t-99.5 70.5t-36 109q0 66 38 110.5t107 61.5q-59 20 -93 61.5t-34 97.5q0 59 34.5 103t94 67.5t134.5 23.5t134.5 -23.5t94 -67.5t34.5 -103q0 -57 -34.5 -99.5t-91.5 -60.5q68 -18 106 -62
zM236.5 561.5q-24.5 -18.5 -24.5 -56.5q0 -66 88 -88q88 22 88 88q0 38 -24.5 56.5t-63.5 18.5t-63.5 -18.5zM378 153q30 20 30 58q0 37 -29 60t-79 32q-50 -9 -79 -32t-29 -60q0 -38 30 -58t78 -20t78 20z" />
    <glyph glyph-name="nine" unicode="9" horiz-adv-x="600" 
d="M495.5 628q77.5 -93 77.5 -265q0 -115 -37 -199t-107 -128.5t-166 -44.5q-68 0 -131 20t-107 56l59 133q89 -64 170 -64q120 0 132 177q-23 -33 -62 -51.5t-86 -18.5q-61 0 -109.5 30t-76 82.5t-27.5 119.5q0 71 32 127t89 87.5t129 31.5q143 0 220.5 -93zM347.5 414
q23.5 26 23.5 69q0 41 -24 67.5t-61 26.5q-39 0 -62 -26t-23 -68q0 -44 22.5 -69.5t62.5 -25.5q38 0 61.5 26z" />
    <glyph glyph-name="colon" unicode=":" horiz-adv-x="276" 
d="M43 497h189v-185h-189v185zM43 186h189v-186h-189v186z" />
    <glyph glyph-name="semicolon" unicode=";" horiz-adv-x="276" 
d="M43 497h189v-185h-189v185zM43 186h189v-117q0 -65 -23.5 -118t-80.5 -108l-67 54q55 55 67 103h-85v186z" />
    <glyph glyph-name="less" unicode="&#x3c;" horiz-adv-x="600" 
d="M546 550v-132l-332 -127l332 -128v-132l-492 192v135z" />
    <glyph glyph-name="equal" unicode="=" horiz-adv-x="600" 
d="M546 452v-121h-492v121h492zM546 250v-121h-492v121h492z" />
    <glyph glyph-name="greater" unicode="&#x3e;" horiz-adv-x="600" 
d="M54 550l492 -192v-135l-492 -192v132l332 128l-332 127v132z" />
    <glyph glyph-name="question" unicode="?" horiz-adv-x="484" 
d="M247 721q68 0 121 -22.5t82.5 -62.5t29.5 -91q0 -53 -28.5 -91t-80.5 -82q-35 -30 -52 -49t-22 -41l-7 -41h-106v62q0 47 17.5 77.5t49.5 66.5q23 24 34 41t11 39q0 49 -65 49q-33 0 -70 -10.5t-72 -33.5v147q67 42 158 42zM145 0v186h188v-186h-188z" />
    <glyph glyph-name="at" unicode="@" horiz-adv-x="953" 
d="M248.5 -109.5q-101.5 54.5 -156.5 151.5t-55 222q0 143 58.5 245.5t161 156t233.5 53.5q133 0 229.5 -47.5t146.5 -133t50 -196.5q0 -84 -25.5 -146.5t-73.5 -97t-113 -34.5q-53 0 -87.5 22.5t-44.5 59.5h-2q-29 -40 -61 -61t-83 -21q-78 0 -120 50.5t-42 133.5
q0 73 27 131.5t75 92t109 33.5q39 0 68.5 -14.5t43.5 -44.5h4l9 51h127l-40 -222q-6 -31 -6 -55q0 -28 10.5 -42t35.5 -14q15 0 31.5 18t28 58t11.5 102q0 131 -79.5 201.5t-228.5 70.5q-95 0 -168.5 -40.5t-115 -119.5t-41.5 -190q0 -97 38.5 -169.5t111 -112.5t172.5 -40
q70 0 119 15.5t72 42.5h163q-38 -73 -130 -118.5t-224 -45.5q-137 0 -238.5 54.5zM538 211q30 47 30 111q0 41 -18.5 62t-50.5 21q-50 0 -78 -48.5t-28 -109.5q0 -36 15.5 -59.5t45.5 -23.5q54 0 84 47z" />
    <glyph glyph-name="A" unicode="A" horiz-adv-x="769" 
d="M607 0l-63 147h-316l-63 -147h-188l333 712h148l334 -712h-185zM289 288h194l-97 225z" />
    <glyph glyph-name="B" unicode="B" horiz-adv-x="702" 
d="M640 305.5q34 -45.5 34 -110.5q0 -59 -31 -103t-88.5 -68t-135.5 -24h-355v712h346q112 0 178 -50t66 -135q0 -55 -29 -97t-82 -61q63 -18 97 -63.5zM247 433h131q52 0 76 16t24 51q0 36 -24.5 53t-75.5 17h-131v-137zM474.5 159q23.5 17 23.5 57q0 41 -23 58t-78 17
h-150v-149h150q54 0 77.5 17z" />
    <glyph glyph-name="C" unicode="C" horiz-adv-x="685" 
d="M216.5 36.5q-82.5 45.5 -127 128.5t-44.5 192q0 108 44.5 190.5t127 128t193.5 45.5q70 0 135.5 -21t105.5 -57l-57 -133q-87 63 -180 63q-86 0 -132 -54.5t-46 -161.5q0 -108 46 -163t132 -55q93 0 180 63l57 -133q-40 -36 -105.5 -57t-135.5 -21q-111 0 -193.5 45.5z
" />
    <glyph glyph-name="D" unicode="D" horiz-adv-x="781" 
d="M64 712h291q118 0 203.5 -42.5t131 -122.5t45.5 -190q0 -111 -45 -191.5t-130.5 -123t-204.5 -42.5h-291v712zM342 150q104 0 155.5 51.5t51.5 155.5q0 205 -207 205h-90v-412h90z" />
    <glyph glyph-name="E" unicode="E" horiz-adv-x="604" 
d="M64 0v712h508v-144h-325v-134h304v-144h-304v-146h325v-144h-508z" />
    <glyph glyph-name="F" unicode="F" horiz-adv-x="584" 
d="M64 0v712h497v-147h-312v-130h292v-146h-292v-289h-185z" />
    <glyph glyph-name="G" unicode="G" horiz-adv-x="751" 
d="M696 402v-357q-57 -26 -127.5 -40t-144.5 -14q-116 0 -201.5 44t-131.5 126.5t-46 195.5q0 110 46 192.5t130 127t196 44.5q77 0 145.5 -20t111.5 -55l-59 -133q-49 32 -94.5 46.5t-97.5 14.5q-95 0 -141.5 -53.5t-46.5 -163.5q0 -114 48.5 -169t149.5 -55q47 0 94 10
v132h-124v127h293z" />
    <glyph glyph-name="H" unicode="H" horiz-adv-x="784" 
d="M536 712h184v-712h-184v288h-288v-288h-184v712h184v-277h288v277z" />
    <glyph glyph-name="I" unicode="I" horiz-adv-x="316" 
d="M64 0v712h188v-712h-188z" />
    <glyph glyph-name="J" unicode="J" horiz-adv-x="403" 
d="M2 -29q50 -5 73 -5q45 0 60 18t15 69v659h188v-656q0 -126 -51 -185t-175 -59q-49 0 -110 9v150z" />
    <glyph glyph-name="K" unicode="K" horiz-adv-x="706" 
d="M760 0h-223l-285 323v-323h-188v712h188v-306l277 306h220l-315 -338z" />
    <glyph glyph-name="L" unicode="L" horiz-adv-x="579" 
d="M64 0v712h188v-560h301v-152h-489z" />
    <glyph glyph-name="M" unicode="M" horiz-adv-x="852" 
d="M639 712h146v-712h-164l-1 326l-135 -326h-119l-136 322v-322h-163v712h147l213 -486z" />
    <glyph glyph-name="N" unicode="N" horiz-adv-x="766" 
d="M524 712h177v-712h-139l-323 404v-404h-175v712h137l323 -402v402z" />
    <glyph glyph-name="O" unicode="O" horiz-adv-x="805" 
d="M213 35.5q-81 44.5 -124.5 127.5t-43.5 194t44 193t124.5 126.5t189.5 44.5t189.5 -44.5t123.5 -126.5t43 -193t-43 -194t-123.5 -127.5t-189.5 -44.5t-190 44.5zM528.5 191q45.5 57 45.5 166q0 108 -45.5 164.5t-125.5 56.5t-125 -56t-45 -165q0 -110 45 -166.5
t125 -56.5t125.5 57z" />
    <glyph glyph-name="P" unicode="P" horiz-adv-x="685" 
d="M64 712h339q122 0 189 -58.5t67 -158.5q0 -99 -68 -158t-188 -59h-151v-278h-188v712zM378 418q106 0 106 75q0 38 -25.5 57.5t-80.5 19.5h-126v-152h126z" />
    <glyph glyph-name="Q" unicode="Q" horiz-adv-x="805" 
d="M648.5 -32.5q32.5 -32.5 74.5 -67.5l-125 -91q-110 72 -175 182h-20q-109 0 -190 44.5t-124.5 127.5t-43.5 194t44 193t124.5 126.5t189.5 44.5t189.5 -44.5t123.5 -126.5t43 -193t-43 -193.5t-122 -126.5q22 -37 54.5 -69.5zM278 190.5q45 -56.5 125 -56.5t125.5 57
t45.5 166q0 108 -45.5 164.5t-125.5 56.5t-125 -56t-45 -165q0 -110 45 -166.5z" />
    <glyph glyph-name="R" unicode="R" horiz-adv-x="714" 
d="M683 0h-199l-92 237q-16 40 -75 40h-68v-277h-185v712h331q129 0 194 -55.5t65 -158.5q0 -72 -38.5 -124.5t-108.5 -74.5q30 -6 54 -28t38 -59zM452 435.5q27 18.5 27 57.5q0 41 -26.5 59t-87.5 18h-118v-153h118q60 0 87 18.5z" />
    <glyph glyph-name="S" unicode="S" horiz-adv-x="672" 
d="M164 12q-78 21 -127 57l59 133q52 -33 110.5 -50.5t117.5 -17.5q60 0 92 16.5t32 46.5q0 27 -29 44.5t-109 34.5q-101 20 -157 49.5t-78.5 69.5t-22.5 97q0 65 37 117.5t104 82t153 29.5q77 0 149.5 -21.5t113.5 -56.5l-58 -133q-47 33 -99 50.5t-104 17.5
q-51 0 -82 -19.5t-31 -52.5q0 -18 11 -30t41 -23.5t90 -24.5q97 -21 152.5 -50.5t78.5 -69t23 -94.5q0 -104 -81 -163.5t-228 -59.5q-80 0 -158 21z" />
    <glyph glyph-name="T" unicode="T" horiz-adv-x="638" 
d="M224 0v560h-212v152h614v-152h-212v-560h-190z" />
    <glyph glyph-name="U" unicode="U" horiz-adv-x="752" 
d="M141 69.5q-80 78.5 -80 230.5v412h183v-419q0 -77 34.5 -118t98.5 -41q63 0 97 41.5t34 117.5v419h185v-412q0 -150 -81.5 -229.5t-234.5 -79.5q-156 0 -236 78.5z" />
    <glyph glyph-name="V" unicode="V" horiz-adv-x="751" 
d="M585 712h189l-324 -712h-149l-324 712h195l205 -478z" />
    <glyph glyph-name="W" unicode="W" horiz-adv-x="1132" 
d="M942 712h178l-255 -712h-149l-149 423l-152 -423h-149l-254 712h191l146 -449l159 449h128l153 -457z" />
    <glyph glyph-name="X" unicode="X" horiz-adv-x="694" 
d="M452 360l272 -360h-219l-159 222l-160 -222h-218l271 360l-265 352h217l154 -216l157 216h218z" />
    <glyph glyph-name="Y" unicode="Y" horiz-adv-x="657" 
d="M724 712l-301 -440v-272h-189v273l-299 439h212l180 -284l183 284h214z" />
    <glyph glyph-name="Z" unicode="Z" horiz-adv-x="624" 
d="M260 147h329v-147h-536v137l314 428h-314v147h525v-135z" />
    <glyph glyph-name="bracketleft" unicode="[" horiz-adv-x="401" 
d="M103 -182v894h281v-134h-104v-626h104v-134h-281z" />
    <glyph glyph-name="backslash" unicode="\" horiz-adv-x="352" 
d="M234 -64l-262 822h145l263 -822h-146z" />
    <glyph glyph-name="bracketright" unicode="]" horiz-adv-x="401" 
d="M298 -182h-281v134h104v626h-104v134h281v-894z" />
    <glyph glyph-name="asciicircum" unicode="^" horiz-adv-x="600" 
d="M560 145h-133l-127 333l-127 -333h-134l193 493h136z" />
    <glyph glyph-name="underscore" unicode="_" horiz-adv-x="505" 
d="M17 -103v103h471v-103h-471z" />
    <glyph glyph-name="grave" unicode="`" horiz-adv-x="300" 
d="M97 562l-161 208h172l98 -208h-109z" />
    <glyph glyph-name="a" unicode="a" horiz-adv-x="643" 
d="M589 508v-508h-178v69q-22 -36 -64 -56.5t-92 -20.5q-65 0 -116 32t-79.5 91.5t-28.5 137.5q0 79 29 140t80 95t115 34q50 0 91.5 -21.5t64.5 -57.5v65h178zM385 160q26 33 26 95q0 63 -26 96.5t-74 33.5q-47 0 -74 -34.5t-27 -97.5q0 -61 26 -93.5t75 -32.5q48 0 74 33z
" />
    <glyph glyph-name="b" unicode="b" horiz-adv-x="645" 
d="M506 489.5q51 -32.5 79.5 -92.5t28.5 -138q0 -79 -29 -139.5t-80 -94t-116 -33.5q-51 0 -93 20.5t-63 56.5v-69h-179v736h181v-289q22 34 63 54.5t91 20.5q66 0 117 -32.5zM407.5 161q25.5 34 25.5 98q0 61 -25 93.5t-74 32.5t-75 -33t-26 -95q0 -64 26 -97t75 -33
q48 0 73.5 34z" />
    <glyph glyph-name="c" unicode="c" horiz-adv-x="515" 
d="M104 62q-73 70 -73 191q0 80 35.5 141t99.5 94.5t148 33.5q56 0 110 -16.5t86 -44.5l-46 -125q-27 22 -63 35t-69 13q-56 0 -86 -32t-30 -95q0 -64 30 -96.5t87 -32.5q33 0 68.5 13t62.5 35l46 -123q-33 -29 -87.5 -45t-116.5 -16q-129 0 -202 70z" />
    <glyph glyph-name="d" unicode="d" horiz-adv-x="643" 
d="M589 736v-736h-178v69q-22 -36 -64 -56.5t-92 -20.5q-65 0 -116 33.5t-79.5 94t-28.5 139.5q0 78 28.5 138t79.5 92.5t116 32.5q48 0 88.5 -20t64.5 -54v288h181zM385 160.5q26 33.5 26 96.5q0 61 -26.5 94.5t-73.5 33.5q-49 0 -75 -32.5t-26 -93.5q0 -63 26.5 -97.5
t74.5 -34.5t74 33.5z" />
    <glyph glyph-name="e" unicode="e" horiz-adv-x="553" 
d="M523 236h-319q5 -59 34 -85t85 -26q38 0 76 12.5t69 34.5l46 -120q-38 -28 -92 -44t-108 -16q-87 0 -151 32t-98 91.5t-34 140.5q0 77 32.5 137.5t90 94.5t131.5 34q72 0 126 -32t83 -91.5t29 -138.5v-24zM206 320h162q-10 78 -78 78q-67 0 -84 -78z" />
    <glyph glyph-name="f" unicode="f" horiz-adv-x="405" 
d="M298 576.5q-21 -18.5 -21 -56.5v-12h99v-133h-99v-375h-181v375h-93v133h93v14q0 103 53.5 161t155.5 58q58 0 94 -14v-139q-29 7 -48 7q-32 0 -53 -18.5z" />
    <glyph glyph-name="g" unicode="g" horiz-adv-x="647" 
d="M595 508v-476q0 -125 -75 -190.5t-220 -65.5q-124 0 -215 44l27 132q45 -20 92.5 -31.5t89.5 -11.5q62 0 91.5 26.5t29.5 82.5v75q-25 -33 -67.5 -56t-90.5 -23q-65 0 -116.5 31.5t-80.5 89t-29 133.5q0 75 29 132.5t80.5 89.5t116.5 32q51 0 93 -21t65 -57v64h180z
M388 180.5q27 31.5 27 87.5q0 54 -27 85.5t-75 31.5t-75.5 -31t-27.5 -86t28 -87t75 -32q48 0 75 31.5z" />
    <glyph glyph-name="h" unicode="h" horiz-adv-x="624" 
d="M528.5 467.5q44.5 -54.5 44.5 -164.5v-303h-181v295q0 47 -16 67.5t-50 20.5q-41 0 -66 -27.5t-25 -72.5v-283h-181v736h181v-290q59 76 159 76q90 0 134.5 -54.5z" />
    <glyph glyph-name="i" unicode="i" horiz-adv-x="289" 
d="M54 0v508h181v-508h-181zM49 757h189v-163h-189v163z" />
    <glyph glyph-name="j" unicode="j" horiz-adv-x="289" 
d="M-20 -79q32 0 53 18.5t21 56.5v512h181v-514q0 -103 -53.5 -161t-156.5 -58q-58 0 -94 14v139q29 -7 49 -7zM48 757h189v-163h-189v163z" />
    <glyph glyph-name="k" unicode="k" horiz-adv-x="598" 
d="M627 0h-219l-173 219v-219h-181v736h181v-440l170 211h214l-200 -243z" />
    <glyph glyph-name="l" unicode="l" horiz-adv-x="289" 
d="M54 0v736h181v-736h-181z" />
    <glyph glyph-name="m" unicode="m" horiz-adv-x="925" 
d="M831.5 468q42.5 -54 42.5 -165v-303h-181v298q0 45 -13.5 65t-45.5 20q-38 0 -59 -28t-21 -79v-276h-181v298q0 45 -14 65t-45 20q-38 0 -58.5 -28t-20.5 -79v-276h-181v362q0 82 -8 146h170l9 -71q23 41 64.5 63t95.5 22q109 0 148 -92q27 42 71.5 67t96.5 25
q88 0 130.5 -54z" />
    <glyph glyph-name="n" unicode="n" horiz-adv-x="624" 
d="M528.5 467.5q44.5 -54.5 44.5 -164.5v-303h-181v295q0 47 -16 67.5t-50 20.5q-41 0 -66 -27.5t-25 -72.5v-283h-181v362q0 82 -8 146h170l9 -75q29 43 72 66t97 23q90 0 134.5 -54.5z" />
    <glyph glyph-name="o" unicode="o" horiz-adv-x="618" 
d="M162 24q-63 32 -97 92t-34 141t34 141t97 92t148 32q84 0 146.5 -32.5t96.5 -92t34 -140.5t-34 -140.5t-96.5 -92t-146.5 -32.5q-85 0 -148 32zM408 257q0 66 -24.5 97.5t-73.5 31.5q-50 0 -75 -31.5t-25 -97.5q0 -67 25 -98.5t75 -31.5q98 0 98 130z" />
    <glyph glyph-name="p" unicode="p" horiz-adv-x="645" 
d="M505 488q51 -34 80 -95t29 -140q0 -78 -28.5 -137.5t-79.5 -91.5t-117 -32q-50 0 -91 19.5t-63 54.5v-282h-181v578q0 82 -8 146h170l10 -79q19 42 63 67.5t100 25.5q65 0 116 -34zM408 159q25 32 25 94q0 63 -25.5 97.5t-73.5 34.5q-49 0 -75 -33t-26 -97q0 -62 26 -95
t75 -33t74 32z" />
    <glyph glyph-name="q" unicode="q" horiz-adv-x="643" 
d="M599 508q-10 -60 -10 -146v-578h-181v280q-23 -34 -63.5 -53t-89.5 -19q-65 0 -116 32t-79.5 91.5t-28.5 137.5q0 79 29 140t80 95t115 34q54 0 98.5 -24.5t64.5 -65.5l10 76h171zM385 160q26 33 26 95q0 63 -26 96.5t-74 33.5q-47 0 -74 -34.5t-27 -97.5q0 -61 26 -93.5
t75 -32.5q48 0 74 33z" />
    <glyph glyph-name="r" unicode="r" horiz-adv-x="430" 
d="M432 509v-165q-43 20 -83 20q-114 0 -114 -109v-255h-181v362q0 82 -8 146h170l11 -85q18 47 58 72t90 25q37 0 57 -11z" />
    <glyph glyph-name="s" unicode="s" horiz-adv-x="507" 
d="M19 53l46 123q41 -28 93 -43.5t102 -15.5q31 0 48 9t17 25q0 14 -12.5 22.5t-47.5 15.5l-82 19q-78 16 -112.5 50.5t-34.5 95.5q0 49 29 87t80.5 59.5t118.5 21.5q55 0 108 -16t99 -45l-48 -120q-40 26 -82 40t-79 14q-30 0 -47 -9.5t-17 -27.5q0 -11 10 -17.5t38 -13.5
l85 -19q81 -19 116.5 -55.5t35.5 -99.5q0 -75 -59.5 -118t-164.5 -43q-152 0 -240 61z" />
    <glyph glyph-name="t" unicode="t" horiz-adv-x="416" 
d="M402 144v-137q-37 -15 -94 -15q-103 0 -156.5 58t-53.5 161v164h-95v133h95v115l181 58v-173h122v-133h-122v-164q0 -36 21.5 -54.5t53.5 -18.5q18 0 48 6z" />
    <glyph glyph-name="u" unicode="u" horiz-adv-x="619" 
d="M565 508v-508h-177v68q-49 -76 -145 -76q-97 0 -144.5 54t-47.5 165v297h181v-302q0 -75 65 -75q38 0 61.5 27t23.5 72v278h183z" />
    <glyph glyph-name="v" unicode="v" horiz-adv-x="559" 
d="M401 507h178l-226 -507h-149l-223 507h188l114 -292z" />
    <glyph glyph-name="w" unicode="w" horiz-adv-x="900" 
d="M736 508h174l-212 -508h-149l-102 252l-96 -252h-150l-212 508h184l113 -293l110 293h116l113 -299z" />
    <glyph glyph-name="x" unicode="x" horiz-adv-x="567" 
d="M386 262l217 -262h-212l-108 136l-108 -136h-211l217 262l-204 246h212l94 -122l93 122h214z" />
    <glyph glyph-name="y" unicode="y" horiz-adv-x="559" 
d="M579 508l-233 -526q-46 -103 -115.5 -150.5t-171.5 -59.5l-42 138q70 14 105 36t53 61l13 28l-207 473h188l114 -293l118 293h178z" />
    <glyph glyph-name="z" unicode="z" horiz-adv-x="535" 
d="M258 134h246v-134h-457v127l230 248h-229v133h446v-119z" />
    <glyph glyph-name="braceleft" unicode="{" horiz-adv-x="438" 
d="M290.5 307.5q-26.5 -34.5 -60.5 -42.5q34 -8 60.5 -43t26.5 -82v-90q0 -46 22 -72t52 -26h30v-134h-66q-104 0 -159.5 48.5t-55.5 141.5v85q0 56 -12 78.5t-44 34.5l-48 16v84l48 17q32 12 44 34.5t12 77.5v87q0 93 55 141.5t160 48.5h66v-134h-30q-30 0 -52 -25t-22 -73
v-92q0 -46 -26.5 -80.5z" />
    <glyph glyph-name="bar" unicode="|" horiz-adv-x="305" 
d="M69 -182v894h166v-894h-166z" />
    <glyph glyph-name="braceright" unicode="}" horiz-adv-x="438" 
d="M402 306v-84l-48 -16q-31 -12 -43.5 -34.5t-12.5 -78.5v-85q0 -93 -55.5 -141.5t-159.5 -48.5h-66v134h31q29 0 51 26t22 72v90q0 47 26.5 82t60.5 43q-34 8 -60.5 42.5t-26.5 80.5v92q0 48 -22 73t-51 25h-31v134h66q105 0 160 -48.5t55 -141.5v-87q0 -55 12.5 -77.5
t43.5 -34.5z" />
    <glyph glyph-name="asciitilde" unicode="~" horiz-adv-x="600" 
d="M546 315q-15 -51 -55 -82.5t-87 -31.5q-28 0 -54.5 9.5t-66.5 29.5q-29 14 -45.5 20.5t-30.5 6.5q-45 0 -65 -60l-88 60q15 52 55 83t87 31q29 0 56 -9.5t65 -28.5q29 -14 45.5 -20.5t30.5 -6.5q45 0 65 58z" />
    <glyph glyph-name="uni00A0" unicode="&#xa0;" horiz-adv-x="290" 
 />
    <glyph glyph-name="exclamdown" unicode="&#xa1;" horiz-adv-x="276" 
d="M43 312v185h189v-185h-189zM83 250h110l56 -431l-223 -1z" />
    <glyph glyph-name="cent" unicode="&#xa2;" horiz-adv-x="600" 
d="M551 53q-40 -34 -108 -50v-122h-143v114q-106 13 -167 81.5t-61 176.5q0 105 62.5 177t165.5 88v113h143v-120q65 -15 108 -50l-47 -125q-26 21 -61 34v-229q36 13 61 35zM300 149v214q-42 -31 -42 -106q0 -76 42 -108z" />
    <glyph glyph-name="sterling" unicode="&#xa3;" horiz-adv-x="600" 
d="M276.5 195q-8.5 -27 -28.5 -46h328v-149h-540v126q38 20 50.5 43.5t12.5 71.5v62h-63v107h63v107q0 60 31 106.5t86.5 72t126.5 25.5t134.5 -19.5t110.5 -55.5l-58 -133q-49 31 -92.5 47t-77.5 16q-75 0 -75 -72v-94h154v-107h-154v-40q0 -41 -8.5 -68z" />
    <glyph glyph-name="currency" unicode="&#xa4;" horiz-adv-x="600" 
d="M498 104l55 -58l-60 -59l-54 56q-63 -46 -142 -46q-76 0 -139 44l-54 -55l-62 60l55 57q-45 66 -45 144q0 79 45 145l-55 56l63 62l54 -55q62 43 138 43q75 0 137 -43l55 58l68 -68l-57 -57q42 -62 42 -141q0 -80 -44 -143zM370.5 169q30.5 33 30.5 78q0 46 -31 79
t-74 33t-73 -33t-30 -79t30 -78.5t75 -32.5q42 0 72.5 33z" />
    <glyph glyph-name="yen" unicode="&#xa5;" horiz-adv-x="600" 
d="M633 712l-198 -298h104v-106h-145v-50h145v-106h-145v-152h-189v152h-144v106h144v50h-144v106h103l-197 298h200l133 -219l133 219h200z" />
    <glyph glyph-name="brokenbar" unicode="&#xa6;" horiz-adv-x="305" 
d="M69 375v337h166v-337h-166zM69 -182v338h166v-338h-166z" />
    <glyph glyph-name="section" unicode="&#xa7;" horiz-adv-x="604" 
d="M506 94q30 -43 30 -84q0 -97 -64.5 -148t-185.5 -51q-72 0 -131.5 15.5t-99.5 45.5l45 123q40 -25 86.5 -39.5t87.5 -14.5q38 0 62 14.5t24 37.5q0 17 -12 29.5t-41 26.5l-146 64q-68 29 -101 72t-33 105q0 89 72 147q-31 42 -31 83q0 92 68.5 145.5t187.5 53.5
q124 0 207 -57l-45 -119q-33 22 -73.5 34.5t-79.5 12.5q-42 0 -65.5 -13.5t-23.5 -38.5q0 -34 52 -56l146 -65q135 -57 135 -176q0 -90 -71 -147zM407 174l3 -2q8 16 8 27q0 26 -19 50t-52 39l-150 72l-3 1q-9 -20 -9 -30q0 -26 18.5 -49t51.5 -39z" />
    <glyph glyph-name="dieresis" unicode="&#xa8;" horiz-adv-x="300" 
d="M-29 740h160v-152h-160v152zM172 740h160v-152h-160v152z" />
    <glyph glyph-name="copyright" unicode="&#xa9;" horiz-adv-x="823" 
d="M228.5 43q-82.5 48 -130 130.5t-47.5 183.5t47.5 183t130 129.5t183.5 47.5t183.5 -47.5t130 -130t47.5 -182.5q0 -101 -47.5 -183.5t-130.5 -130.5t-183 -48q-101 0 -183.5 48zM559.5 103q65.5 38 102.5 104.5t37 149.5q0 82 -37 148t-102.5 104t-147.5 38
q-83 0 -148.5 -37.5t-102.5 -104t-37 -148.5q0 -83 37 -149.5t102.5 -104.5t148.5 -38q82 0 147.5 38zM264 197.5q-61 59.5 -61 159.5q0 99 61 158t165 59q101 0 159 -46l-38 -109q-15 10 -42.5 20.5t-51.5 10.5q-42 0 -66.5 -24.5t-24.5 -68.5q0 -45 24.5 -70t66.5 -25
q24 0 51.5 10.5t42.5 20.5l38 -109q-63 -46 -159 -46q-104 0 -165 59.5z" />
    <glyph glyph-name="ordfeminine" unicode="&#xaa;" horiz-adv-x="346" 
d="M294.5 681q38.5 -36 38.5 -111v-162h-137v51q-10 -28 -32 -42t-51 -14q-44 0 -73.5 30.5t-29.5 68.5q0 43 36.5 64.5t121.5 21.5h25v8q0 8 -8.5 12t-29.5 4q-46 0 -94 -20l-25 101q58 24 138 24q82 0 120.5 -36zM193 522v3h-8q-45 0 -45 -18q0 -5 6 -8.5t17 -3.5
q30 0 30 27z" />
    <glyph glyph-name="guillemotleft" unicode="&#xab;" horiz-adv-x="565" 
d="M157 84l-138 183l137 185h148l-132 -184l131 -184h-146zM398 84l-138 183l137 185h148l-132 -184l131 -184h-146z" />
    <glyph glyph-name="logicalnot" unicode="&#xac;" horiz-adv-x="600" 
d="M546 451v-321h-125v199h-367v122h492z" />
    <glyph glyph-name="uni00AD" unicode="&#xad;" horiz-adv-x="450" 
d="M64 201v140h324v-140h-324z" />
    <glyph glyph-name="registered" unicode="&#xae;" horiz-adv-x="823" 
d="M595.5 669.5q82.5 -47.5 130 -130t47.5 -182.5q0 -101 -47.5 -183.5t-130.5 -130.5t-183 -48q-101 0 -183.5 48t-130 130.5t-47.5 183.5t47.5 183t130 129.5t183.5 47.5t183.5 -47.5zM681 250q18 50 18 107q0 82 -37 148t-102.5 104t-147.5 38q-83 0 -148.5 -37.5
t-102.5 -104t-37 -148.5q0 -83 37 -149.5t102.5 -104.5t148.5 -38q60 0 111 20.5t90 57.5h-151l-63 138q0 3 -1.5 5.5t-2.5 2.5h-11v-146h-158v428h214q81 0 124.5 -38t43.5 -102q0 -47 -25.5 -82t-73.5 -49q24 -2 46 -15t34 -37l41 -86q33 38 51 88zM449.5 402
q9.5 6 9.5 21q0 17 -9.5 23.5t-30.5 6.5h-37v-57h37q21 0 30.5 6z" />
    <glyph glyph-name="macron" unicode="&#xaf;" horiz-adv-x="300" 
d="M-9 610v108h321v-108h-321z" />
    <glyph glyph-name="degree" unicode="&#xb0;" horiz-adv-x="373" 
d="M106 428q-36 20 -57 55.5t-21 79.5q0 43 21 78.5t57 55.5t80 20t80.5 -20t57 -55.5t20.5 -78.5q0 -44 -20.5 -79.5t-57 -55.5t-80.5 -20t-80 20zM233 514.5q19 19.5 19 48.5t-19 48t-47 19q-27 0 -46 -18.5t-19 -48.5t19 -49t46 -19q28 0 47 19.5z" />
    <glyph glyph-name="plusminus" unicode="&#xb1;" horiz-adv-x="600" 
d="M361 406h185v-122h-185v-132h-122v132h-185v122h185v131h122v-131zM54 0v121h492v-121h-492z" />
    <glyph glyph-name="uni00B2" unicode="&#xb2;" horiz-adv-x="380" 
d="M357 404v-119h-318v112l129 133q27 31 27 49q0 23 -38 23q-51 0 -111 -31l-20 111q29 15 74.5 24.5t86.5 9.5q73 0 118 -34.5t45 -92.5q0 -36 -18 -67.5t-67 -74.5l-52 -43h144z" />
    <glyph glyph-name="uni00B3" unicode="&#xb3;" horiz-adv-x="380" 
d="M343 468q21 -27 21 -65q0 -32 -20 -60.5t-60.5 -45.5t-100.5 -17q-43 0 -88.5 9t-74.5 24l19 111q58 -30 129 -30q29 0 40.5 6t11.5 18q0 24 -43 24h-78v116h66q25 0 33.5 4.5t8.5 17.5q0 10 -10.5 16t-31.5 6q-28 0 -59.5 -8.5t-59.5 -22.5l-20 111q29 15 73 24.5
t79 9.5q82 0 127 -35t45 -87q0 -31 -16.5 -54.5t-48.5 -33.5q37 -11 58 -38z" />
    <glyph glyph-name="acute" unicode="&#xb4;" horiz-adv-x="300" 
d="M206 562h-109l98 208h172z" />
    <glyph glyph-name="uni00B5" unicode="&#xb5;" horiz-adv-x="619" 
d="M565 508v-508h-177v68q-49 -76 -145 -76h-11v-208h-181v724h181v-302q0 -75 65 -75q38 0 61.5 27t23.5 72v278h183z" />
    <glyph glyph-name="paragraph" unicode="&#xb6;" horiz-adv-x="658" 
d="M593 -182h-115v791h-103v-791h-116v432q-69 0 -122 29t-82 81.5t-29 121.5t29.5 121t83 80.5t124.5 28.5h330v-894z" />
    <glyph glyph-name="periodcentered" unicode="&#xb7;" horiz-adv-x="276" 
d="M43 365h189v-186h-189v186z" />
    <glyph glyph-name="cedilla" unicode="&#xb8;" horiz-adv-x="300" 
d="M252 -59q23 -19 23 -51q0 -41 -37 -65.5t-107 -24.5q-22 0 -48.5 4.5t-48.5 12.5l11 65q54 -14 80 -14q43 0 43 22q0 17 -32 17q-12 0 -32 -5l-20 22l13 96h92l-9 -60h8q41 0 64 -19z" />
    <glyph glyph-name="uni00B9" unicode="&#xb9;" horiz-adv-x="380" 
d="M295 404h83v-119h-320v119h83v148l-78 -39v134l125 65h107v-308z" />
    <glyph glyph-name="ordmasculine" unicode="&#xba;" horiz-adv-x="391" 
d="M59 448.5q-46 45.5 -46 112.5q0 65 46 110.5t137 45.5t136.5 -45.5t45.5 -110.5q0 -67 -45.5 -112.5t-136.5 -45.5t-137 45.5zM224 528q11 12 11 33q0 42 -39 42t-39 -42q0 -21 11 -33t28 -12t28 12z" />
    <glyph glyph-name="guillemotright" unicode="&#xbb;" horiz-adv-x="565" 
d="M168 84h-147l132 184l-133 184h149l136 -185zM409 84h-147l132 184l-133 184h149l136 -185z" />
    <glyph glyph-name="onequarter" unicode="&#xbc;" horiz-adv-x="973" 
d="M636 744l114 -66l-413 -710l-114 66l146 251h-311v119h83v148l-78 -39v134l125 65h107v-308h83v-104zM974 165v-109h-59v-56h-133v56h-186v105l200 266h119v-262h59zM716 165h66v84z" />
    <glyph glyph-name="onehalf" unicode="&#xbd;" horiz-adv-x="973" 
d="M636 744l114 -66l-413 -710l-114 66l146 251h-311v119h83v148l-78 -39v134l125 65h107v-308h83v-104zM950 119v-119h-318v112l129 133q27 31 27 49q0 23 -38 23q-51 0 -111 -31l-20 111q29 15 74.5 24.5t86.5 9.5q73 0 118 -34.5t45 -92.5q0 -36 -18 -67.5t-67 -74.5
l-52 -43h144z" />
    <glyph glyph-name="threequarters" unicode="&#xbe;" horiz-adv-x="973" 
d="M343 468q21 -27 21 -65q0 -32 -20 -60.5t-60.5 -45.5t-100.5 -17q-43 0 -88.5 9t-74.5 24l19 111q58 -30 129 -30q29 0 40.5 6t11.5 18q0 24 -43 24h-78v116h66q25 0 33.5 4.5t8.5 17.5q0 10 -10.5 16t-31.5 6q-28 0 -59.5 -8.5t-59.5 -22.5l-20 111q29 15 73 24.5
t79 9.5q82 0 127 -35t45 -87q0 -31 -16.5 -54.5t-48.5 -33.5q37 -11 58 -38zM337 -32l-114 66l413 710l114 -66zM974 165v-109h-59v-56h-133v56h-186v105l200 266h119v-262h59zM716 165h66v84z" />
    <glyph glyph-name="questiondown" unicode="&#xbf;" horiz-adv-x="484" 
d="M150 312v185h188v-185h-188zM120 -169.5q-53 20.5 -84.5 60.5t-31.5 96q0 34 15 60.5t36 45t56 43.5q36 26 53.5 42.5t22.5 37.5l7 40h106v-62q0 -47 -18.5 -74.5t-51.5 -54.5q-22 -18 -32 -30.5t-10 -29.5q0 -50 63 -50q70 0 143 45v-147q-68 -43 -159 -43
q-62 0 -115 20.5z" />
    <glyph glyph-name="Agrave" unicode="&#xc0;" horiz-adv-x="769" 
d="M607 0l-63 147h-316l-63 -147h-188l333 712h148l334 -712h-185zM289 288h194l-97 225zM329 773l-157 158h162l104 -158h-109z" />
    <glyph glyph-name="Aacute" unicode="&#xc1;" horiz-adv-x="769" 
d="M607 0l-63 147h-316l-63 -147h-188l333 712h148l334 -712h-185zM289 288h194l-97 225zM438 773h-109l104 158h162z" />
    <glyph glyph-name="Acircumflex" unicode="&#xc2;" horiz-adv-x="769" 
d="M607 0l-63 147h-316l-63 -147h-188l333 712h148l334 -712h-185zM289 288h194l-97 225zM326 773h-131l139 158h99l139 -158h-131l-57 78z" />
    <glyph glyph-name="Atilde" unicode="&#xc3;" horiz-adv-x="769" 
d="M607 0l-63 147h-316l-63 -147h-188l333 712h148l334 -712h-185zM289 288h194l-97 225zM236 894.5q33 39.5 84 39.5q17 0 33 -6.5t40 -20.5q19 -11 32 -17t25 -6q17 0 28 12t14 35h72q0 -81 -33 -120.5t-84 -39.5q-17 0 -33 6.5t-40 20.5q-19 11 -32 17t-25 6
q-17 0 -28 -12t-14 -35h-72q0 81 33 120.5z" />
    <glyph glyph-name="Adieresis" unicode="&#xc4;" horiz-adv-x="769" 
d="M607 0l-63 147h-316l-63 -147h-188l333 712h148l334 -712h-185zM289 288h194l-97 225zM203 928h160v-151h-160v151zM404 928h160v-151h-160v151z" />
    <glyph glyph-name="Aring" unicode="&#xc5;" horiz-adv-x="769" 
d="M544 147h-316l-63 -147h-188l330 706q-17 15 -26.5 36.5t-9.5 45.5q0 46 33.5 78.5t80.5 32.5t80.5 -32.5t33.5 -78.5q0 -25 -10 -47t-27 -37l330 -704h-185zM355 818.5q-12 -12.5 -12 -30.5t12 -31.5t30 -13.5t30 13.5t12 31.5t-12 30.5t-30 12.5t-30 -12.5zM289 288
h194l-97 225z" />
    <glyph glyph-name="AE" unicode="&#xc6;" horiz-adv-x="1014" 
d="M982 568h-303l8 -134h274v-144h-264l9 -146h276v-144h-437l-9 147h-289l-87 -147h-203l454 712h571v-144zM528 288l-17 280h-13l-167 -280h197z" />
    <glyph glyph-name="Ccedilla" unicode="&#xc7;" horiz-adv-x="685" 
d="M558 16.5q-58 -20.5 -122 -24.5l-5 -32h8q41 0 64 -19t23 -51q0 -41 -37 -65.5t-107 -24.5q-22 0 -48.5 4.5t-48.5 12.5l11 65q54 -14 80 -14q43 0 43 22q0 17 -32 17q-12 0 -32 -5l-20 22l10 71q-93 13 -160.5 61.5t-103.5 125.5t-36 175q0 108 44.5 190.5t127 128
t193.5 45.5q70 0 135.5 -21t105.5 -57l-57 -133q-87 63 -180 63q-86 0 -132 -54.5t-46 -161.5q0 -108 46 -163t132 -55q93 0 180 63l57 -133q-35 -32 -93 -52.5z" />
    <glyph glyph-name="Egrave" unicode="&#xc8;" horiz-adv-x="604" 
d="M64 0v712h508v-144h-325v-134h304v-144h-304v-146h325v-144h-508zM281 773l-157 158h162l104 -158h-109z" />
    <glyph glyph-name="Eacute" unicode="&#xc9;" horiz-adv-x="604" 
d="M64 0v712h508v-144h-325v-134h304v-144h-304v-146h325v-144h-508zM390 773h-109l104 158h162z" />
    <glyph glyph-name="Ecircumflex" unicode="&#xca;" horiz-adv-x="604" 
d="M64 0v712h508v-144h-325v-134h304v-144h-304v-146h325v-144h-508zM278 773h-131l139 158h99l139 -158h-131l-57 78z" />
    <glyph glyph-name="Edieresis" unicode="&#xcb;" horiz-adv-x="604" 
d="M64 0v712h508v-144h-325v-134h304v-144h-304v-146h325v-144h-508zM155 928h160v-151h-160v151zM356 928h160v-151h-160v151z" />
    <glyph glyph-name="Igrave" unicode="&#xcc;" horiz-adv-x="316" 
d="M64 0v712h188v-712h-188zM102 773l-157 158h162l104 -158h-109z" />
    <glyph glyph-name="Iacute" unicode="&#xcd;" horiz-adv-x="316" 
d="M64 0v712h188v-712h-188zM211 773h-109l104 158h162z" />
    <glyph glyph-name="Icircumflex" unicode="&#xce;" horiz-adv-x="316" 
d="M64 0v712h188v-712h-188zM99 773h-131l139 158h99l139 -158h-131l-57 78z" />
    <glyph glyph-name="Idieresis" unicode="&#xcf;" horiz-adv-x="316" 
d="M64 0v712h188v-712h-188zM-24 928h160v-151h-160v151zM177 928h160v-151h-160v151z" />
    <glyph glyph-name="Eth" unicode="&#xd0;" horiz-adv-x="818" 
d="M596 669.5q85 -42.5 130.5 -122.5t45.5 -190q0 -111 -45 -191.5t-130.5 -123t-203.5 -42.5h-292v289h-84v140h84v283h292q118 0 203 -42.5zM534 201.5q51 51.5 51 155.5q0 205 -206 205h-90v-133h184v-140h-184v-139h90q104 0 155 51.5z" />
    <glyph glyph-name="Ntilde" unicode="&#xd1;" horiz-adv-x="766" 
d="M524 712h177v-712h-139l-323 404v-404h-175v712h137l323 -402v402zM234 894.5q33 39.5 84 39.5q17 0 33 -6.5t40 -20.5q19 -11 32 -17t25 -6q17 0 28 12t14 35h72q0 -81 -33 -120.5t-84 -39.5q-17 0 -33 6.5t-40 20.5q-19 11 -32 17t-25 6q-17 0 -28 -12t-14 -35h-72
q0 81 33 120.5z" />
    <glyph glyph-name="Ograve" unicode="&#xd2;" horiz-adv-x="805" 
d="M213 35.5q-81 44.5 -124.5 127.5t-43.5 194t44 193t124.5 126.5t189.5 44.5t189.5 -44.5t123.5 -126.5t43 -193t-43 -194t-123.5 -127.5t-189.5 -44.5t-190 44.5zM528.5 191q45.5 57 45.5 166q0 108 -45.5 164.5t-125.5 56.5t-125 -56t-45 -165q0 -110 45 -166.5
t125 -56.5t125.5 57zM347 773l-157 158h162l104 -158h-109z" />
    <glyph glyph-name="Oacute" unicode="&#xd3;" horiz-adv-x="805" 
d="M213 35.5q-81 44.5 -124.5 127.5t-43.5 194t44 193t124.5 126.5t189.5 44.5t189.5 -44.5t123.5 -126.5t43 -193t-43 -194t-123.5 -127.5t-189.5 -44.5t-190 44.5zM528.5 191q45.5 57 45.5 166q0 108 -45.5 164.5t-125.5 56.5t-125 -56t-45 -165q0 -110 45 -166.5
t125 -56.5t125.5 57zM456 773h-109l104 158h162z" />
    <glyph glyph-name="Ocircumflex" unicode="&#xd4;" horiz-adv-x="805" 
d="M213 35.5q-81 44.5 -124.5 127.5t-43.5 194t44 193t124.5 126.5t189.5 44.5t189.5 -44.5t123.5 -126.5t43 -193t-43 -194t-123.5 -127.5t-189.5 -44.5t-190 44.5zM528.5 191q45.5 57 45.5 166q0 108 -45.5 164.5t-125.5 56.5t-125 -56t-45 -165q0 -110 45 -166.5
t125 -56.5t125.5 57zM344 773h-131l139 158h99l139 -158h-131l-57 78z" />
    <glyph glyph-name="Otilde" unicode="&#xd5;" horiz-adv-x="805" 
d="M213 35.5q-81 44.5 -124.5 127.5t-43.5 194t44 193t124.5 126.5t189.5 44.5t189.5 -44.5t123.5 -126.5t43 -193t-43 -194t-123.5 -127.5t-189.5 -44.5t-190 44.5zM528.5 191q45.5 57 45.5 166q0 108 -45.5 164.5t-125.5 56.5t-125 -56t-45 -165q0 -110 45 -166.5
t125 -56.5t125.5 57zM254 894.5q33 39.5 84 39.5q17 0 33 -6.5t40 -20.5q19 -11 32 -17t25 -6q17 0 28 12t14 35h72q0 -81 -33 -120.5t-84 -39.5q-17 0 -33 6.5t-40 20.5q-19 11 -32 17t-25 6q-17 0 -28 -12t-14 -35h-72q0 81 33 120.5z" />
    <glyph glyph-name="Odieresis" unicode="&#xd6;" horiz-adv-x="805" 
d="M213 35.5q-81 44.5 -124.5 127.5t-43.5 194t44 193t124.5 126.5t189.5 44.5t189.5 -44.5t123.5 -126.5t43 -193t-43 -194t-123.5 -127.5t-189.5 -44.5t-190 44.5zM528.5 191q45.5 57 45.5 166q0 108 -45.5 164.5t-125.5 56.5t-125 -56t-45 -165q0 -110 45 -166.5
t125 -56.5t125.5 57zM221 928h160v-151h-160v151zM422 928h160v-151h-160v151z" />
    <glyph glyph-name="multiply" unicode="&#xd7;" horiz-adv-x="600" 
d="M536 441l-151 -150l151 -151l-85 -85l-151 151l-151 -151l-85 85l151 151l-151 150l85 86l151 -151l151 151z" />
    <glyph glyph-name="Oslash" unicode="&#xd8;" horiz-adv-x="805" 
d="M730 519q29 -72 29 -162q0 -111 -43 -194t-123.5 -127.5t-189.5 -44.5q-66 0 -123 17l-50 -85l-118 71l47 80q-55 48 -84.5 120t-29.5 163q0 111 44 193t124.5 126.5t189.5 44.5q64 0 123 -17l49 85l118 -71l-46 -79q54 -48 83 -120zM253 236l196 337q-23 5 -46 5
q-80 0 -125 -56t-45 -165q0 -72 20 -121zM528.5 191q45.5 57 45.5 166q0 73 -21 121l-197 -338q23 -6 47 -6q80 0 125.5 57z" />
    <glyph glyph-name="Ugrave" unicode="&#xd9;" horiz-adv-x="752" 
d="M141 69.5q-80 78.5 -80 230.5v412h183v-419q0 -77 34.5 -118t98.5 -41q63 0 97 41.5t34 117.5v419h185v-412q0 -150 -81.5 -229.5t-234.5 -79.5q-156 0 -236 78.5zM322 773l-157 158h162l104 -158h-109z" />
    <glyph glyph-name="Uacute" unicode="&#xda;" horiz-adv-x="752" 
d="M141 69.5q-80 78.5 -80 230.5v412h183v-419q0 -77 34.5 -118t98.5 -41q63 0 97 41.5t34 117.5v419h185v-412q0 -150 -81.5 -229.5t-234.5 -79.5q-156 0 -236 78.5zM431 773h-109l104 158h162z" />
    <glyph glyph-name="Ucircumflex" unicode="&#xdb;" horiz-adv-x="752" 
d="M141 69.5q-80 78.5 -80 230.5v412h183v-419q0 -77 34.5 -118t98.5 -41q63 0 97 41.5t34 117.5v419h185v-412q0 -150 -81.5 -229.5t-234.5 -79.5q-156 0 -236 78.5zM319 773h-131l139 158h99l139 -158h-131l-57 78z" />
    <glyph glyph-name="Udieresis" unicode="&#xdc;" horiz-adv-x="752" 
d="M141 69.5q-80 78.5 -80 230.5v412h183v-419q0 -77 34.5 -118t98.5 -41q63 0 97 41.5t34 117.5v419h185v-412q0 -150 -81.5 -229.5t-234.5 -79.5q-156 0 -236 78.5zM196 928h160v-151h-160v151zM397 928h160v-151h-160v151z" />
    <glyph glyph-name="Yacute" unicode="&#xdd;" horiz-adv-x="657" 
d="M724 712l-301 -440v-272h-189v273l-299 439h212l180 -284l183 284h214zM382 773h-109l104 158h162z" />
    <glyph glyph-name="Thorn" unicode="&#xde;" horiz-adv-x="686" 
d="M592.5 518q66.5 -57 66.5 -156t-67 -156t-184 -57h-160v-149h-184v712h184v-137h160q118 0 184.5 -57zM458.5 307.5q25.5 16.5 25.5 54.5q0 37 -26 53.5t-82 16.5h-128v-141h128q57 0 82.5 16.5z" />
    <glyph glyph-name="germandbls" unicode="&#xdf;" horiz-adv-x="723" 
d="M654 298.5q52 -48.5 52 -130.5q0 -52 -28 -92t-79 -62t-118 -22q-64 0 -118.5 15.5t-90.5 45.5l47 128q34 -29 77 -44t87 -15q30 0 44.5 16t14.5 38q0 37 -51 67t-168 57v131q71 19 99 45t28 64q0 78 -92 78q-59 0 -91 -35.5t-32 -107.5v-475h-181v448q0 147 78 222.5
t227 75.5q121 0 190.5 -52t69.5 -146q0 -54 -28 -96t-102 -75q113 -30 165 -78.5z" />
    <glyph glyph-name="agrave" unicode="&#xe0;" horiz-adv-x="643" 
d="M589 508v-508h-178v69q-22 -36 -64 -56.5t-92 -20.5q-65 0 -116 32t-79.5 91.5t-28.5 137.5q0 79 29 140t80 95t115 34q50 0 91.5 -21.5t64.5 -57.5v65h178zM385 160q26 33 26 95q0 63 -26 96.5t-74 33.5q-47 0 -74 -34.5t-27 -97.5q0 -61 26 -93.5t75 -32.5q48 0 74 33z
M266 573l-161 208h172l98 -208h-109z" />
    <glyph glyph-name="aacute" unicode="&#xe1;" horiz-adv-x="643" 
d="M589 508v-508h-178v69q-22 -36 -64 -56.5t-92 -20.5q-65 0 -116 32t-79.5 91.5t-28.5 137.5q0 79 29 140t80 95t115 34q50 0 91.5 -21.5t64.5 -57.5v65h178zM385 160q26 33 26 95q0 63 -26 96.5t-74 33.5q-47 0 -74 -34.5t-27 -97.5q0 -61 26 -93.5t75 -32.5q48 0 74 33z
M375 573h-109l98 208h172z" />
    <glyph glyph-name="acircumflex" unicode="&#xe2;" horiz-adv-x="643" 
d="M589 508v-508h-178v69q-22 -36 -64 -56.5t-92 -20.5q-65 0 -116 32t-79.5 91.5t-28.5 137.5q0 79 29 140t80 95t115 34q50 0 91.5 -21.5t64.5 -57.5v65h178zM385 160q26 33 26 95q0 63 -26 96.5t-74 33.5q-47 0 -74 -34.5t-27 -97.5q0 -61 26 -93.5t75 -32.5q48 0 74 33z
M268 573h-136l136 208h105l136 -208h-136l-52 106z" />
    <glyph glyph-name="atilde" unicode="&#xe3;" horiz-adv-x="643" 
d="M589 508v-508h-178v69q-22 -36 -64 -56.5t-92 -20.5q-65 0 -116 32t-79.5 91.5t-28.5 137.5q0 79 29 140t80 95t115 34q50 0 91.5 -21.5t64.5 -57.5v65h178zM385 160q26 33 26 95q0 63 -26 96.5t-74 33.5q-47 0 -74 -34.5t-27 -97.5q0 -61 26 -93.5t75 -32.5q48 0 74 33z
M173 719.5q33 39.5 84 39.5q17 0 33 -6.5t40 -20.5q19 -11 32 -17t25 -6q17 0 28 12t14 35h72q0 -81 -33 -120.5t-84 -39.5q-17 0 -33 6.5t-40 20.5q-19 11 -32 17t-25 6q-17 0 -28 -12t-14 -35h-72q0 81 33 120.5z" />
    <glyph glyph-name="adieresis" unicode="&#xe4;" horiz-adv-x="643" 
d="M589 508v-508h-178v69q-22 -36 -64 -56.5t-92 -20.5q-65 0 -116 32t-79.5 91.5t-28.5 137.5q0 79 29 140t80 95t115 34q50 0 91.5 -21.5t64.5 -57.5v65h178zM385 160q26 33 26 95q0 63 -26 96.5t-74 33.5q-47 0 -74 -34.5t-27 -97.5q0 -61 26 -93.5t75 -32.5q48 0 74 33z
M140 751h160v-152h-160v152zM341 751h160v-152h-160v152z" />
    <glyph glyph-name="aring" unicode="&#xe5;" horiz-adv-x="643" 
d="M589 508v-508h-178v69q-22 -36 -64 -56.5t-92 -20.5q-65 0 -116 32t-79.5 91.5t-28.5 137.5q0 79 29 140t80 95t115 34q50 0 91.5 -21.5t64.5 -57.5v65h178zM385 160q26 33 26 95q0 63 -26 96.5t-74 33.5q-47 0 -74 -34.5t-27 -97.5q0 -61 26 -93.5t75 -32.5q48 0 74 33z
M239.5 598q-33.5 32 -33.5 80q0 47 33.5 79.5t81.5 32.5q47 0 80.5 -33t33.5 -79q0 -48 -33 -80t-81 -32t-81.5 32zM350.5 646q11.5 13 11.5 32q0 18 -11.5 30.5t-29.5 12.5t-30 -12.5t-12 -30.5q0 -19 12 -32t30 -13t29.5 13z" />
    <glyph glyph-name="ae" unicode="&#xe6;" horiz-adv-x="860" 
d="M829 236h-314q7 -111 119 -111q34 0 71.5 12.5t69.5 34.5l45 -120q-36 -28 -90 -44t-109 -16q-71 0 -123.5 23.5t-84.5 69.5q-25 -45 -69.5 -69t-102.5 -24q-60 0 -107.5 21.5t-74.5 60t-27 88.5q0 83 64.5 120.5t211.5 37.5h36q0 36 -16.5 52t-55.5 16t-85.5 -14
t-88.5 -37l-45 121q45 27 110.5 45.5t120.5 18.5q112 0 164 -59q64 59 160 59q65 0 115 -33t78 -92.5t28 -136.5v-24zM549.5 379.5q-20.5 -18.5 -28.5 -59.5h155q-11 78 -73 78q-33 0 -53.5 -18.5zM324.5 140q19.5 26 19.5 68v30h-25q-113 0 -113 -70q0 -25 16.5 -39.5
t43.5 -14.5q39 0 58.5 26z" />
    <glyph glyph-name="ccedilla" unicode="&#xe7;" horiz-adv-x="515" 
d="M433.5 11.5q-47.5 -15.5 -101.5 -18.5l-5 -33h8q41 0 64 -19t23 -51q0 -41 -37 -65.5t-107 -24.5q-22 0 -48.5 4.5t-48.5 12.5l11 65q54 -14 80 -14q43 0 43 22q0 17 -32 17q-12 0 -32 -5l-20 22l10 73q-100 17 -155 84t-55 172q0 80 35.5 141t99.5 94.5t148 33.5
q56 0 110 -16.5t86 -44.5l-46 -125q-27 22 -63 35t-69 13q-56 0 -86 -32t-30 -95q0 -64 30 -96.5t87 -32.5q33 0 68.5 13t62.5 35l46 -123q-29 -26 -76.5 -41.5z" />
    <glyph glyph-name="egrave" unicode="&#xe8;" horiz-adv-x="553" 
d="M523 236h-319q5 -59 34 -85t85 -26q38 0 76 12.5t69 34.5l46 -120q-38 -28 -92 -44t-108 -16q-87 0 -151 32t-98 91.5t-34 140.5q0 77 32.5 137.5t90 94.5t131.5 34q72 0 126 -32t83 -91.5t29 -138.5v-24zM206 320h162q-10 78 -78 78q-67 0 -84 -78zM230 573l-161 208
h172l98 -208h-109z" />
    <glyph glyph-name="eacute" unicode="&#xe9;" horiz-adv-x="553" 
d="M523 236h-319q5 -59 34 -85t85 -26q38 0 76 12.5t69 34.5l46 -120q-38 -28 -92 -44t-108 -16q-87 0 -151 32t-98 91.5t-34 140.5q0 77 32.5 137.5t90 94.5t131.5 34q72 0 126 -32t83 -91.5t29 -138.5v-24zM206 320h162q-10 78 -78 78q-67 0 -84 -78zM339 573h-109l98 208
h172z" />
    <glyph glyph-name="ecircumflex" unicode="&#xea;" horiz-adv-x="553" 
d="M523 236h-319q5 -59 34 -85t85 -26q38 0 76 12.5t69 34.5l46 -120q-38 -28 -92 -44t-108 -16q-87 0 -151 32t-98 91.5t-34 140.5q0 77 32.5 137.5t90 94.5t131.5 34q72 0 126 -32t83 -91.5t29 -138.5v-24zM206 320h162q-10 78 -78 78q-67 0 -84 -78zM232 573h-136
l136 208h105l136 -208h-136l-52 106z" />
    <glyph glyph-name="edieresis" unicode="&#xeb;" horiz-adv-x="553" 
d="M523 236h-319q5 -59 34 -85t85 -26q38 0 76 12.5t69 34.5l46 -120q-38 -28 -92 -44t-108 -16q-87 0 -151 32t-98 91.5t-34 140.5q0 77 32.5 137.5t90 94.5t131.5 34q72 0 126 -32t83 -91.5t29 -138.5v-24zM206 320h162q-10 78 -78 78q-67 0 -84 -78zM104 751h160v-152
h-160v152zM305 751h160v-152h-160v152z" />
    <glyph glyph-name="igrave" unicode="&#xec;" horiz-adv-x="289" 
d="M54 0v508h181v-508h-181zM89 573l-161 208h172l98 -208h-109z" />
    <glyph glyph-name="iacute" unicode="&#xed;" horiz-adv-x="289" 
d="M54 0v508h181v-508h-181zM198 573h-109l98 208h172z" />
    <glyph glyph-name="icircumflex" unicode="&#xee;" horiz-adv-x="289" 
d="M54 0v508h181v-508h-181zM91 573h-136l136 208h105l136 -208h-136l-52 106z" />
    <glyph glyph-name="idieresis" unicode="&#xef;" horiz-adv-x="289" 
d="M54 0v508h181v-508h-181zM-37 751h160v-152h-160v152zM164 751h160v-152h-160v152z" />
    <glyph glyph-name="eth" unicode="&#xf0;" horiz-adv-x="627" 
d="M574.5 442.5q21.5 -66.5 21.5 -132.5q0 -151 -77 -234.5t-217 -83.5q-79 0 -140.5 30t-96 84.5t-34.5 125.5q0 69 32.5 123t90 84.5t130.5 30.5q80 0 129 -38q-18 53 -56 96l-186 -47l-24 89l111 28q-54 24 -109 28l39 123q146 -16 253 -106l127 32l21 -89l-78 -19
q42 -58 63.5 -124.5zM383 154q25 27 25 78q0 107 -98 107q-100 0 -100 -107q0 -105 100 -105q48 0 73 27z" />
    <glyph glyph-name="ntilde" unicode="&#xf1;" horiz-adv-x="624" 
d="M528.5 467.5q44.5 -54.5 44.5 -164.5v-303h-181v295q0 47 -16 67.5t-50 20.5q-41 0 -66 -27.5t-25 -72.5v-283h-181v362q0 82 -8 146h170l9 -75q29 43 72 66t97 23q90 0 134.5 -54.5zM166 719.5q33 39.5 84 39.5q17 0 33 -6.5t40 -20.5q19 -11 32 -17t25 -6q17 0 28 12
t14 35h72q0 -81 -33 -120.5t-84 -39.5q-17 0 -33 6.5t-40 20.5q-19 11 -32 17t-25 6q-17 0 -28 -12t-14 -35h-72q0 81 33 120.5z" />
    <glyph glyph-name="ograve" unicode="&#xf2;" horiz-adv-x="618" 
d="M162 24q-63 32 -97 92t-34 141t34 141t97 92t148 32q84 0 146.5 -32.5t96.5 -92t34 -140.5t-34 -140.5t-96.5 -92t-146.5 -32.5q-85 0 -148 32zM408 257q0 66 -24.5 97.5t-73.5 31.5q-50 0 -75 -31.5t-25 -97.5q0 -67 25 -98.5t75 -31.5q98 0 98 130zM255 573l-161 208
h172l98 -208h-109z" />
    <glyph glyph-name="oacute" unicode="&#xf3;" horiz-adv-x="618" 
d="M162 24q-63 32 -97 92t-34 141t34 141t97 92t148 32q84 0 146.5 -32.5t96.5 -92t34 -140.5t-34 -140.5t-96.5 -92t-146.5 -32.5q-85 0 -148 32zM408 257q0 66 -24.5 97.5t-73.5 31.5q-50 0 -75 -31.5t-25 -97.5q0 -67 25 -98.5t75 -31.5q98 0 98 130zM364 573h-109
l98 208h172z" />
    <glyph glyph-name="ocircumflex" unicode="&#xf4;" horiz-adv-x="618" 
d="M162 24q-63 32 -97 92t-34 141t34 141t97 92t148 32q84 0 146.5 -32.5t96.5 -92t34 -140.5t-34 -140.5t-96.5 -92t-146.5 -32.5q-85 0 -148 32zM408 257q0 66 -24.5 97.5t-73.5 31.5q-50 0 -75 -31.5t-25 -97.5q0 -67 25 -98.5t75 -31.5q98 0 98 130zM257 573h-136
l136 208h105l136 -208h-136l-52 106z" />
    <glyph glyph-name="otilde" unicode="&#xf5;" horiz-adv-x="618" 
d="M162 24q-63 32 -97 92t-34 141t34 141t97 92t148 32q84 0 146.5 -32.5t96.5 -92t34 -140.5t-34 -140.5t-96.5 -92t-146.5 -32.5q-85 0 -148 32zM408 257q0 66 -24.5 97.5t-73.5 31.5q-50 0 -75 -31.5t-25 -97.5q0 -67 25 -98.5t75 -31.5q98 0 98 130zM162 719.5
q33 39.5 84 39.5q17 0 33 -6.5t40 -20.5q19 -11 32 -17t25 -6q17 0 28 12t14 35h72q0 -81 -33 -120.5t-84 -39.5q-17 0 -33 6.5t-40 20.5q-19 11 -32 17t-25 6q-17 0 -28 -12t-14 -35h-72q0 81 33 120.5z" />
    <glyph glyph-name="odieresis" unicode="&#xf6;" horiz-adv-x="618" 
d="M162 24q-63 32 -97 92t-34 141t34 141t97 92t148 32q84 0 146.5 -32.5t96.5 -92t34 -140.5t-34 -140.5t-96.5 -92t-146.5 -32.5q-85 0 -148 32zM408 257q0 66 -24.5 97.5t-73.5 31.5q-50 0 -75 -31.5t-25 -97.5q0 -67 25 -98.5t75 -31.5q98 0 98 130zM129 751h160v-152
h-160v152zM330 751h160v-152h-160v152z" />
    <glyph glyph-name="divide" unicode="&#xf7;" horiz-adv-x="600" 
d="M229 414v130h130v-130h-130zM546 351v-121h-492v121h492zM229 29v131h130v-131h-130z" />
    <glyph glyph-name="oslash" unicode="&#xf8;" horiz-adv-x="618" 
d="M561.5 381q25.5 -54 25.5 -124q0 -81 -34 -140.5t-96.5 -92t-146.5 -32.5q-51 0 -93 12l-44 -75l-81 48l39 66q-48 35 -74 89.5t-26 124.5q0 81 34 141t97 92t148 32q50 0 93 -12l42 73l82 -48l-38 -65q47 -35 72.5 -89zM215 189l116 198q-7 1 -21 1q-52 0 -78 -32
t-26 -99q0 -41 9 -68zM386.5 157.5q25.5 31.5 25.5 99.5q0 39 -9 66l-114 -196q7 -1 21 -1q51 0 76.5 31.5z" />
    <glyph glyph-name="ugrave" unicode="&#xf9;" horiz-adv-x="619" 
d="M565 508v-508h-177v68q-49 -76 -145 -76q-97 0 -144.5 54t-47.5 165v297h181v-302q0 -75 65 -75q38 0 61.5 27t23.5 72v278h183zM254 573l-161 208h172l98 -208h-109z" />
    <glyph glyph-name="uacute" unicode="&#xfa;" horiz-adv-x="619" 
d="M565 508v-508h-177v68q-49 -76 -145 -76q-97 0 -144.5 54t-47.5 165v297h181v-302q0 -75 65 -75q38 0 61.5 27t23.5 72v278h183zM363 573h-109l98 208h172z" />
    <glyph glyph-name="ucircumflex" unicode="&#xfb;" horiz-adv-x="619" 
d="M565 508v-508h-177v68q-49 -76 -145 -76q-97 0 -144.5 54t-47.5 165v297h181v-302q0 -75 65 -75q38 0 61.5 27t23.5 72v278h183zM256 573h-136l136 208h105l136 -208h-136l-52 106z" />
    <glyph glyph-name="udieresis" unicode="&#xfc;" horiz-adv-x="619" 
d="M565 508v-508h-177v68q-49 -76 -145 -76q-97 0 -144.5 54t-47.5 165v297h181v-302q0 -75 65 -75q38 0 61.5 27t23.5 72v278h183zM128 751h160v-152h-160v152zM329 751h160v-152h-160v152z" />
    <glyph glyph-name="yacute" unicode="&#xfd;" horiz-adv-x="559" 
d="M579 508l-233 -526q-46 -103 -115.5 -150.5t-171.5 -59.5l-42 138q70 14 105 36t53 61l13 28l-207 473h188l114 -293l118 293h178zM333 573h-109l98 208h172z" />
    <glyph glyph-name="thorn" unicode="&#xfe;" horiz-adv-x="645" 
d="M505.5 487.5q51.5 -34.5 80 -95.5t28.5 -139q0 -77 -28.5 -136.5t-79.5 -92t-117 -32.5q-50 0 -91 19.5t-63 54.5v-282h-181v952h181v-290q22 35 63 55.5t91 20.5q65 0 116.5 -34.5zM407.5 159q25.5 32 25.5 94q0 64 -26 98t-73 34q-49 0 -75 -33t-26 -97q0 -62 26 -95
t75 -33q48 0 73.5 32z" />
    <glyph glyph-name="ydieresis" unicode="&#xff;" horiz-adv-x="559" 
d="M579 508l-233 -526q-46 -103 -115.5 -150.5t-171.5 -59.5l-42 138q70 14 105 36t53 61l13 28l-207 473h188l114 -293l118 293h178zM98 751h160v-152h-160v152zM299 751h160v-152h-160v152z" />
    <glyph glyph-name="Amacron" unicode="&#x100;" horiz-adv-x="769" 
d="M607 0l-63 147h-316l-63 -147h-188l333 712h148l334 -712h-185zM289 288h194l-97 225zM223 798v108h321v-108h-321z" />
    <glyph glyph-name="amacron" unicode="&#x101;" horiz-adv-x="643" 
d="M589 508v-508h-178v69q-22 -36 -64 -56.5t-92 -20.5q-65 0 -116 32t-79.5 91.5t-28.5 137.5q0 79 29 140t80 95t115 34q50 0 91.5 -21.5t64.5 -57.5v65h178zM385 160q26 33 26 95q0 63 -26 96.5t-74 33.5q-47 0 -74 -34.5t-27 -97.5q0 -61 26 -93.5t75 -32.5q48 0 74 33z
M160 621v108h321v-108h-321z" />
    <glyph glyph-name="Abreve" unicode="&#x102;" horiz-adv-x="769" 
d="M607 0l-63 147h-316l-63 -147h-188l333 712h148l334 -712h-185zM289 288h194l-97 225zM265 810q-49 29 -67 82l77 33q30 -41 109 -41q78 0 108 41l77 -33q-18 -53 -67 -82t-118 -29q-70 0 -119 29z" />
    <glyph glyph-name="abreve" unicode="&#x103;" horiz-adv-x="643" 
d="M589 508v-508h-178v69q-22 -36 -64 -56.5t-92 -20.5q-65 0 -116 32t-79.5 91.5t-28.5 137.5q0 79 29 140t80 95t115 34q50 0 91.5 -21.5t64.5 -57.5v65h178zM385 160q26 33 26 95q0 63 -26 96.5t-74 33.5q-47 0 -74 -34.5t-27 -97.5q0 -61 26 -93.5t75 -32.5q48 0 74 33z
M196 632.5q-55 39.5 -71 113.5l77 34q45 -77 119 -77q73 0 118 77l77 -34q-16 -74 -71 -113.5t-124 -39.5q-70 0 -125 39.5z" />
    <glyph glyph-name="Aogonek" unicode="&#x104;" horiz-adv-x="769" 
d="M768 -100l18 -81q-50 -19 -108 -19q-57 0 -95 30.5t-38 81.5q0 31 14.5 58t40.5 47l-56 130h-316l-63 -147h-188l333 712h148l334 -712h-65q-31 0 -51 -17t-20 -44q0 -25 15 -37.5t43 -12.5q24 0 54 11zM289 288h194l-97 225z" />
    <glyph glyph-name="aogonek" unicode="&#x105;" horiz-adv-x="643" 
d="M627 -185q-53 -21 -110 -21q-58 0 -96 33.5t-38 85.5q0 51 36 87h-8v69q-22 -36 -64 -56.5t-92 -20.5q-66 0 -117 32.5t-79 91.5t-28 137t28.5 139t79.5 95.5t116 34.5q50 0 91.5 -21.5t64.5 -57.5v65h178v-508h-10q-38 0 -61.5 -17.5t-23.5 -45.5q0 -25 15.5 -38.5
t44.5 -13.5q25 0 55 12zM385 160q26 33 26 95q0 63 -26 96.5t-74 33.5q-47 0 -74 -34.5t-27 -97.5q0 -61 26 -93.5t75 -32.5q48 0 74 33z" />
    <glyph glyph-name="Cacute" unicode="&#x106;" horiz-adv-x="685" 
d="M216.5 36.5q-82.5 45.5 -127 128.5t-44.5 192q0 108 44.5 190.5t127 128t193.5 45.5q70 0 135.5 -21t105.5 -57l-57 -133q-87 63 -180 63q-86 0 -132 -54.5t-46 -161.5q0 -108 46 -163t132 -55q93 0 180 63l57 -133q-40 -36 -105.5 -57t-135.5 -21q-111 0 -193.5 45.5z
M456 773h-109l104 158h162z" />
    <glyph glyph-name="cacute" unicode="&#x107;" horiz-adv-x="515" 
d="M104 62q-73 70 -73 191q0 80 35.5 141t99.5 94.5t148 33.5q56 0 110 -16.5t86 -44.5l-46 -125q-27 22 -63 35t-69 13q-56 0 -86 -32t-30 -95q0 -64 30 -96.5t87 -32.5q33 0 68.5 13t62.5 35l46 -123q-33 -29 -87.5 -45t-116.5 -16q-129 0 -202 70zM363 573h-109l98 208
h172z" />
    <glyph glyph-name="Ccircumflex" unicode="&#x108;" horiz-adv-x="685" 
d="M216.5 36.5q-82.5 45.5 -127 128.5t-44.5 192q0 108 44.5 190.5t127 128t193.5 45.5q70 0 135.5 -21t105.5 -57l-57 -133q-87 63 -180 63q-86 0 -132 -54.5t-46 -161.5q0 -108 46 -163t132 -55q93 0 180 63l57 -133q-40 -36 -105.5 -57t-135.5 -21q-111 0 -193.5 45.5z
M344 773h-131l139 158h99l139 -158h-131l-57 78z" />
    <glyph glyph-name="ccircumflex" unicode="&#x109;" horiz-adv-x="515" 
d="M104 62q-73 70 -73 191q0 80 35.5 141t99.5 94.5t148 33.5q56 0 110 -16.5t86 -44.5l-46 -125q-27 22 -63 35t-69 13q-56 0 -86 -32t-30 -95q0 -64 30 -96.5t87 -32.5q33 0 68.5 13t62.5 35l46 -123q-33 -29 -87.5 -45t-116.5 -16q-129 0 -202 70zM256 573h-136l136 208
h105l136 -208h-136l-52 106z" />
    <glyph glyph-name="Cdotaccent" unicode="&#x10a;" horiz-adv-x="685" 
d="M216.5 36.5q-82.5 45.5 -127 128.5t-44.5 192q0 108 44.5 190.5t127 128t193.5 45.5q70 0 135.5 -21t105.5 -57l-57 -133q-87 63 -180 63q-86 0 -132 -54.5t-46 -161.5q0 -108 46 -163t132 -55q93 0 180 63l57 -133q-40 -36 -105.5 -57t-135.5 -21q-111 0 -193.5 45.5z
M307 934h189v-163h-189v163z" />
    <glyph glyph-name="cdotaccent" unicode="&#x10b;" horiz-adv-x="515" 
d="M104 62q-73 70 -73 191q0 80 35.5 141t99.5 94.5t148 33.5q56 0 110 -16.5t86 -44.5l-46 -125q-27 22 -63 35t-69 13q-56 0 -86 -32t-30 -95q0 -64 30 -96.5t87 -32.5q33 0 68.5 13t62.5 35l46 -123q-33 -29 -87.5 -45t-116.5 -16q-129 0 -202 70zM214 757h189v-163h-189
v163z" />
    <glyph glyph-name="Ccaron" unicode="&#x10c;" horiz-adv-x="685" 
d="M216.5 36.5q-82.5 45.5 -127 128.5t-44.5 192q0 108 44.5 190.5t127 128t193.5 45.5q70 0 135.5 -21t105.5 -57l-57 -133q-87 63 -180 63q-86 0 -132 -54.5t-46 -161.5q0 -108 46 -163t132 -55q93 0 180 63l57 -133q-40 -36 -105.5 -57t-135.5 -21q-111 0 -193.5 45.5z
M459 931h131l-139 -158h-99l-139 158h131l58 -79z" />
    <glyph glyph-name="ccaron" unicode="&#x10d;" horiz-adv-x="515" 
d="M104 62q-73 70 -73 191q0 80 35.5 141t99.5 94.5t148 33.5q56 0 110 -16.5t86 -44.5l-46 -125q-27 22 -63 35t-69 13q-56 0 -86 -32t-30 -95q0 -64 30 -96.5t87 -32.5q33 0 68.5 13t62.5 35l46 -123q-33 -29 -87.5 -45t-116.5 -16q-129 0 -202 70zM361 781h136l-136 -208
h-105l-136 208h136l53 -107z" />
    <glyph glyph-name="Dcaron" unicode="&#x10e;" horiz-adv-x="781" 
d="M64 712h291q118 0 203.5 -42.5t131 -122.5t45.5 -190q0 -111 -45 -191.5t-130.5 -123t-204.5 -42.5h-291v712zM342 150q104 0 155.5 51.5t51.5 155.5q0 205 -207 205h-90v-412h90zM447 931h131l-139 -158h-99l-139 158h131l58 -79z" />
    <glyph glyph-name="dcaron" unicode="&#x10f;" horiz-adv-x="643" 
d="M408 736h181v-736h-178v69q-22 -36 -64 -56.5t-92 -20.5q-65 0 -116 33.5t-79.5 94t-28.5 139.5q0 78 28.5 138t79.5 92.5t116 32.5q48 0 88.5 -20t64.5 -54v288zM614 736h86l-27 -201h-59v201zM385 160.5q26 33.5 26 96.5q0 61 -26.5 94.5t-73.5 33.5q-49 0 -75 -32.5
t-26 -93.5q0 -63 26.5 -97.5t74.5 -34.5t74 33.5z" />
    <glyph glyph-name="Dcroat" unicode="&#x110;" horiz-adv-x="818" 
d="M596 669.5q85 -42.5 130.5 -122.5t45.5 -190q0 -111 -45 -191.5t-130.5 -123t-203.5 -42.5h-292v289h-84v140h84v283h292q118 0 203 -42.5zM534 201.5q51 51.5 51 155.5q0 205 -206 205h-90v-133h184v-140h-184v-139h90q104 0 155 51.5z" />
    <glyph glyph-name="dcroat" unicode="&#x111;" horiz-adv-x="643" 
d="M676 550h-87v-550h-178v69q-22 -36 -64 -56.5t-92 -20.5q-65 0 -116 33.5t-79.5 94t-28.5 139.5q0 78 28.5 138t79.5 92.5t116 32.5q48 0 88.5 -20t64.5 -54v102h-188v124h188v62h181v-62h87v-124zM385 160.5q26 33.5 26 96.5q0 61 -26.5 94.5t-73.5 33.5
q-49 0 -75 -32.5t-26 -93.5q0 -63 26.5 -97.5t74.5 -34.5t74 33.5z" />
    <glyph glyph-name="Emacron" unicode="&#x112;" horiz-adv-x="604" 
d="M64 0v712h508v-144h-325v-134h304v-144h-304v-146h325v-144h-508zM175 798v108h321v-108h-321z" />
    <glyph glyph-name="emacron" unicode="&#x113;" horiz-adv-x="553" 
d="M523 236h-319q5 -59 34 -85t85 -26q38 0 76 12.5t69 34.5l46 -120q-38 -28 -92 -44t-108 -16q-87 0 -151 32t-98 91.5t-34 140.5q0 77 32.5 137.5t90 94.5t131.5 34q72 0 126 -32t83 -91.5t29 -138.5v-24zM206 320h162q-10 78 -78 78q-67 0 -84 -78zM124 621v108h321
v-108h-321z" />
    <glyph glyph-name="Ebreve" unicode="&#x114;" horiz-adv-x="604" 
d="M64 0v712h508v-144h-325v-134h304v-144h-304v-146h325v-144h-508zM217 810q-49 29 -67 82l77 33q30 -41 109 -41q78 0 108 41l77 -33q-18 -53 -67 -82t-118 -29q-70 0 -119 29z" />
    <glyph glyph-name="ebreve" unicode="&#x115;" horiz-adv-x="553" 
d="M523 236h-319q5 -59 34 -85t85 -26q38 0 76 12.5t69 34.5l46 -120q-38 -28 -92 -44t-108 -16q-87 0 -151 32t-98 91.5t-34 140.5q0 77 32.5 137.5t90 94.5t131.5 34q72 0 126 -32t83 -91.5t29 -138.5v-24zM206 320h162q-10 78 -78 78q-67 0 -84 -78zM160 632.5
q-55 39.5 -71 113.5l77 34q45 -77 119 -77q73 0 118 77l77 -34q-16 -74 -71 -113.5t-124 -39.5q-70 0 -125 39.5z" />
    <glyph glyph-name="Edotaccent" unicode="&#x116;" horiz-adv-x="604" 
d="M64 0v712h508v-144h-325v-134h304v-144h-304v-146h325v-144h-508zM241 934h189v-163h-189v163z" />
    <glyph glyph-name="edotaccent" unicode="&#x117;" horiz-adv-x="553" 
d="M523 236h-319q5 -59 34 -85t85 -26q38 0 76 12.5t69 34.5l46 -120q-38 -28 -92 -44t-108 -16q-87 0 -151 32t-98 91.5t-34 140.5q0 77 32.5 137.5t90 94.5t131.5 34q72 0 126 -32t83 -91.5t29 -138.5v-24zM206 320h162q-10 78 -78 78q-67 0 -84 -78zM190 757h189v-163
h-189v163z" />
    <glyph glyph-name="Eogonek" unicode="&#x118;" horiz-adv-x="604" 
d="M613 -181q-48 -19 -107 -19t-96 31.5t-37 80.5q0 53 38 88h-347v712h508v-144h-325v-134h304v-144h-304v-146h325v-144h-25q-28 0 -45 -16t-17 -45q0 -50 56 -50q25 0 55 11z" />
    <glyph glyph-name="eogonek" unicode="&#x119;" horiz-adv-x="553" 
d="M523 236h-319q5 -59 34 -85t85 -26q38 0 76 12.5t69 34.5l46 -120q-14 -12 -62 -33q-38 -19 -54 -37.5t-16 -44.5q0 -52 59 -52q26 0 54 12l17 -82q-53 -21 -108 -21q-59 0 -97 33t-38 83q0 49 35 82q-127 3 -200 73.5t-73 190.5q0 77 32.5 137.5t90 94.5t131.5 34
q72 0 126 -32t83 -91.5t29 -138.5v-24zM236 378q-21 -20 -29 -58h161q-10 78 -78 78q-33 0 -54 -20z" />
    <glyph glyph-name="Ecaron" unicode="&#x11a;" horiz-adv-x="604" 
d="M64 0v712h508v-144h-325v-134h304v-144h-304v-146h325v-144h-508zM393 931h131l-139 -158h-99l-139 158h131l58 -79z" />
    <glyph glyph-name="ecaron" unicode="&#x11b;" horiz-adv-x="553" 
d="M523 236h-319q5 -59 34 -85t85 -26q38 0 76 12.5t69 34.5l46 -120q-38 -28 -92 -44t-108 -16q-87 0 -151 32t-98 91.5t-34 140.5q0 77 32.5 137.5t90 94.5t131.5 34q72 0 126 -32t83 -91.5t29 -138.5v-24zM206 320h162q-10 78 -78 78q-67 0 -84 -78zM337 781h136
l-136 -208h-105l-136 208h136l53 -107z" />
    <glyph glyph-name="Gcircumflex" unicode="&#x11c;" horiz-adv-x="751" 
d="M696 402v-357q-57 -26 -127.5 -40t-144.5 -14q-116 0 -201.5 44t-131.5 126.5t-46 195.5q0 110 46 192.5t130 127t196 44.5q77 0 145.5 -20t111.5 -55l-59 -133q-49 32 -94.5 46.5t-97.5 14.5q-95 0 -141.5 -53.5t-46.5 -163.5q0 -114 48.5 -169t149.5 -55q47 0 94 10
v132h-124v127h293zM359 773h-131l139 158h99l139 -158h-131l-57 78z" />
    <glyph glyph-name="gcircumflex" unicode="&#x11d;" horiz-adv-x="647" 
d="M595 508v-476q0 -125 -75 -190.5t-220 -65.5q-124 0 -215 44l27 132q45 -20 92.5 -31.5t89.5 -11.5q62 0 91.5 26.5t29.5 82.5v75q-25 -33 -67.5 -56t-90.5 -23q-65 0 -116.5 31.5t-80.5 89t-29 133.5q0 75 29 132.5t80.5 89.5t116.5 32q51 0 93 -21t65 -57v64h180z
M388 180.5q27 31.5 27 87.5q0 54 -27 85.5t-75 31.5t-75.5 -31t-27.5 -86t28 -87t75 -32q48 0 75 31.5zM271 573h-136l136 208h105l136 -208h-136l-52 106z" />
    <glyph glyph-name="Gbreve" unicode="&#x11e;" horiz-adv-x="751" 
d="M696 402v-357q-57 -26 -127.5 -40t-144.5 -14q-116 0 -201.5 44t-131.5 126.5t-46 195.5q0 110 46 192.5t130 127t196 44.5q77 0 145.5 -20t111.5 -55l-59 -133q-49 32 -94.5 46.5t-97.5 14.5q-95 0 -141.5 -53.5t-46.5 -163.5q0 -114 48.5 -169t149.5 -55q47 0 94 10
v132h-124v127h293zM298 810q-49 29 -67 82l77 33q30 -41 109 -41q78 0 108 41l77 -33q-18 -53 -67 -82t-118 -29q-70 0 -119 29z" />
    <glyph glyph-name="gbreve" unicode="&#x11f;" horiz-adv-x="647" 
d="M595 508v-476q0 -125 -75 -190.5t-220 -65.5q-124 0 -215 44l27 132q45 -20 92.5 -31.5t89.5 -11.5q62 0 91.5 26.5t29.5 82.5v75q-25 -33 -67.5 -56t-90.5 -23q-65 0 -116.5 31.5t-80.5 89t-29 133.5q0 75 29 132.5t80.5 89.5t116.5 32q51 0 93 -21t65 -57v64h180z
M388 180.5q27 31.5 27 87.5q0 54 -27 85.5t-75 31.5t-75.5 -31t-27.5 -86t28 -87t75 -32q48 0 75 31.5zM199 632.5q-55 39.5 -71 113.5l77 34q45 -77 119 -77q73 0 118 77l77 -34q-16 -74 -71 -113.5t-124 -39.5q-70 0 -125 39.5z" />
    <glyph glyph-name="Gdotaccent" unicode="&#x120;" horiz-adv-x="751" 
d="M696 402v-357q-57 -26 -127.5 -40t-144.5 -14q-116 0 -201.5 44t-131.5 126.5t-46 195.5q0 110 46 192.5t130 127t196 44.5q77 0 145.5 -20t111.5 -55l-59 -133q-49 32 -94.5 46.5t-97.5 14.5q-95 0 -141.5 -53.5t-46.5 -163.5q0 -114 48.5 -169t149.5 -55q47 0 94 10
v132h-124v127h293zM322 934h189v-163h-189v163z" />
    <glyph glyph-name="gdotaccent" unicode="&#x121;" horiz-adv-x="647" 
d="M595 508v-476q0 -125 -75 -190.5t-220 -65.5q-124 0 -215 44l27 132q45 -20 92.5 -31.5t89.5 -11.5q62 0 91.5 26.5t29.5 82.5v75q-25 -33 -67.5 -56t-90.5 -23q-65 0 -116.5 31.5t-80.5 89t-29 133.5q0 75 29 132.5t80.5 89.5t116.5 32q51 0 93 -21t65 -57v64h180z
M388 180.5q27 31.5 27 87.5q0 54 -27 85.5t-75 31.5t-75.5 -31t-27.5 -86t28 -87t75 -32q48 0 75 31.5zM229 757h189v-163h-189v163z" />
    <glyph glyph-name="Gcommaaccent" unicode="&#x122;" horiz-adv-x="751" 
d="M696 402v-357q-57 -26 -127.5 -40t-144.5 -14q-116 0 -201.5 44t-131.5 126.5t-46 195.5q0 110 46 192.5t130 127t196 44.5q77 0 145.5 -20t111.5 -55l-59 -133q-49 32 -94.5 46.5t-97.5 14.5q-95 0 -141.5 -53.5t-46.5 -163.5q0 -114 48.5 -169t149.5 -55q47 0 94 10
v132h-124v127h293zM509 -64v-67q0 -50 -14.5 -86t-49.5 -67l-62 42q27 24 33 50h-79v128h172z" />
    <glyph glyph-name="gcommaaccent" unicode="&#x123;" horiz-adv-x="647" 
d="M595 508v-476q0 -125 -75 -190.5t-220 -65.5q-124 0 -215 44l27 132q45 -20 92.5 -31.5t89.5 -11.5q62 0 91.5 26.5t29.5 82.5v75q-25 -33 -67.5 -56t-90.5 -23q-65 0 -116.5 31.5t-80.5 89t-29 133.5q0 75 29 132.5t80.5 89.5t116.5 32q51 0 93 -21t65 -57v64h180z
M388 180.5q27 31.5 27 87.5q0 54 -27 85.5t-75 31.5t-75.5 -31t-27.5 -86t28 -87t75 -32q48 0 75 31.5zM409 730v-128h-172v67q0 50 14.5 87t49.5 67l62 -41q-27 -26 -33 -52h79z" />
    <glyph glyph-name="Hcircumflex" unicode="&#x124;" horiz-adv-x="784" 
d="M536 712h184v-712h-184v288h-288v-288h-184v712h184v-277h288v277zM334 773h-131l139 158h99l139 -158h-131l-57 78z" />
    <glyph glyph-name="hcircumflex" unicode="&#x125;" horiz-adv-x="624" 
d="M528.5 467.5q44.5 -54.5 44.5 -164.5v-303h-181v295q0 47 -16 67.5t-50 20.5q-41 0 -66 -27.5t-25 -72.5v-283h-181v736h181v-290q59 76 159 76q90 0 134.5 -54.5zM90 797h-131l139 158h99l139 -158h-131l-57 78z" />
    <glyph glyph-name="Hbar" unicode="&#x126;" horiz-adv-x="858" 
d="M840 644v-136h-83v-508h-184v288h-288v-288h-184v508h-84v136h84v68h184v-68h288v68h184v-68h83zM573 435v73h-288v-73h288z" />
    <glyph glyph-name="hbar" unicode="&#x127;" horiz-adv-x="624" 
d="M528.5 467.5q44.5 -54.5 44.5 -164.5v-303h-181v295q0 47 -16 67.5t-50 20.5q-41 0 -66 -27.5t-25 -72.5v-283h-181v550h-85v124h85v62h181v-62h189v-124h-189v-104q59 76 159 76q90 0 134.5 -54.5z" />
    <glyph glyph-name="Itilde" unicode="&#x128;" horiz-adv-x="316" 
d="M64 0v712h188v-712h-188zM9 894.5q33 39.5 84 39.5q17 0 33 -6.5t40 -20.5q19 -11 32 -17t25 -6q17 0 28 12t14 35h72q0 -81 -33 -120.5t-84 -39.5q-17 0 -33 6.5t-40 20.5q-19 11 -32 17t-25 6q-17 0 -28 -12t-14 -35h-72q0 81 33 120.5z" />
    <glyph glyph-name="itilde" unicode="&#x129;" horiz-adv-x="289" 
d="M54 0v508h181v-508h-181zM-4 719.5q33 39.5 84 39.5q17 0 33 -6.5t40 -20.5q19 -11 32 -17t25 -6q17 0 28 12t14 35h72q0 -81 -33 -120.5t-84 -39.5q-17 0 -33 6.5t-40 20.5q-19 11 -32 17t-25 6q-17 0 -28 -12t-14 -35h-72q0 81 33 120.5z" />
    <glyph glyph-name="Imacron" unicode="&#x12a;" horiz-adv-x="316" 
d="M64 0v712h188v-712h-188zM-4 798v108h321v-108h-321z" />
    <glyph glyph-name="imacron" unicode="&#x12b;" horiz-adv-x="289" 
d="M54 0v508h181v-508h-181zM-17 621v108h321v-108h-321z" />
    <glyph glyph-name="Ibreve" unicode="&#x12c;" horiz-adv-x="316" 
d="M64 0v712h188v-712h-188zM38 810q-49 29 -67 82l77 33q30 -41 109 -41q78 0 108 41l77 -33q-18 -53 -67 -82t-118 -29q-70 0 -119 29z" />
    <glyph glyph-name="ibreve" unicode="&#x12d;" horiz-adv-x="289" 
d="M54 0v508h181v-508h-181zM19 632.5q-55 39.5 -71 113.5l77 34q45 -77 119 -77q73 0 118 77l77 -34q-16 -74 -71 -113.5t-124 -39.5q-70 0 -125 39.5z" />
    <glyph glyph-name="Iogonek" unicode="&#x12e;" horiz-adv-x="316" 
d="M281 -181q-50 -19 -107 -19q-58 0 -96 31t-38 84q0 49 35 85h-11v712h188v-712h-18q-37 0 -59.5 -16.5t-22.5 -44.5q0 -50 58 -50q23 0 53 11z" />
    <glyph glyph-name="iogonek" unicode="&#x12f;" horiz-adv-x="289" 
d="M239 761v-164h-188v164h188zM271 -185q-53 -21 -108 -21q-58 0 -96.5 32.5t-38.5 86.5q0 51 36 87h-10v508h181v-508h-11q-38 0 -61 -17t-23 -46q0 -52 59 -52q26 0 54 12z" />
    <glyph glyph-name="Idotaccent" unicode="&#x130;" horiz-adv-x="316" 
d="M64 0v712h188v-712h-188zM62 934h189v-163h-189v163z" />
    <glyph glyph-name="dotlessi" unicode="&#x131;" horiz-adv-x="289" 
d="M54 0v508h181v-508h-181z" />
    <glyph glyph-name="Jcircumflex" unicode="&#x134;" horiz-adv-x="403" 
d="M2 -29q50 -5 73 -5q45 0 60 18t15 69v659h188v-656q0 -126 -51 -185t-175 -59q-49 0 -110 9v150zM185 773h-131l139 158h99l139 -158h-131l-57 78z" />
    <glyph glyph-name="jcircumflex" unicode="&#x135;" horiz-adv-x="289" 
d="M-20 -79q32 0 53 18.5t21 56.5v512h181v-514q0 -103 -53.5 -161t-156.5 -58q-58 0 -94 14v139q29 -7 49 -7zM90 573h-136l136 208h105l136 -208h-136l-52 106z" />
    <glyph glyph-name="Kcommaaccent" unicode="&#x136;" horiz-adv-x="706" 
d="M760 0h-223l-285 323v-323h-188v712h188v-306l277 306h220l-315 -338zM440 -64v-67q0 -50 -14.5 -86t-49.5 -67l-62 42q27 24 33 50h-79v128h172z" />
    <glyph glyph-name="kcommaaccent" unicode="&#x137;" horiz-adv-x="598" 
d="M627 0h-219l-173 219v-219h-181v736h181v-440l170 211h214l-200 -243zM383 -64v-67q0 -50 -14.5 -86t-49.5 -67l-62 42q27 24 33 50h-79v128h172z" />
    <glyph glyph-name="kgreenlandic" unicode="&#x138;" horiz-adv-x="598" 
d="M627 0h-219l-173 219v-219h-181v508h181v-212l170 211h214l-200 -243z" />
    <glyph glyph-name="Lacute" unicode="&#x139;" horiz-adv-x="579" 
d="M64 0v712h188v-560h301v-152h-489zM211 773h-109l104 158h162z" />
    <glyph glyph-name="lacute" unicode="&#x13a;" horiz-adv-x="289" 
d="M54 0v736h181v-736h-181zM198 797h-109l104 158h162z" />
    <glyph glyph-name="Lcommaaccent" unicode="&#x13b;" horiz-adv-x="579" 
d="M64 0v712h188v-560h301v-152h-489zM402 -64v-67q0 -50 -14.5 -86t-49.5 -67l-62 42q27 24 33 50h-79v128h172z" />
    <glyph glyph-name="lcommaaccent" unicode="&#x13c;" horiz-adv-x="289" 
d="M54 0v736h181v-736h-181zM229 -64v-67q0 -50 -14.5 -86t-49.5 -67l-62 42q27 24 33 50h-79v128h172z" />
    <glyph glyph-name="Lcaron" unicode="&#x13d;" horiz-adv-x="579" 
d="M64 0v712h188v-560h301v-152h-489zM424 515h-82v197h108z" />
    <glyph glyph-name="lcaron" unicode="&#x13e;" horiz-adv-x="289" 
d="M54 0v736h181v-736h-181zM318 535h-59v201h85z" />
    <glyph glyph-name="Ldot" unicode="&#x13f;" horiz-adv-x="579" 
d="M64 0v712h188v-560h301v-152h-489zM318 437h187v-161h-187v161z" />
    <glyph glyph-name="ldot" unicode="&#x140;" horiz-adv-x="427" 
d="M54 0v736h181v-736h-181zM262 438h187v-161h-187v161z" />
    <glyph glyph-name="Lslash" unicode="&#x141;" horiz-adv-x="617" 
d="M289 152h302v-152h-490v226l-91 -52v157l91 53v328h188v-220l183 106v-159l-183 -105v-182z" />
    <glyph glyph-name="lslash" unicode="&#x142;" horiz-adv-x="388" 
d="M408 409l-124 -71v-338h-181v234l-57 -33l-66 119l123 72v344h181v-239l57 33z" />
    <glyph glyph-name="Nacute" unicode="&#x143;" horiz-adv-x="766" 
d="M524 712h177v-712h-139l-323 404v-404h-175v712h137l323 -402v402zM436 773h-109l104 158h162z" />
    <glyph glyph-name="nacute" unicode="&#x144;" horiz-adv-x="624" 
d="M528.5 467.5q44.5 -54.5 44.5 -164.5v-303h-181v295q0 47 -16 67.5t-50 20.5q-41 0 -66 -27.5t-25 -72.5v-283h-181v362q0 82 -8 146h170l9 -75q29 43 72 66t97 23q90 0 134.5 -54.5zM368 573h-109l98 208h172z" />
    <glyph glyph-name="Ncommaaccent" unicode="&#x145;" horiz-adv-x="766" 
d="M524 712h177v-712h-139l-323 404v-404h-175v712h137l323 -402v402zM468 -64v-67q0 -50 -14.5 -86t-49.5 -67l-62 42q27 24 33 50h-79v128h172z" />
    <glyph glyph-name="ncommaaccent" unicode="&#x146;" horiz-adv-x="624" 
d="M528.5 467.5q44.5 -54.5 44.5 -164.5v-303h-181v295q0 47 -16 67.5t-50 20.5q-41 0 -66 -27.5t-25 -72.5v-283h-181v362q0 82 -8 146h170l9 -75q29 43 72 66t97 23q90 0 134.5 -54.5zM399 -64v-67q0 -50 -14.5 -86t-49.5 -67l-62 42q27 24 33 50h-79v128h172z" />
    <glyph glyph-name="Ncaron" unicode="&#x147;" horiz-adv-x="766" 
d="M524 712h177v-712h-139l-323 404v-404h-175v712h137l323 -402v402zM439 931h131l-139 -158h-99l-139 158h131l58 -79z" />
    <glyph glyph-name="ncaron" unicode="&#x148;" horiz-adv-x="624" 
d="M528.5 467.5q44.5 -54.5 44.5 -164.5v-303h-181v295q0 47 -16 67.5t-50 20.5q-41 0 -66 -27.5t-25 -72.5v-283h-181v362q0 82 -8 146h170l9 -75q29 43 72 66t97 23q90 0 134.5 -54.5zM366 781h136l-136 -208h-105l-136 208h136l53 -107z" />
    <glyph glyph-name="napostrophe" unicode="&#x149;" horiz-adv-x="624" 
d="M235 770v-68q0 -50 -14.5 -86.5t-49.5 -67.5l-62 43q25 23 33 50h-79v129h172zM528.5 467.5q44.5 -54.5 44.5 -164.5v-303h-181v295q0 47 -16 67.5t-50 20.5q-41 0 -66 -27.5t-25 -72.5v-283h-181v362q0 82 -8 146h170l9 -75q29 43 72 66t97 23q90 0 134.5 -54.5z" />
    <glyph glyph-name="Eng" unicode="&#x14a;" horiz-adv-x="766" 
d="M701 712v-673q0 -212 -225 -224l-104 -5l-12 139l82 5q38 1 59.5 23t21.5 56v17l-284 354v-404h-175v712h137l323 -402v402h177z" />
    <glyph glyph-name="eng" unicode="&#x14b;" horiz-adv-x="624" 
d="M528.5 467.5q44.5 -54.5 44.5 -164.5v-288q0 -117 -52 -178.5t-156 -61.5q-53 0 -97 10v143q28 -7 49 -7q75 0 75 95v279q0 47 -16 67.5t-50 20.5q-41 0 -66 -27.5t-25 -72.5v-283h-181v362q0 82 -8 146h170l9 -75q29 43 72 66t97 23q90 0 134.5 -54.5z" />
    <glyph glyph-name="Omacron" unicode="&#x14c;" horiz-adv-x="805" 
d="M213 35.5q-81 44.5 -124.5 127.5t-43.5 194t44 193t124.5 126.5t189.5 44.5t189.5 -44.5t123.5 -126.5t43 -193t-43 -194t-123.5 -127.5t-189.5 -44.5t-190 44.5zM528.5 191q45.5 57 45.5 166q0 108 -45.5 164.5t-125.5 56.5t-125 -56t-45 -165q0 -110 45 -166.5
t125 -56.5t125.5 57zM241 798v108h321v-108h-321z" />
    <glyph glyph-name="omacron" unicode="&#x14d;" horiz-adv-x="618" 
d="M162 24q-63 32 -97 92t-34 141t34 141t97 92t148 32q84 0 146.5 -32.5t96.5 -92t34 -140.5t-34 -140.5t-96.5 -92t-146.5 -32.5q-85 0 -148 32zM408 257q0 66 -24.5 97.5t-73.5 31.5q-50 0 -75 -31.5t-25 -97.5q0 -67 25 -98.5t75 -31.5q98 0 98 130zM149 621v108h321
v-108h-321z" />
    <glyph glyph-name="Obreve" unicode="&#x14e;" horiz-adv-x="805" 
d="M213 35.5q-81 44.5 -124.5 127.5t-43.5 194t44 193t124.5 126.5t189.5 44.5t189.5 -44.5t123.5 -126.5t43 -193t-43 -194t-123.5 -127.5t-189.5 -44.5t-190 44.5zM528.5 191q45.5 57 45.5 166q0 108 -45.5 164.5t-125.5 56.5t-125 -56t-45 -165q0 -110 45 -166.5
t125 -56.5t125.5 57zM283 810q-49 29 -67 82l77 33q30 -41 109 -41q78 0 108 41l77 -33q-18 -53 -67 -82t-118 -29q-70 0 -119 29z" />
    <glyph glyph-name="obreve" unicode="&#x14f;" horiz-adv-x="618" 
d="M162 24q-63 32 -97 92t-34 141t34 141t97 92t148 32q84 0 146.5 -32.5t96.5 -92t34 -140.5t-34 -140.5t-96.5 -92t-146.5 -32.5q-85 0 -148 32zM408 257q0 66 -24.5 97.5t-73.5 31.5q-50 0 -75 -31.5t-25 -97.5q0 -67 25 -98.5t75 -31.5q98 0 98 130zM185 632.5
q-55 39.5 -71 113.5l77 34q45 -77 119 -77q73 0 118 77l77 -34q-16 -74 -71 -113.5t-124 -39.5q-70 0 -125 39.5z" />
    <glyph glyph-name="Ohungarumlaut" unicode="&#x150;" horiz-adv-x="805" 
d="M213 35.5q-81 44.5 -124.5 127.5t-43.5 194t44 193t124.5 126.5t189.5 44.5t189.5 -44.5t123.5 -126.5t43 -193t-43 -194t-123.5 -127.5t-189.5 -44.5t-190 44.5zM528.5 191q45.5 57 45.5 166q0 108 -45.5 164.5t-125.5 56.5t-125 -56t-45 -165q0 -110 45 -166.5
t125 -56.5t125.5 57zM283 773l75 158h115l-102 -158h-88zM432 773l75 158h114l-101 -158h-88z" />
    <glyph glyph-name="ohungarumlaut" unicode="&#x151;" horiz-adv-x="618" 
d="M162 24q-63 32 -97 92t-34 141t34 141t97 92t148 32q84 0 146.5 -32.5t96.5 -92t34 -140.5t-34 -140.5t-96.5 -92t-146.5 -32.5q-85 0 -148 32zM408 257q0 66 -24.5 97.5t-73.5 31.5q-50 0 -75 -31.5t-25 -97.5q0 -67 25 -98.5t75 -31.5q98 0 98 130zM273 573h-75l30 208
h124zM421 573h-75l29 208h124z" />
    <glyph glyph-name="OE" unicode="&#x152;" horiz-adv-x="1053" 
d="M697 568v-134h305v-144h-305v-146h325v-144h-496v32q-52 -41 -147 -41q-96 0 -172 47t-119 130t-43 189q0 104 43 187t119 130t172 47t147 -39v30h496v-144h-325zM277 191.5q44 -57.5 126 -57.5q69 0 111 27v390q-42 27 -111 27q-82 0 -126 -57t-44 -164
q0 -108 44 -165.5z" />
    <glyph glyph-name="oe" unicode="&#x153;" horiz-adv-x="928" 
d="M897 219h-311q7 -50 32 -72t72 -22q41 0 80 12t71 35l47 -120q-38 -28 -91.5 -44t-108.5 -16q-128 0 -193 76q-32 -37 -81 -56.5t-109 -19.5q-83 0 -145 32.5t-95.5 92.5t-33.5 140t33.5 140t95.5 92.5t145 32.5q61 0 110 -20t82 -58q32 38 77 58t101 20
q64 0 114.5 -33.5t79 -93t28.5 -135.5v-41zM611.5 374.5q-21.5 -23.5 -26.5 -69.5h159q-3 45 -22 69t-52 24q-37 0 -58.5 -23.5zM379 158.5q24 31.5 24 98.5t-24 98t-72 31q-97 0 -97 -129q0 -130 97 -130q48 0 72 31.5z" />
    <glyph glyph-name="Racute" unicode="&#x154;" horiz-adv-x="714" 
d="M683 0h-199l-92 237q-16 40 -75 40h-68v-277h-185v712h331q129 0 194 -55.5t65 -158.5q0 -72 -38.5 -124.5t-108.5 -74.5q30 -6 54 -28t38 -59zM452 435.5q27 18.5 27 57.5q0 41 -26.5 59t-87.5 18h-118v-153h118q60 0 87 18.5zM415 773h-109l104 158h162z" />
    <glyph glyph-name="racute" unicode="&#x155;" horiz-adv-x="430" 
d="M432 509v-165q-43 20 -83 20q-114 0 -114 -109v-255h-181v362q0 82 -8 146h170l11 -85q18 47 58 72t90 25q37 0 57 -11zM303 573h-109l98 208h172z" />
    <glyph glyph-name="Rcommaaccent" unicode="&#x156;" horiz-adv-x="714" 
d="M683 0h-199l-92 237q-16 40 -75 40h-68v-277h-185v712h331q129 0 194 -55.5t65 -158.5q0 -72 -38.5 -124.5t-108.5 -74.5q30 -6 54 -28t38 -59zM452 435.5q27 18.5 27 57.5q0 41 -26.5 59t-87.5 18h-118v-153h118q60 0 87 18.5zM447 -64v-67q0 -50 -14.5 -86t-49.5 -67
l-62 42q27 24 33 50h-79v128h172z" />
    <glyph glyph-name="rcommaaccent" unicode="&#x157;" horiz-adv-x="430" 
d="M432 509v-165q-43 20 -83 20q-114 0 -114 -109v-255h-181v362q0 82 -8 146h170l11 -85q18 47 58 72t90 25q37 0 57 -11zM229 -64v-67q0 -50 -14.5 -86t-49.5 -67l-62 42q27 24 33 50h-79v128h172z" />
    <glyph glyph-name="Rcaron" unicode="&#x158;" horiz-adv-x="714" 
d="M683 0h-199l-92 237q-16 40 -75 40h-68v-277h-185v712h331q129 0 194 -55.5t65 -158.5q0 -72 -38.5 -124.5t-108.5 -74.5q30 -6 54 -28t38 -59zM452 435.5q27 18.5 27 57.5q0 41 -26.5 59t-87.5 18h-118v-153h118q60 0 87 18.5zM418 931h131l-139 -158h-99l-139 158h131
l58 -79z" />
    <glyph glyph-name="rcaron" unicode="&#x159;" horiz-adv-x="430" 
d="M432 509v-165q-43 20 -83 20q-114 0 -114 -109v-255h-181v362q0 82 -8 146h170l11 -85q18 47 58 72t90 25q37 0 57 -11zM301 781h136l-136 -208h-105l-136 208h136l53 -107z" />
    <glyph glyph-name="Sacute" unicode="&#x15a;" horiz-adv-x="672" 
d="M164 12q-78 21 -127 57l59 133q52 -33 110.5 -50.5t117.5 -17.5q60 0 92 16.5t32 46.5q0 27 -29 44.5t-109 34.5q-101 20 -157 49.5t-78.5 69.5t-22.5 97q0 65 37 117.5t104 82t153 29.5q77 0 149.5 -21.5t113.5 -56.5l-58 -133q-47 33 -99 50.5t-104 17.5
q-51 0 -82 -19.5t-31 -52.5q0 -18 11 -30t41 -23.5t90 -24.5q97 -21 152.5 -50.5t78.5 -69t23 -94.5q0 -104 -81 -163.5t-228 -59.5q-80 0 -158 21zM394 773h-109l104 158h162z" />
    <glyph glyph-name="sacute" unicode="&#x15b;" horiz-adv-x="507" 
d="M19 53l46 123q41 -28 93 -43.5t102 -15.5q31 0 48 9t17 25q0 14 -12.5 22.5t-47.5 15.5l-82 19q-78 16 -112.5 50.5t-34.5 95.5q0 49 29 87t80.5 59.5t118.5 21.5q55 0 108 -16t99 -45l-48 -120q-40 26 -82 40t-79 14q-30 0 -47 -9.5t-17 -27.5q0 -11 10 -17.5t38 -13.5
l85 -19q81 -19 116.5 -55.5t35.5 -99.5q0 -75 -59.5 -118t-164.5 -43q-152 0 -240 61zM316 573h-109l98 208h172z" />
    <glyph glyph-name="Scircumflex" unicode="&#x15c;" horiz-adv-x="672" 
d="M164 12q-78 21 -127 57l59 133q52 -33 110.5 -50.5t117.5 -17.5q60 0 92 16.5t32 46.5q0 27 -29 44.5t-109 34.5q-101 20 -157 49.5t-78.5 69.5t-22.5 97q0 65 37 117.5t104 82t153 29.5q77 0 149.5 -21.5t113.5 -56.5l-58 -133q-47 33 -99 50.5t-104 17.5
q-51 0 -82 -19.5t-31 -52.5q0 -18 11 -30t41 -23.5t90 -24.5q97 -21 152.5 -50.5t78.5 -69t23 -94.5q0 -104 -81 -163.5t-228 -59.5q-80 0 -158 21zM282 773h-131l139 158h99l139 -158h-131l-57 78z" />
    <glyph glyph-name="scircumflex" unicode="&#x15d;" horiz-adv-x="507" 
d="M19 53l46 123q41 -28 93 -43.5t102 -15.5q31 0 48 9t17 25q0 14 -12.5 22.5t-47.5 15.5l-82 19q-78 16 -112.5 50.5t-34.5 95.5q0 49 29 87t80.5 59.5t118.5 21.5q55 0 108 -16t99 -45l-48 -120q-40 26 -82 40t-79 14q-30 0 -47 -9.5t-17 -27.5q0 -11 10 -17.5t38 -13.5
l85 -19q81 -19 116.5 -55.5t35.5 -99.5q0 -75 -59.5 -118t-164.5 -43q-152 0 -240 61zM209 573h-136l136 208h105l136 -208h-136l-52 106z" />
    <glyph glyph-name="Scedilla" unicode="&#x15e;" horiz-adv-x="672" 
d="M561.5 59.5q-69.5 -58.5 -195.5 -67.5l-5 -32h8q41 0 64 -19t23 -51q0 -41 -37 -65.5t-107 -24.5q-22 0 -48.5 4.5t-48.5 12.5l11 65q54 -14 80 -14q43 0 43 22q0 17 -32 17q-12 0 -32 -5l-20 22l9 69q-68 5 -132 25.5t-105 50.5l59 133q52 -33 110.5 -50.5t117.5 -17.5
q60 0 92 16.5t32 46.5q0 27 -29 44.5t-109 34.5q-101 20 -157 49.5t-78.5 69.5t-22.5 97q0 65 37 117.5t104 82t153 29.5q77 0 149.5 -21.5t113.5 -56.5l-58 -133q-47 33 -99 50.5t-104 17.5q-51 0 -82 -19.5t-31 -52.5q0 -18 11 -30t41 -23.5t90 -24.5q97 -21 152.5 -50.5
t78.5 -69t23 -94.5q0 -96 -69.5 -154.5z" />
    <glyph glyph-name="scedilla" unicode="&#x15f;" horiz-adv-x="507" 
d="M431.5 41q-51.5 -42 -143.5 -48l-5 -33h8q41 0 64 -19t23 -51q0 -41 -37 -65.5t-107 -24.5q-22 0 -48.5 4.5t-48.5 12.5l11 65q54 -14 80 -14q43 0 43 22q0 17 -32 17q-12 0 -32 -5l-20 22l10 71q-109 11 -178 58l46 123q41 -28 93 -43.5t102 -15.5q31 0 48 9t17 25
q0 14 -12.5 22.5t-47.5 15.5l-82 19q-78 16 -112.5 50.5t-34.5 95.5q0 49 29 87t80.5 59.5t118.5 21.5q55 0 108 -16t99 -45l-48 -120q-40 26 -82 40t-79 14q-30 0 -47 -9.5t-17 -27.5q0 -11 10 -17.5t38 -13.5l85 -19q81 -19 116.5 -55.5t35.5 -99.5q0 -70 -51.5 -112z" />
    <glyph glyph-name="Scaron" unicode="&#x160;" horiz-adv-x="672" 
d="M164 12q-78 21 -127 57l59 133q52 -33 110.5 -50.5t117.5 -17.5q60 0 92 16.5t32 46.5q0 27 -29 44.5t-109 34.5q-101 20 -157 49.5t-78.5 69.5t-22.5 97q0 65 37 117.5t104 82t153 29.5q77 0 149.5 -21.5t113.5 -56.5l-58 -133q-47 33 -99 50.5t-104 17.5
q-51 0 -82 -19.5t-31 -52.5q0 -18 11 -30t41 -23.5t90 -24.5q97 -21 152.5 -50.5t78.5 -69t23 -94.5q0 -104 -81 -163.5t-228 -59.5q-80 0 -158 21zM397 931h131l-139 -158h-99l-139 158h131l58 -79z" />
    <glyph glyph-name="scaron" unicode="&#x161;" horiz-adv-x="507" 
d="M19 53l46 123q41 -28 93 -43.5t102 -15.5q31 0 48 9t17 25q0 14 -12.5 22.5t-47.5 15.5l-82 19q-78 16 -112.5 50.5t-34.5 95.5q0 49 29 87t80.5 59.5t118.5 21.5q55 0 108 -16t99 -45l-48 -120q-40 26 -82 40t-79 14q-30 0 -47 -9.5t-17 -27.5q0 -11 10 -17.5t38 -13.5
l85 -19q81 -19 116.5 -55.5t35.5 -99.5q0 -75 -59.5 -118t-164.5 -43q-152 0 -240 61zM314 781h136l-136 -208h-105l-136 208h136l53 -107z" />
    <glyph glyph-name="uni0162" unicode="&#x162;" horiz-adv-x="638" 
d="M354 0l-6 -40h8q41 0 64 -19t23 -51q0 -41 -37 -65.5t-107 -24.5q-22 0 -48.5 4.5t-48.5 12.5l11 65q54 -14 80 -14q43 0 43 22q0 17 -32 17q-12 0 -32 -5l-20 22l10 76h-38v560h-212v152h614v-152h-212v-560h-60z" />
    <glyph glyph-name="uni0163" unicode="&#x163;" horiz-adv-x="416" 
d="M295 -8l-5 -32h8q41 0 64 -19t23 -51q0 -41 -37 -65.5t-107 -24.5q-22 0 -48.5 4.5t-48.5 12.5l11 65q54 -14 80 -14q43 0 43 22q0 17 -32 17q-12 0 -32 -5l-20 22l12 87q-54 25 -81 76t-27 124v164h-95v133h95v115l181 58v-173h122v-133h-122v-164q0 -36 21.5 -54.5
t53.5 -18.5q18 0 48 6v-137q-37 -15 -94 -15h-13z" />
    <glyph glyph-name="Tcaron" unicode="&#x164;" horiz-adv-x="638" 
d="M224 0v560h-212v152h614v-152h-212v-560h-190zM376 931h131l-139 -158h-99l-139 158h131l58 -79z" />
    <glyph glyph-name="tcaron" unicode="&#x165;" horiz-adv-x="416" 
d="M314 714h134l-32 -178h-102v178zM300.5 156.5q21.5 -18.5 53.5 -18.5q18 0 48 6v-137q-37 -15 -94 -15q-103 0 -156.5 58t-53.5 161v164h-95v133h95v115l181 58v-173h122v-133h-122v-164q0 -36 21.5 -54.5z" />
    <glyph glyph-name="Tbar" unicode="&#x166;" horiz-adv-x="638" 
d="M626 560h-212v-131h133v-140h-133v-289h-190v289h-133v140h133v131h-212v152h614v-152z" />
    <glyph glyph-name="tbar" unicode="&#x167;" horiz-adv-x="427" 
d="M408 144v-137q-37 -15 -95 -15q-103 0 -156.5 58t-53.5 161v13h-74v125h74v26h-95v133h95v115l183 58v-173h121v-133h-121v-26h100v-125h-100v-13q0 -36 20.5 -54.5t52.5 -18.5q18 0 49 6z" />
    <glyph glyph-name="Utilde" unicode="&#x168;" horiz-adv-x="752" 
d="M141 69.5q-80 78.5 -80 230.5v412h183v-419q0 -77 34.5 -118t98.5 -41q63 0 97 41.5t34 117.5v419h185v-412q0 -150 -81.5 -229.5t-234.5 -79.5q-156 0 -236 78.5zM229 894.5q33 39.5 84 39.5q17 0 33 -6.5t40 -20.5q19 -11 32 -17t25 -6q17 0 28 12t14 35h72
q0 -81 -33 -120.5t-84 -39.5q-17 0 -33 6.5t-40 20.5q-19 11 -32 17t-25 6q-17 0 -28 -12t-14 -35h-72q0 81 33 120.5z" />
    <glyph glyph-name="utilde" unicode="&#x169;" horiz-adv-x="619" 
d="M565 508v-508h-177v68q-49 -76 -145 -76q-97 0 -144.5 54t-47.5 165v297h181v-302q0 -75 65 -75q38 0 61.5 27t23.5 72v278h183zM161 719.5q33 39.5 84 39.5q17 0 33 -6.5t40 -20.5q19 -11 32 -17t25 -6q17 0 28 12t14 35h72q0 -81 -33 -120.5t-84 -39.5q-17 0 -33 6.5
t-40 20.5q-19 11 -32 17t-25 6q-17 0 -28 -12t-14 -35h-72q0 81 33 120.5z" />
    <glyph glyph-name="Umacron" unicode="&#x16a;" horiz-adv-x="752" 
d="M141 69.5q-80 78.5 -80 230.5v412h183v-419q0 -77 34.5 -118t98.5 -41q63 0 97 41.5t34 117.5v419h185v-412q0 -150 -81.5 -229.5t-234.5 -79.5q-156 0 -236 78.5zM216 798v108h321v-108h-321z" />
    <glyph glyph-name="umacron" unicode="&#x16b;" horiz-adv-x="619" 
d="M565 508v-508h-177v68q-49 -76 -145 -76q-97 0 -144.5 54t-47.5 165v297h181v-302q0 -75 65 -75q38 0 61.5 27t23.5 72v278h183zM148 621v108h321v-108h-321z" />
    <glyph glyph-name="Ubreve" unicode="&#x16c;" horiz-adv-x="752" 
d="M141 69.5q-80 78.5 -80 230.5v412h183v-419q0 -77 34.5 -118t98.5 -41q63 0 97 41.5t34 117.5v419h185v-412q0 -150 -81.5 -229.5t-234.5 -79.5q-156 0 -236 78.5zM258 810q-49 29 -67 82l77 33q30 -41 109 -41q78 0 108 41l77 -33q-18 -53 -67 -82t-118 -29
q-70 0 -119 29z" />
    <glyph glyph-name="ubreve" unicode="&#x16d;" horiz-adv-x="619" 
d="M565 508v-508h-177v68q-49 -76 -145 -76q-97 0 -144.5 54t-47.5 165v297h181v-302q0 -75 65 -75q38 0 61.5 27t23.5 72v278h183zM184 632.5q-55 39.5 -71 113.5l77 34q45 -77 119 -77q73 0 118 77l77 -34q-16 -74 -71 -113.5t-124 -39.5q-70 0 -125 39.5z" />
    <glyph glyph-name="Uring" unicode="&#x16e;" horiz-adv-x="752" 
d="M141 69.5q-80 78.5 -80 230.5v412h183v-419q0 -77 34.5 -118t98.5 -41q63 0 97 41.5t34 117.5v419h185v-412q0 -150 -81.5 -229.5t-234.5 -79.5q-156 0 -236 78.5zM295.5 800q-33.5 32 -33.5 80q0 47 33.5 79.5t81.5 32.5q47 0 80.5 -33t33.5 -79q0 -48 -33 -80t-81 -32
t-81.5 32zM406.5 848q11.5 13 11.5 32q0 18 -11.5 30.5t-29.5 12.5t-30 -12.5t-12 -30.5q0 -19 12 -32t30 -13t29.5 13z" />
    <glyph glyph-name="uring" unicode="&#x16f;" horiz-adv-x="619" 
d="M565 508v-508h-177v68q-49 -76 -145 -76q-97 0 -144.5 54t-47.5 165v297h181v-302q0 -75 65 -75q38 0 61.5 27t23.5 72v278h183zM227.5 598q-33.5 32 -33.5 80q0 47 33.5 79.5t81.5 32.5q47 0 80.5 -33t33.5 -79q0 -48 -33 -80t-81 -32t-81.5 32zM338.5 646
q11.5 13 11.5 32q0 18 -11.5 30.5t-29.5 12.5t-30 -12.5t-12 -30.5q0 -19 12 -32t30 -13t29.5 13z" />
    <glyph glyph-name="Uhungarumlaut" unicode="&#x170;" horiz-adv-x="752" 
d="M141 69.5q-80 78.5 -80 230.5v412h183v-419q0 -77 34.5 -118t98.5 -41q63 0 97 41.5t34 117.5v419h185v-412q0 -150 -81.5 -229.5t-234.5 -79.5q-156 0 -236 78.5zM258 773l75 158h115l-102 -158h-88zM407 773l75 158h114l-101 -158h-88z" />
    <glyph glyph-name="uhungarumlaut" unicode="&#x171;" horiz-adv-x="619" 
d="M565 508v-508h-177v68q-49 -76 -145 -76q-97 0 -144.5 54t-47.5 165v297h181v-302q0 -75 65 -75q38 0 61.5 27t23.5 72v278h183zM272 573h-75l30 208h124zM420 573h-75l29 208h124z" />
    <glyph glyph-name="Uogonek" unicode="&#x172;" horiz-adv-x="752" 
d="M693 712v-412q0 -119 -51 -194t-150 -101q-26 -7 -40.5 -24.5t-14.5 -41.5q0 -50 58 -50q23 0 53 11l18 -81q-48 -19 -106 -19q-59 0 -96.5 31t-37.5 81q0 22 8 42.5t24 36.5q-147 5 -222 83.5t-75 225.5v412h183v-419q0 -77 34.5 -118t98.5 -41q63 0 97 41.5t34 117.5
v419h185z" />
    <glyph glyph-name="uogonek" unicode="&#x173;" horiz-adv-x="619" 
d="M602 -185q-55 -21 -108 -21q-60 0 -98.5 33.5t-38.5 85.5q0 51 36 87h-5v68q-49 -76 -145 -76q-97 0 -144.5 54t-47.5 165v297h181v-302q0 -75 65 -75q38 0 61.5 27t23.5 72v278h183v-508h-12q-38 0 -60.5 -17.5t-22.5 -45.5q0 -52 59 -52q27 0 54 12z" />
    <glyph glyph-name="Wcircumflex" unicode="&#x174;" horiz-adv-x="1132" 
d="M942 712h178l-255 -712h-149l-149 423l-152 -423h-149l-254 712h191l146 -449l159 449h128l153 -457zM509 773h-131l139 158h99l139 -158h-131l-57 78z" />
    <glyph glyph-name="wcircumflex" unicode="&#x175;" horiz-adv-x="900" 
d="M736 508h174l-212 -508h-149l-102 252l-96 -252h-150l-212 508h184l113 -293l110 293h116l113 -299zM396 573h-136l136 208h105l136 -208h-136l-52 106z" />
    <glyph glyph-name="Ycircumflex" unicode="&#x176;" horiz-adv-x="657" 
d="M724 712l-301 -440v-272h-189v273l-299 439h212l180 -284l183 284h214zM270 773h-131l139 158h99l139 -158h-131l-57 78z" />
    <glyph glyph-name="ycircumflex" unicode="&#x177;" horiz-adv-x="559" 
d="M579 508l-233 -526q-46 -103 -115.5 -150.5t-171.5 -59.5l-42 138q70 14 105 36t53 61l13 28l-207 473h188l114 -293l118 293h178zM226 573h-136l136 208h105l136 -208h-136l-52 106z" />
    <glyph glyph-name="Ydieresis" unicode="&#x178;" horiz-adv-x="657" 
d="M724 712l-301 -440v-272h-189v273l-299 439h212l180 -284l183 284h214zM147 928h160v-151h-160v151zM348 928h160v-151h-160v151z" />
    <glyph glyph-name="Zacute" unicode="&#x179;" horiz-adv-x="624" 
d="M260 147h329v-147h-536v137l314 428h-314v147h525v-135zM368 773h-109l104 158h162z" />
    <glyph glyph-name="zacute" unicode="&#x17a;" horiz-adv-x="535" 
d="M258 134h246v-134h-457v127l230 248h-229v133h446v-119zM331 573h-109l98 208h172z" />
    <glyph glyph-name="Zdotaccent" unicode="&#x17b;" horiz-adv-x="624" 
d="M260 147h329v-147h-536v137l314 428h-314v147h525v-135zM219 934h189v-163h-189v163z" />
    <glyph glyph-name="zdotaccent" unicode="&#x17c;" horiz-adv-x="535" 
d="M258 134h246v-134h-457v127l230 248h-229v133h446v-119zM182 757h189v-163h-189v163z" />
    <glyph glyph-name="Zcaron" unicode="&#x17d;" horiz-adv-x="624" 
d="M260 147h329v-147h-536v137l314 428h-314v147h525v-135zM371 931h131l-139 -158h-99l-139 158h131l58 -79z" />
    <glyph glyph-name="zcaron" unicode="&#x17e;" horiz-adv-x="535" 
d="M258 134h246v-134h-457v127l230 248h-229v133h446v-119zM329 781h136l-136 -208h-105l-136 208h136l53 -107z" />
    <glyph glyph-name="uni018F" unicode="&#x18f;" horiz-adv-x="786" 
d="M564.5 676.5q83.5 -44.5 129 -127t45.5 -192.5q0 -105 -42 -188.5t-118 -130.5t-173 -47q-170 0 -265.5 96t-95.5 275v68h502q-30 144 -185 144q-113 0 -202 -64l-59 133q47 36 121 57t147 21q112 0 195.5 -44.5zM550 289h-314q10 -77 51.5 -116t112.5 -39q129 0 150 155
z" />
    <glyph glyph-name="florin" unicode="&#x192;" horiz-adv-x="600" 
d="M462.5 557q-16.5 -18 -21.5 -51v-2h102v-102h-124l-82 -383q-22 -110 -88.5 -158t-146.5 -48h-84v141h80q23 0 40 18.5t22 50.5l80 379h-104v102h126l1 6q22 111 88.5 159t146.5 48h84v-142h-80q-23 0 -39.5 -18z" />
    <glyph glyph-name="Ohorn" unicode="&#x1a0;" horiz-adv-x="805" 
d="M729 690.5q-30 -42.5 -79 -56.5q109 -96 109 -277q0 -111 -43 -194t-123.5 -127.5t-189.5 -44.5t-190 44.5t-124.5 127.5t-43.5 194t44 193t125 126.5t191 44.5q30 0 62 -5q36 -4 58 -4q44 0 61.5 22t17.5 77v22h155v-43q0 -57 -30 -99.5zM528.5 191q45.5 57 45.5 166
q0 108 -45.5 164.5t-125.5 56.5t-125 -56t-45 -165q0 -110 45 -166.5t125 -56.5t125.5 57z" />
    <glyph glyph-name="ohorn" unicode="&#x1a1;" horiz-adv-x="618" 
d="M594.5 496.5q-26.5 -41.5 -72.5 -58.5q65 -66 65 -183q0 -80 -34 -139.5t-96.5 -91.5t-146.5 -32q-85 0 -148 32t-97 91.5t-34 139.5q0 82 34 142t96 92.5t145 32.5q21 0 68 -7q15 -3 22 -3q31 0 51 21t20 81v22h154v-43q0 -55 -26.5 -96.5zM408 257q0 66 -24.5 97.5
t-73.5 31.5q-50 0 -75 -31.5t-25 -97.5q0 -67 25 -98.5t75 -31.5q98 0 98 130z" />
    <glyph glyph-name="Uhorn" unicode="&#x1af;" horiz-adv-x="752" 
d="M804 833v-43q0 -56 -30.5 -98.5t-80.5 -56.5v-335q0 -150 -81.5 -229.5t-234.5 -79.5q-156 0 -236 78.5t-80 230.5v412h183v-419q0 -77 34.5 -118t98.5 -41q63 0 97 41.5t34 117.5v419h54q49 0 68 21.5t19 77.5v22h155z" />
    <glyph glyph-name="uhorn" unicode="&#x1b0;" horiz-adv-x="648" 
d="M679 636v-43q0 -58 -31.5 -101.5t-82.5 -57.5v-434h-177v68q-49 -76 -145 -76q-97 0 -144.5 54t-47.5 165v297h181v-302q0 -75 65 -75q38 0 61.5 27t23.5 72v278h52q50 0 70 24t20 82v22h155z" />
    <glyph glyph-name="uni01C4" unicode="&#x1c4;" horiz-adv-x="1390" 
d="M64 712h291q118 0 203.5 -42.5t131 -122.5t45.5 -190q0 -111 -45 -191.5t-130.5 -123t-204.5 -42.5h-291v712zM342 150q104 0 155.5 51.5t51.5 155.5q0 205 -207 205h-90v-412h90zM1026 147h329v-147h-536v137l314 428h-314v147h525v-135zM1137 931h131l-139 -158h-99
l-139 158h131l58 -79z" />
    <glyph glyph-name="uni01C5" unicode="&#x1c5;" horiz-adv-x="1316" 
d="M64 712h291q118 0 203.5 -42.5t131 -122.5t45.5 -190q0 -111 -45 -191.5t-130.5 -123t-204.5 -42.5h-291v712zM342 150q104 0 155.5 51.5t51.5 155.5q0 205 -207 205h-90v-412h90zM1039 134h246v-134h-457v127l230 248h-229v133h446v-119zM1110 781h136l-136 -208h-105
l-136 208h136l53 -107z" />
    <glyph glyph-name="uni01C6" unicode="&#x1c6;" horiz-adv-x="1178" 
d="M589 736v-736h-178v69q-22 -36 -64 -56.5t-92 -20.5q-65 0 -116 33.5t-79.5 94t-28.5 139.5q0 78 28.5 138t79.5 92.5t116 32.5q48 0 88.5 -20t64.5 -54v288h181zM385 160.5q26 33.5 26 96.5q0 61 -26.5 94.5t-73.5 33.5q-49 0 -75 -32.5t-26 -93.5q0 -63 26.5 -97.5
t74.5 -34.5t74 33.5zM901 134h246v-134h-457v127l230 248h-229v133h446v-119zM972 781h136l-136 -208h-105l-136 208h136l53 -107z" />
    <glyph glyph-name="uni01C7" unicode="&#x1c7;" horiz-adv-x="944" 
d="M64 0v712h188v-560h271v-152h-459zM543 -29q50 -5 74 -5q45 0 60 18t15 69v659h188v-656q0 -126 -51 -185t-176 -59q-48 0 -110 9v150z" />
    <glyph glyph-name="uni01C8" unicode="&#x1c8;" horiz-adv-x="868" 
d="M64 0v712h188v-560h301v-152h-489zM559 -79q32 0 53 18.5t21 56.5v512h181v-514q0 -103 -53.5 -161t-156.5 -58q-58 0 -94 14v139q29 -7 49 -7zM627 757h189v-163h-189v163z" />
    <glyph glyph-name="uni01C9" unicode="&#x1c9;" horiz-adv-x="578" 
d="M54 0v736h181v-736h-181zM269 -79q32 0 53 18.5t21 56.5v512h181v-514q0 -103 -53.5 -161t-156.5 -58q-58 0 -94 14v139q29 -7 49 -7zM337 757h189v-163h-189v163z" />
    <glyph glyph-name="uni01CA" unicode="&#x1ca;" horiz-adv-x="1169" 
d="M524 712h177v-712h-139l-323 404v-404h-175v712h137l323 -402v402zM768 -29q50 -5 73 -5q45 0 60 18t15 69v659h188v-656q0 -126 -51 -185t-175 -59q-49 0 -110 9v150z" />
    <glyph glyph-name="uni01CB" unicode="&#x1cb;" horiz-adv-x="1055" 
d="M524 712h177v-712h-139l-323 404v-404h-175v712h137l323 -402v402zM746 -79q32 0 53 18.5t21 56.5v512h181v-514q0 -103 -53.5 -161t-156.5 -58q-58 0 -94 14v139q29 -7 49 -7zM814 757h189v-163h-189v163z" />
    <glyph glyph-name="uni01CC" unicode="&#x1cc;" horiz-adv-x="913" 
d="M528.5 467.5q44.5 -54.5 44.5 -164.5v-303h-181v295q0 47 -16 67.5t-50 20.5q-41 0 -66 -27.5t-25 -72.5v-283h-181v362q0 82 -8 146h170l9 -75q29 43 72 66t97 23q90 0 134.5 -54.5zM604 -79q32 0 53 18.5t21 56.5v512h181v-514q0 -103 -53.5 -161t-156.5 -58
q-58 0 -94 14v139q29 -7 49 -7zM672 757h189v-163h-189v163z" />
    <glyph glyph-name="uni01CE" unicode="&#x1ce;" horiz-adv-x="643" 
d="M589 508v-508h-178v69q-22 -36 -64 -56.5t-92 -20.5q-65 0 -116 32t-79.5 91.5t-28.5 137.5q0 79 29 140t80 95t115 34q50 0 91.5 -21.5t64.5 -57.5v65h178zM385 160q26 33 26 95q0 63 -26 96.5t-74 33.5q-47 0 -74 -34.5t-27 -97.5q0 -61 26 -93.5t75 -32.5q48 0 74 33z
M373 781h136l-136 -208h-105l-136 208h136l53 -107z" />
    <glyph glyph-name="Gcaron" unicode="&#x1e6;" horiz-adv-x="751" 
d="M696 402v-357q-57 -26 -127.5 -40t-144.5 -14q-116 0 -201.5 44t-131.5 126.5t-46 195.5q0 110 46 192.5t130 127t196 44.5q77 0 145.5 -20t111.5 -55l-59 -133q-49 32 -94.5 46.5t-97.5 14.5q-95 0 -141.5 -53.5t-46.5 -163.5q0 -114 48.5 -169t149.5 -55q47 0 94 10
v132h-124v127h293zM474 931h131l-139 -158h-99l-139 158h131l58 -79z" />
    <glyph glyph-name="gcaron" unicode="&#x1e7;" horiz-adv-x="647" 
d="M595 508v-476q0 -125 -75 -190.5t-220 -65.5q-124 0 -215 44l27 132q45 -20 92.5 -31.5t89.5 -11.5q62 0 91.5 26.5t29.5 82.5v75q-25 -33 -67.5 -56t-90.5 -23q-65 0 -116.5 31.5t-80.5 89t-29 133.5q0 75 29 132.5t80.5 89.5t116.5 32q51 0 93 -21t65 -57v64h180z
M388 180.5q27 31.5 27 87.5q0 54 -27 85.5t-75 31.5t-75.5 -31t-27.5 -86t28 -87t75 -32q48 0 75 31.5zM376 781h136l-136 -208h-105l-136 208h136l53 -107z" />
    <glyph glyph-name="uni01EA" unicode="&#x1ea;" horiz-adv-x="805" 
d="M461 -61q0 -24 15 -37t42 -13q24 0 55 11l17 -81q-50 -19 -107 -19q-59 0 -96.5 31.5t-37.5 80.5q0 46 30 79q-102 5 -177.5 51t-116 127t-40.5 188q0 111 44 193t124.5 126.5t189.5 44.5t189.5 -44.5t123.5 -126.5t43 -193q0 -134 -62 -226t-175 -126q-61 -18 -61 -66z
M528.5 191q45.5 57 45.5 166q0 108 -45.5 164.5t-125.5 56.5t-125 -56t-45 -165q0 -110 45 -166.5t125 -56.5t125.5 57z" />
    <glyph glyph-name="uni01EB" unicode="&#x1eb;" horiz-adv-x="618" 
d="M367.5 -20q-16.5 -18 -16.5 -43t16 -38.5t45 -13.5q26 0 54 12l18 -82q-55 -21 -108 -21q-60 0 -98 33t-38 83q0 48 36 84q-115 11 -180 80.5t-65 182.5q0 81 34 141t97 92t148 32q84 0 146.5 -32.5t96.5 -92t34 -140.5q0 -94 -46.5 -161t-127.5 -90q-29 -8 -45.5 -26z
M408 257q0 66 -24.5 97.5t-73.5 31.5q-50 0 -75 -31.5t-25 -97.5q0 -67 25 -98.5t75 -31.5q98 0 98 130z" />
    <glyph glyph-name="Aringacute" unicode="&#x1fa;" horiz-adv-x="769" 
d="M544 147h-316l-63 -147h-188l330 706q-17 15 -26.5 36.5t-9.5 45.5q0 46 33.5 78.5t80.5 32.5q22 0 43 -8l60 66h160l-156 -130q7 -21 7 -39q0 -25 -10 -47t-27 -37l330 -704h-185zM355 818.5q-12 -12.5 -12 -30.5t12 -31.5t30 -13.5t30 13.5t12 31.5t-12 30.5t-30 12.5
t-30 -12.5zM289 288h194l-97 225z" />
    <glyph glyph-name="aringacute" unicode="&#x1fb;" horiz-adv-x="643" 
d="M239 600q-33 33 -33 82q0 47 33 79.5t82 32.5q24 0 41 -7l70 96l152 -7l-155 -150q9 -19 9 -44q0 -49 -34 -82t-83 -33t-82 33zM290.5 713.5q-11.5 -12.5 -11.5 -31.5t12 -33t30 -14t30.5 14t12.5 33t-12 31.5t-31 12.5t-30.5 -12.5zM589 508v-508h-178v69
q-22 -36 -64 -56.5t-92 -20.5q-65 0 -116 32t-79.5 91.5t-28.5 137.5q0 79 29 140t80 95t115 34q50 0 91.5 -21.5t64.5 -57.5v65h178zM385 160q26 33 26 95q0 63 -26 96.5t-74 33.5q-47 0 -74 -34.5t-27 -97.5q0 -61 26 -93.5t75 -32.5q48 0 74 33z" />
    <glyph glyph-name="AEacute" unicode="&#x1fc;" horiz-adv-x="1014" 
d="M982 568h-303l8 -134h274v-144h-264l9 -146h276v-144h-437l-9 147h-289l-87 -147h-203l454 712h571v-144zM528 288l-17 280h-13l-167 -280h197zM566 773h-109l104 158h162z" />
    <glyph glyph-name="aeacute" unicode="&#x1fd;" horiz-adv-x="860" 
d="M829 236h-314q7 -111 119 -111q34 0 71.5 12.5t69.5 34.5l45 -120q-36 -28 -90 -44t-109 -16q-71 0 -123.5 23.5t-84.5 69.5q-25 -45 -69.5 -69t-102.5 -24q-60 0 -107.5 21.5t-74.5 60t-27 88.5q0 83 64.5 120.5t211.5 37.5h36q0 36 -16.5 52t-55.5 16t-85.5 -14
t-88.5 -37l-45 121q45 27 110.5 45.5t120.5 18.5q112 0 164 -59q64 59 160 59q65 0 115 -33t78 -92.5t28 -136.5v-24zM549.5 379.5q-20.5 -18.5 -28.5 -59.5h155q-11 78 -73 78q-33 0 -53.5 -18.5zM324.5 140q19.5 26 19.5 68v30h-25q-113 0 -113 -70q0 -25 16.5 -39.5
t43.5 -14.5q39 0 58.5 26zM484 573h-109l98 208h172z" />
    <glyph glyph-name="Oslashacute" unicode="&#x1fe;" horiz-adv-x="805" 
d="M730 519q29 -72 29 -162q0 -111 -43 -194t-123.5 -127.5t-189.5 -44.5q-66 0 -123 17l-50 -85l-118 71l47 80q-55 48 -84.5 120t-29.5 163q0 111 44 193t124.5 126.5t189.5 44.5q64 0 123 -17l49 85l118 -71l-46 -79q54 -48 83 -120zM253 236l196 337q-23 5 -46 5
q-80 0 -125 -56t-45 -165q0 -72 20 -121zM528.5 191q45.5 57 45.5 166q0 73 -21 121l-197 -338q23 -6 47 -6q80 0 125.5 57zM456 773h-109l104 158h162z" />
    <glyph glyph-name="oslashacute" unicode="&#x1ff;" horiz-adv-x="618" 
d="M561.5 381q25.5 -54 25.5 -124q0 -81 -34 -140.5t-96.5 -92t-146.5 -32.5q-51 0 -93 12l-44 -75l-81 48l39 66q-48 35 -74 89.5t-26 124.5q0 81 34 141t97 92t148 32q50 0 93 -12l42 73l82 -48l-38 -65q47 -35 72.5 -89zM215 189l116 198q-7 1 -21 1q-52 0 -78 -32
t-26 -99q0 -41 9 -68zM386.5 157.5q25.5 31.5 25.5 99.5q0 39 -9 66l-114 -196q7 -1 21 -1q51 0 76.5 31.5zM364 573h-109l98 208h172z" />
    <glyph glyph-name="uni0200" unicode="&#x200;" horiz-adv-x="769" 
d="M607 0l-63 147h-316l-63 -147h-188l333 712h148l334 -712h-185zM289 288h194l-97 225zM265 773l-101 158h114l75 -158h-88zM414 773l-102 158h115l75 -158h-88z" />
    <glyph glyph-name="uni0201" unicode="&#x201;" horiz-adv-x="643" 
d="M589 508v-508h-178v69q-22 -36 -64 -56.5t-92 -20.5q-65 0 -116 32t-79.5 91.5t-28.5 137.5q0 79 29 140t80 95t115 34q50 0 91.5 -21.5t64.5 -57.5v65h178zM385 160q26 33 26 95q0 63 -26 96.5t-74 33.5q-47 0 -74 -34.5t-27 -97.5q0 -61 26 -93.5t75 -32.5q48 0 74 33z
M209 573l-78 208h124l29 -208h-75zM357 573l-79 208h124l30 -208h-75z" />
    <glyph glyph-name="uni0202" unicode="&#x202;" horiz-adv-x="769" 
d="M607 0l-63 147h-316l-63 -147h-188l333 712h148l334 -712h-185zM289 288h194l-97 225zM502 895q49 -29 67 -82l-77 -32q-30 41 -108 41q-79 0 -109 -41l-77 32q18 53 67 82t119 29q69 0 118 -29z" />
    <glyph glyph-name="uni0203" unicode="&#x203;" horiz-adv-x="643" 
d="M589 508v-508h-178v69q-22 -36 -64 -56.5t-92 -20.5q-65 0 -116 32t-79.5 91.5t-28.5 137.5q0 79 29 140t80 95t115 34q50 0 91.5 -21.5t64.5 -57.5v65h178zM385 160q26 33 26 95q0 63 -26 96.5t-74 33.5q-47 0 -74 -34.5t-27 -97.5q0 -61 26 -93.5t75 -32.5q48 0 74 33z
M445 734q55 -40 71 -114l-77 -32q-47 77 -118 77q-72 0 -119 -77l-77 33q17 73 71.5 113t124.5 40q69 0 124 -40z" />
    <glyph glyph-name="uni0204" unicode="&#x204;" horiz-adv-x="604" 
d="M64 0v712h508v-144h-325v-134h304v-144h-304v-146h325v-144h-508zM217 773l-101 158h114l75 -158h-88zM366 773l-102 158h115l75 -158h-88z" />
    <glyph glyph-name="uni0205" unicode="&#x205;" horiz-adv-x="553" 
d="M523 236h-319q5 -59 34 -85t85 -26q38 0 76 12.5t69 34.5l46 -120q-38 -28 -92 -44t-108 -16q-87 0 -151 32t-98 91.5t-34 140.5q0 77 32.5 137.5t90 94.5t131.5 34q72 0 126 -32t83 -91.5t29 -138.5v-24zM206 320h162q-10 78 -78 78q-67 0 -84 -78zM173 573l-78 208h124
l29 -208h-75zM321 573l-79 208h124l30 -208h-75z" />
    <glyph glyph-name="uni0206" unicode="&#x206;" horiz-adv-x="604" 
d="M64 0v712h508v-144h-325v-134h304v-144h-304v-146h325v-144h-508zM454 895q49 -29 67 -82l-77 -32q-30 41 -108 41q-79 0 -109 -41l-77 32q18 53 67 82t119 29q69 0 118 -29z" />
    <glyph glyph-name="uni0207" unicode="&#x207;" horiz-adv-x="553" 
d="M523 236h-319q5 -59 34 -85t85 -26q38 0 76 12.5t69 34.5l46 -120q-38 -28 -92 -44t-108 -16q-87 0 -151 32t-98 91.5t-34 140.5q0 77 32.5 137.5t90 94.5t131.5 34q72 0 126 -32t83 -91.5t29 -138.5v-24zM206 320h162q-10 78 -78 78q-67 0 -84 -78zM409 734
q55 -40 71 -114l-77 -32q-47 77 -118 77q-72 0 -119 -77l-77 33q17 73 71.5 113t124.5 40q69 0 124 -40z" />
    <glyph glyph-name="uni0208" unicode="&#x208;" horiz-adv-x="316" 
d="M64 0v712h188v-712h-188zM38 773l-101 158h114l75 -158h-88zM187 773l-102 158h115l75 -158h-88z" />
    <glyph glyph-name="uni0209" unicode="&#x209;" horiz-adv-x="289" 
d="M54 0v508h181v-508h-181zM32 573l-78 208h124l29 -208h-75zM180 573l-79 208h124l30 -208h-75z" />
    <glyph glyph-name="uni020A" unicode="&#x20a;" horiz-adv-x="316" 
d="M64 0v712h188v-712h-188zM275 895q49 -29 67 -82l-77 -32q-30 41 -108 41q-79 0 -109 -41l-77 32q18 53 67 82t119 29q69 0 118 -29z" />
    <glyph glyph-name="uni020B" unicode="&#x20b;" horiz-adv-x="289" 
d="M54 0v508h181v-508h-181zM268 734q55 -40 71 -114l-77 -32q-47 77 -118 77q-72 0 -119 -77l-77 33q17 73 71.5 113t124.5 40q69 0 124 -40z" />
    <glyph glyph-name="uni020C" unicode="&#x20c;" horiz-adv-x="805" 
d="M213 35.5q-81 44.5 -124.5 127.5t-43.5 194t44 193t124.5 126.5t189.5 44.5t189.5 -44.5t123.5 -126.5t43 -193t-43 -194t-123.5 -127.5t-189.5 -44.5t-190 44.5zM528.5 191q45.5 57 45.5 166q0 108 -45.5 164.5t-125.5 56.5t-125 -56t-45 -165q0 -110 45 -166.5
t125 -56.5t125.5 57zM283 773l-101 158h114l75 -158h-88zM432 773l-102 158h115l75 -158h-88z" />
    <glyph glyph-name="uni020D" unicode="&#x20d;" horiz-adv-x="618" 
d="M162 24q-63 32 -97 92t-34 141t34 141t97 92t148 32q84 0 146.5 -32.5t96.5 -92t34 -140.5t-34 -140.5t-96.5 -92t-146.5 -32.5q-85 0 -148 32zM408 257q0 66 -24.5 97.5t-73.5 31.5q-50 0 -75 -31.5t-25 -97.5q0 -67 25 -98.5t75 -31.5q98 0 98 130zM198 573l-78 208
h124l29 -208h-75zM346 573l-79 208h124l30 -208h-75z" />
    <glyph glyph-name="uni020E" unicode="&#x20e;" horiz-adv-x="805" 
d="M213 35.5q-81 44.5 -124.5 127.5t-43.5 194t44 193t124.5 126.5t189.5 44.5t189.5 -44.5t123.5 -126.5t43 -193t-43 -194t-123.5 -127.5t-189.5 -44.5t-190 44.5zM528.5 191q45.5 57 45.5 166q0 108 -45.5 164.5t-125.5 56.5t-125 -56t-45 -165q0 -110 45 -166.5
t125 -56.5t125.5 57zM520 895q49 -29 67 -82l-77 -32q-30 41 -108 41q-79 0 -109 -41l-77 32q18 53 67 82t119 29q69 0 118 -29z" />
    <glyph glyph-name="uni020F" unicode="&#x20f;" horiz-adv-x="618" 
d="M162 24q-63 32 -97 92t-34 141t34 141t97 92t148 32q84 0 146.5 -32.5t96.5 -92t34 -140.5t-34 -140.5t-96.5 -92t-146.5 -32.5q-85 0 -148 32zM408 257q0 66 -24.5 97.5t-73.5 31.5q-50 0 -75 -31.5t-25 -97.5q0 -67 25 -98.5t75 -31.5q98 0 98 130zM434 734
q55 -40 71 -114l-77 -32q-47 77 -118 77q-72 0 -119 -77l-77 33q17 73 71.5 113t124.5 40q69 0 124 -40z" />
    <glyph glyph-name="uni0210" unicode="&#x210;" horiz-adv-x="714" 
d="M683 0h-199l-92 237q-16 40 -75 40h-68v-277h-185v712h331q129 0 194 -55.5t65 -158.5q0 -72 -38.5 -124.5t-108.5 -74.5q30 -6 54 -28t38 -59zM452 435.5q27 18.5 27 57.5q0 41 -26.5 59t-87.5 18h-118v-153h118q60 0 87 18.5zM242 773l-101 158h114l75 -158h-88z
M391 773l-102 158h115l75 -158h-88z" />
    <glyph glyph-name="uni0211" unicode="&#x211;" horiz-adv-x="430" 
d="M432 509v-165q-43 20 -83 20q-114 0 -114 -109v-255h-181v362q0 82 -8 146h170l11 -85q18 47 58 72t90 25q37 0 57 -11zM137 573l-78 208h124l29 -208h-75zM285 573l-79 208h124l30 -208h-75z" />
    <glyph glyph-name="uni0212" unicode="&#x212;" horiz-adv-x="714" 
d="M683 0h-199l-92 237q-16 40 -75 40h-68v-277h-185v712h331q129 0 194 -55.5t65 -158.5q0 -72 -38.5 -124.5t-108.5 -74.5q30 -6 54 -28t38 -59zM452 435.5q27 18.5 27 57.5q0 41 -26.5 59t-87.5 18h-118v-153h118q60 0 87 18.5zM479 895q49 -29 67 -82l-77 -32
q-30 41 -108 41q-79 0 -109 -41l-77 32q18 53 67 82t119 29q69 0 118 -29z" />
    <glyph glyph-name="uni0213" unicode="&#x213;" horiz-adv-x="430" 
d="M432 509v-165q-43 20 -83 20q-114 0 -114 -109v-255h-181v362q0 82 -8 146h170l11 -85q18 47 58 72t90 25q37 0 57 -11zM373 734q55 -40 71 -114l-77 -32q-47 77 -118 77q-72 0 -119 -77l-77 33q17 73 71.5 113t124.5 40q69 0 124 -40z" />
    <glyph glyph-name="uni0214" unicode="&#x214;" horiz-adv-x="752" 
d="M141 69.5q-80 78.5 -80 230.5v412h183v-419q0 -77 34.5 -118t98.5 -41q63 0 97 41.5t34 117.5v419h185v-412q0 -150 -81.5 -229.5t-234.5 -79.5q-156 0 -236 78.5zM258 773l-101 158h114l75 -158h-88zM407 773l-102 158h115l75 -158h-88z" />
    <glyph glyph-name="uni0215" unicode="&#x215;" horiz-adv-x="619" 
d="M565 508v-508h-177v68q-49 -76 -145 -76q-97 0 -144.5 54t-47.5 165v297h181v-302q0 -75 65 -75q38 0 61.5 27t23.5 72v278h183zM197 573l-78 208h124l29 -208h-75zM345 573l-79 208h124l30 -208h-75z" />
    <glyph glyph-name="uni0216" unicode="&#x216;" horiz-adv-x="752" 
d="M141 69.5q-80 78.5 -80 230.5v412h183v-419q0 -77 34.5 -118t98.5 -41q63 0 97 41.5t34 117.5v419h185v-412q0 -150 -81.5 -229.5t-234.5 -79.5q-156 0 -236 78.5zM495 895q49 -29 67 -82l-77 -32q-30 41 -108 41q-79 0 -109 -41l-77 32q18 53 67 82t119 29q69 0 118 -29
z" />
    <glyph glyph-name="uni0217" unicode="&#x217;" horiz-adv-x="619" 
d="M565 508v-508h-177v68q-49 -76 -145 -76q-97 0 -144.5 54t-47.5 165v297h181v-302q0 -75 65 -75q38 0 61.5 27t23.5 72v278h183zM433 734q55 -40 71 -114l-77 -32q-47 77 -118 77q-72 0 -119 -77l-77 33q17 73 71.5 113t124.5 40q69 0 124 -40z" />
    <glyph glyph-name="Scommaaccent" unicode="&#x218;" horiz-adv-x="672" 
d="M164 12q-78 21 -127 57l59 133q52 -33 110.5 -50.5t117.5 -17.5q60 0 92 16.5t32 46.5q0 27 -29 44.5t-109 34.5q-101 20 -157 49.5t-78.5 69.5t-22.5 97q0 65 37 117.5t104 82t153 29.5q77 0 149.5 -21.5t113.5 -56.5l-58 -133q-47 33 -99 50.5t-104 17.5
q-51 0 -82 -19.5t-31 -52.5q0 -18 11 -30t41 -23.5t90 -24.5q97 -21 152.5 -50.5t78.5 -69t23 -94.5q0 -104 -81 -163.5t-228 -59.5q-80 0 -158 21zM417 -64v-67q0 -50 -14.5 -86t-49.5 -67l-62 42q27 24 33 50h-79v128h172z" />
    <glyph glyph-name="scommaaccent" unicode="&#x219;" horiz-adv-x="507" 
d="M19 53l46 123q41 -28 93 -43.5t102 -15.5q31 0 48 9t17 25q0 14 -12.5 22.5t-47.5 15.5l-82 19q-78 16 -112.5 50.5t-34.5 95.5q0 49 29 87t80.5 59.5t118.5 21.5q55 0 108 -16t99 -45l-48 -120q-40 26 -82 40t-79 14q-30 0 -47 -9.5t-17 -27.5q0 -11 10 -17.5t38 -13.5
l85 -19q81 -19 116.5 -55.5t35.5 -99.5q0 -75 -59.5 -118t-164.5 -43q-152 0 -240 61zM339 -64v-67q0 -50 -14.5 -86t-49.5 -67l-62 42q27 24 33 50h-79v128h172z" />
    <glyph glyph-name="uni021A" unicode="&#x21a;" horiz-adv-x="638" 
d="M224 0v560h-212v152h614v-152h-212v-560h-190zM404 -64v-67q0 -50 -14.5 -86t-49.5 -67l-62 42q27 24 33 50h-79v128h172z" />
    <glyph glyph-name="uni021B" unicode="&#x21b;" horiz-adv-x="416" 
d="M402 144v-137q-37 -15 -94 -15q-103 0 -156.5 58t-53.5 161v164h-95v133h95v115l181 58v-173h122v-133h-122v-164q0 -36 21.5 -54.5t53.5 -18.5q18 0 48 6zM346 -64v-67q0 -50 -14.5 -86t-49.5 -67l-62 42q27 24 33 50h-79v128h172z" />
    <glyph glyph-name="uni0227" unicode="&#x227;" horiz-adv-x="643" 
d="M589 508v-508h-178v69q-22 -36 -64 -56.5t-92 -20.5q-65 0 -116 32t-79.5 91.5t-28.5 137.5q0 79 29 140t80 95t115 34q50 0 91.5 -21.5t64.5 -57.5v65h178zM385 160q26 33 26 95q0 63 -26 96.5t-74 33.5q-47 0 -74 -34.5t-27 -97.5q0 -61 26 -93.5t75 -32.5q48 0 74 33z
M226 757h189v-163h-189v163z" />
    <glyph glyph-name="uni0228" unicode="&#x228;" horiz-adv-x="604" 
d="M247 568v-134h304v-144h-304v-146h325v-144h-201l-6 -40h8q41 0 64 -19t23 -51q0 -41 -37 -65.5t-107 -24.5q-22 0 -48.5 4.5t-48.5 12.5l11 65q54 -14 80 -14q43 0 43 22q0 17 -32 17q-12 0 -32 -5l-20 22l10 76h-215v712h508v-144h-325z" />
    <glyph glyph-name="uni022A" unicode="&#x22a;" horiz-adv-x="805" 
d="M213 35.5q-81 44.5 -124.5 127.5t-43.5 194t44 193t124.5 126.5t189.5 44.5t189.5 -44.5t123.5 -126.5t43 -193t-43 -194t-123.5 -127.5t-189.5 -44.5t-190 44.5zM528.5 191q45.5 57 45.5 166q0 108 -45.5 164.5t-125.5 56.5t-125 -56t-45 -165q0 -110 45 -166.5
t125 -56.5t125.5 57zM221 928h160v-151h-160v151zM422 928h160v-151h-160v151zM241 960v108h321v-108h-321z" />
    <glyph glyph-name="uni022B" unicode="&#x22b;" horiz-adv-x="618" 
d="M162 24q-63 32 -97 92t-34 141t34 141t97 92t148 32q84 0 146.5 -32.5t96.5 -92t34 -140.5t-34 -140.5t-96.5 -92t-146.5 -32.5q-85 0 -148 32zM408 257q0 66 -24.5 97.5t-73.5 31.5q-50 0 -75 -31.5t-25 -97.5q0 -67 25 -98.5t75 -31.5q98 0 98 130zM129 751h160v-152
h-160v152zM330 751h160v-152h-160v152zM149 812v108h321v-108h-321z" />
    <glyph glyph-name="uni022C" unicode="&#x22c;" horiz-adv-x="805" 
d="M213 35.5q-81 44.5 -124.5 127.5t-43.5 194t44 193t124.5 126.5t189.5 44.5t189.5 -44.5t123.5 -126.5t43 -193t-43 -194t-123.5 -127.5t-189.5 -44.5t-190 44.5zM528.5 191q45.5 57 45.5 166q0 108 -45.5 164.5t-125.5 56.5t-125 -56t-45 -165q0 -110 45 -166.5
t125 -56.5t125.5 57zM254 894.5q33 39.5 84 39.5q17 0 33 -6.5t40 -20.5q19 -11 32 -17t25 -6q17 0 28 12t14 35h72q0 -81 -33 -120.5t-84 -39.5q-17 0 -33 6.5t-40 20.5q-19 11 -32 17t-25 6q-17 0 -28 -12t-14 -35h-72q0 81 33 120.5zM241 960v108h321v-108h-321z" />
    <glyph glyph-name="uni022D" unicode="&#x22d;" horiz-adv-x="618" 
d="M162 24q-63 32 -97 92t-34 141t34 141t97 92t148 32q84 0 146.5 -32.5t96.5 -92t34 -140.5t-34 -140.5t-96.5 -92t-146.5 -32.5q-85 0 -148 32zM408 257q0 66 -24.5 97.5t-73.5 31.5q-50 0 -75 -31.5t-25 -97.5q0 -67 25 -98.5t75 -31.5q98 0 98 130zM162 719.5
q33 39.5 84 39.5q17 0 33 -6.5t40 -20.5q19 -11 32 -17t25 -6q17 0 28 12t14 35h72q0 -81 -33 -120.5t-84 -39.5q-17 0 -33 6.5t-40 20.5q-19 11 -32 17t-25 6q-17 0 -28 -12t-14 -35h-72q0 81 33 120.5zM149 812v108h321v-108h-321z" />
    <glyph glyph-name="uni0230" unicode="&#x230;" horiz-adv-x="805" 
d="M213 35.5q-81 44.5 -124.5 127.5t-43.5 194t44 193t124.5 126.5t189.5 44.5t189.5 -44.5t123.5 -126.5t43 -193t-43 -194t-123.5 -127.5t-189.5 -44.5t-190 44.5zM528.5 191q45.5 57 45.5 166q0 108 -45.5 164.5t-125.5 56.5t-125 -56t-45 -165q0 -110 45 -166.5
t125 -56.5t125.5 57zM307 934h189v-163h-189v163zM241 960v108h321v-108h-321z" />
    <glyph glyph-name="uni0231" unicode="&#x231;" horiz-adv-x="618" 
d="M162 24q-63 32 -97 92t-34 141t34 141t97 92t148 32q84 0 146.5 -32.5t96.5 -92t34 -140.5t-34 -140.5t-96.5 -92t-146.5 -32.5q-85 0 -148 32zM408 257q0 66 -24.5 97.5t-73.5 31.5q-50 0 -75 -31.5t-25 -97.5q0 -67 25 -98.5t75 -31.5q98 0 98 130zM215 757h189v-163
h-189v163zM149 812v108h321v-108h-321z" />
    <glyph glyph-name="uni0232" unicode="&#x232;" horiz-adv-x="657" 
d="M724 712l-301 -440v-272h-189v273l-299 439h212l180 -284l183 284h214zM167 798v108h321v-108h-321z" />
    <glyph glyph-name="uni0233" unicode="&#x233;" horiz-adv-x="559" 
d="M579 508l-233 -526q-46 -103 -115.5 -150.5t-171.5 -59.5l-42 138q70 14 105 36t53 61l13 28l-207 473h188l114 -293l118 293h178zM118 621v108h321v-108h-321z" />
    <glyph glyph-name="uni0237" unicode="&#x237;" horiz-adv-x="289" 
d="M-20 -79q32 0 53 18.5t21 56.5v512h181v-514q0 -103 -53.5 -161t-156.5 -58q-58 0 -94 14v139q29 -7 49 -7z" />
    <glyph glyph-name="uni0259" unicode="&#x259;" horiz-adv-x="553" 
d="M393.5 489q61.5 -33 95 -93t33.5 -140q0 -77 -31 -137t-87 -93.5t-127 -33.5q-114 0 -180 69t-66 190v27h320q-6 59 -32.5 84.5t-80.5 25.5q-67 0 -153 -47l-46 119q39 29 95.5 45.5t116.5 16.5q81 0 142.5 -33zM350 191h-162q12 -77 80 -77q67 0 82 77z" />
    <glyph glyph-name="uni02BB" unicode="&#x2bb;" horiz-adv-x="300" 
d="M237 719v-128h-172v67q0 50 14.5 87t49.5 67l62 -41q-27 -26 -33 -52h79z" />
    <glyph glyph-name="uni02BC" unicode="&#x2bc;" horiz-adv-x="300" 
d="M235 770v-68q0 -50 -14.5 -86.5t-49.5 -67.5l-62 43q25 23 33 50h-79v129h172z" />
    <glyph glyph-name="uni02BE" unicode="&#x2be;" horiz-adv-x="300" 
d="M232.5 746q33.5 -33 33.5 -79q0 -48 -33 -80t-81 -32v67q18 0 29.5 13t11.5 32q0 18 -11.5 30.5t-29.5 12.5v69q47 0 80.5 -33z" />
    <glyph glyph-name="uni02BF" unicode="&#x2bf;" horiz-adv-x="300" 
d="M152 710q-18 0 -30 -12.5t-12 -30.5q0 -19 12 -32t30 -13v-67q-48 0 -81.5 32t-33.5 80q0 47 33.5 79.5t81.5 32.5v-69z" />
    <glyph glyph-name="circumflex" unicode="&#x2c6;" horiz-adv-x="300" 
d="M99 562h-136l136 208h105l136 -208h-136l-52 106z" />
    <glyph glyph-name="caron" unicode="&#x2c7;" horiz-adv-x="300" 
d="M204 770h136l-136 -208h-105l-136 208h136l53 -107z" />
    <glyph glyph-name="uni02C8" unicode="&#x2c8;" horiz-adv-x="300" 
d="M97 562v209h109v-209h-109z" />
    <glyph glyph-name="uni02C9" unicode="&#x2c9;" horiz-adv-x="300" 
d="M-9 610v108h321v-108h-321z" />
    <glyph glyph-name="uni02CA" unicode="&#x2ca;" horiz-adv-x="300" 
d="M206 562h-109l98 208h172z" />
    <glyph glyph-name="uni02CB" unicode="&#x2cb;" horiz-adv-x="300" 
d="M97 562l-161 208h172l98 -208h-109z" />
    <glyph glyph-name="uni02CC" unicode="&#x2cc;" horiz-adv-x="300" 
d="M97 -273v208h109v-208h-109z" />
    <glyph glyph-name="breve" unicode="&#x2d8;" horiz-adv-x="300" 
d="M27 621.5q-55 39.5 -71 113.5l77 34q45 -77 119 -77q73 0 118 77l77 -34q-16 -74 -71 -113.5t-124 -39.5q-70 0 -125 39.5z" />
    <glyph glyph-name="dotaccent" unicode="&#x2d9;" horiz-adv-x="300" 
d="M57 746h189v-163h-189v163z" />
    <glyph glyph-name="ring" unicode="&#x2da;" horiz-adv-x="300" 
d="M70.5 587q-33.5 32 -33.5 80q0 47 33.5 79.5t81.5 32.5q47 0 80.5 -33t33.5 -79q0 -48 -33 -80t-81 -32t-81.5 32zM181.5 635q11.5 13 11.5 32q0 18 -11.5 30.5t-29.5 12.5t-30 -12.5t-12 -30.5q0 -19 12 -32t30 -13t29.5 13z" />
    <glyph glyph-name="ogonek" unicode="&#x2db;" horiz-adv-x="300" 
d="M13.5 -169.5q-37.5 30.5 -37.5 81.5q0 52 40 89t117 46l19 -37q-33 -10 -49 -27t-16 -44q0 -50 57 -50q26 0 54 11l17 -81q-47 -19 -107 -19q-57 0 -94.5 30.5z" />
    <glyph glyph-name="tilde" unicode="&#x2dc;" horiz-adv-x="300" 
d="M4 708.5q33 39.5 84 39.5q17 0 33 -6.5t40 -20.5q19 -11 32 -17t25 -6q17 0 28 12t14 35h72q0 -81 -33 -120.5t-84 -39.5q-17 0 -33 6.5t-40 20.5q-19 11 -32 17t-25 6q-17 0 -28 -12t-14 -35h-72q0 81 33 120.5z" />
    <glyph glyph-name="hungarumlaut" unicode="&#x2dd;" horiz-adv-x="300" 
d="M115 562h-75l30 208h124zM263 562h-75l29 208h124z" />
    <glyph glyph-name="gravecomb" unicode="&#x300;" 
d="M-203 562l-161 208h172l98 -208h-109z" />
    <glyph glyph-name="acutecomb" unicode="&#x301;" 
d="M-94 562h-109l98 208h172z" />
    <glyph glyph-name="uni0302" unicode="&#x302;" 
d="M-201 562h-136l136 208h105l136 -208h-136l-52 106z" />
    <glyph glyph-name="tildecomb" unicode="&#x303;" 
d="M-296 708.5q33 39.5 84 39.5q17 0 33 -6.5t40 -20.5q19 -11 32 -17t25 -6q17 0 28 12t14 35h72q0 -81 -33 -120.5t-84 -39.5q-17 0 -33 6.5t-40 20.5q-19 11 -32 17t-25 6q-17 0 -28 -12t-14 -35h-72q0 81 33 120.5z" />
    <glyph glyph-name="uni0304" unicode="&#x304;" 
d="M-309 610v108h321v-108h-321z" />
    <glyph glyph-name="uni0306" unicode="&#x306;" 
d="M-273 621.5q-55 39.5 -71 113.5l77 34q45 -77 119 -77q73 0 118 77l77 -34q-16 -74 -71 -113.5t-124 -39.5q-70 0 -125 39.5z" />
    <glyph glyph-name="uni0307" unicode="&#x307;" 
d="M-243 746h189v-163h-189v163z" />
    <glyph glyph-name="uni0308" unicode="&#x308;" 
d="M-329 740h160v-152h-160v152zM-128 740h160v-152h-160v152z" />
    <glyph glyph-name="hookabovecomb" unicode="&#x309;" 
d="M-104 562h-86v24q0 21 9 33.5t27 28.5q11 9 16 15t5 13q0 11 -7.5 16.5t-23.5 5.5q-24 0 -46 -8l-23 62q43 20 89 20q58 0 90.5 -23t32.5 -55q0 -24 -13 -39t-37 -32q-17 -11 -25 -19.5t-8 -18.5v-23z" />
    <glyph glyph-name="uni030A" unicode="&#x30a;" 
d="M-229.5 587q-33.5 32 -33.5 80q0 47 33.5 79.5t81.5 32.5q47 0 80.5 -33t33.5 -79q0 -48 -33 -80t-81 -32t-81.5 32zM-118.5 635q11.5 13 11.5 32q0 18 -11.5 30.5t-29.5 12.5t-30 -12.5t-12 -30.5q0 -19 12 -32t30 -13t29.5 13z" />
    <glyph glyph-name="uni030B" unicode="&#x30b;" 
d="M-185 562h-75l30 208h124zM-37 562h-75l29 208h124z" />
    <glyph glyph-name="uni030C" unicode="&#x30c;" 
d="M-96 770h136l-136 -208h-105l-136 208h136l53 -107z" />
    <glyph glyph-name="uni030F" unicode="&#x30f;" 
d="M-260 562l-78 208h124l29 -208h-75zM-112 562l-79 208h124l30 -208h-75z" />
    <glyph glyph-name="uni0311" unicode="&#x311;" 
d="M-24 723q55 -40 71 -114l-77 -32q-47 77 -118 77q-72 0 -119 -77l-77 33q17 73 71.5 113t124.5 40q69 0 124 -40z" />
    <glyph glyph-name="uni0312" unicode="&#x312;" 
d="M-63 719v-128h-172v67q0 50 14.5 87t49.5 67l62 -41q-27 -26 -33 -52h79z" />
    <glyph glyph-name="uni031B" unicode="&#x31b;" 
d="M-148 486v15q30 0 47.5 7.5t27 29t9.5 62.5v22h156v-43q0 -62 -37 -107t-95 -53z" />
    <glyph glyph-name="dotbelowcomb" unicode="&#x323;" 
d="M-228 -57h159v-151h-159v151z" />
    <glyph glyph-name="uni0324" unicode="&#x324;" 
d="M-329 -56h160v-152h-160v152zM-128 -56h160v-152h-160v152z" />
    <glyph glyph-name="uni0326" unicode="&#x326;" 
d="M-63 -64v-67q0 -50 -14.5 -86t-49.5 -67l-62 42q27 24 33 50h-79v128h172z" />
    <glyph glyph-name="uni0327" unicode="&#x327;" 
d="M-48 -59q23 -19 23 -51q0 -41 -37 -65.5t-107 -24.5q-22 0 -48.5 4.5t-48.5 12.5l11 65q54 -14 80 -14q43 0 43 22q0 17 -32 17q-12 0 -32 -5l-20 22l13 96h92l-9 -60h8q41 0 64 -19z" />
    <glyph glyph-name="uni0328" unicode="&#x328;" 
d="M-286.5 -169.5q-37.5 30.5 -37.5 81.5q0 52 40 89t117 46l19 -37q-33 -10 -49 -27t-16 -44q0 -50 57 -50q26 0 54 11l17 -81q-47 -19 -107 -19q-57 0 -94.5 30.5z" />
    <glyph glyph-name="uni032E" unicode="&#x32e;" 
d="M-273 -195.5q-55 39.5 -71 113.5l77 32q46 -75 119 -75q72 0 118 75l77 -32q-16 -74 -71 -113.5t-124 -39.5q-70 0 -125 39.5z" />
    <glyph glyph-name="uni0331" unicode="&#x331;" 
d="M-309 -183v101h321v-101h-321z" />
    <glyph glyph-name="uni0335" unicode="&#x335;" 
d="M-309 203v97h321v-97h-321z" />
    <glyph glyph-name="uni0394" unicode="&#x394;" horiz-adv-x="769" 
d="M457 712l282 -579v-133h-708v133l282 579h144zM387 516l-164 -363h327z" />
    <glyph glyph-name="Sigma" unicode="&#x3a3;" horiz-adv-x="621" 
d="M573 712v-149h-314l178 -241l-1 -113l-178 -242h315v-149h-527v135l228 312l-228 312v135h527z" />
    <glyph glyph-name="uni03A9" unicode="&#x3a9;" horiz-adv-x="833" 
d="M754 277.5q-36 -67.5 -106 -128.5h125v-149h-305v145q73 64 104 125.5t31 138.5q0 80 -49 124.5t-137 44.5t-137.5 -45t-49.5 -124q0 -77 32 -138.5t105 -125.5v-145h-306v149h124q-70 61 -106 128.5t-36 137.5q0 91 47 161t131.5 108t195.5 38t195.5 -38t131 -108
t46.5 -161q0 -70 -36 -137.5z" />
    <glyph glyph-name="uni03BC" unicode="&#x3bc;" horiz-adv-x="619" 
d="M565 508v-508h-177v68q-49 -76 -145 -76h-11v-208h-181v724h181v-302q0 -75 65 -75q38 0 61.5 27t23.5 72v278h183z" />
    <glyph glyph-name="pi" unicode="&#x3c0;" horiz-adv-x="651" 
d="M643 119l-12 -129l-52 3q-92 6 -145 29.5t-76.5 72t-23.5 130.5v150h-47q-3 -94 -17.5 -182t-50.5 -193l-185 -1q33 119 50 204.5t22 171.5h-102v133h611v-133h-100v-182q0 -36 16 -51t56 -18z" />
    <glyph glyph-name="uni1E08" unicode="&#x1e08;" horiz-adv-x="685" 
d="M613 931l-157 -158h-109l104 158h162zM558 16.5q-58 -20.5 -122 -24.5l-5 -32h8q41 0 64 -19t23 -51q0 -41 -37 -65.5t-107 -24.5q-22 0 -48.5 4.5t-48.5 12.5l11 65q54 -14 80 -14q43 0 43 22q0 17 -32 17q-12 0 -32 -5l-20 22l10 71q-93 13 -160.5 61.5t-103.5 125.5
t-36 175q0 108 44.5 190.5t127 128t193.5 45.5q70 0 135.5 -21t105.5 -57l-57 -133q-87 63 -180 63q-86 0 -132 -54.5t-46 -161.5q0 -108 46 -163t132 -55q93 0 180 63l57 -133q-35 -32 -93 -52.5z" />
    <glyph glyph-name="uni1E09" unicode="&#x1e09;" horiz-adv-x="515" 
d="M524 781l-161 -208h-109l98 208h172zM246 352q-30 -32 -30 -95q0 -64 30 -96.5t87 -32.5q33 0 68.5 13t62.5 35l46 -123q-29 -26 -76.5 -41.5t-101.5 -18.5l-5 -33h8q41 0 64 -19t23 -51q0 -41 -37 -65.5t-107 -24.5q-22 0 -48.5 4.5t-48.5 12.5l11 65q54 -14 80 -14
q43 0 43 22q0 17 -32 17q-12 0 -32 -5l-20 22l10 73q-100 17 -155 84t-55 172q0 80 35.5 141t99.5 94.5t148 33.5q56 0 110 -16.5t86 -44.5l-46 -125q-27 22 -63 35t-69 13q-56 0 -86 -32z" />
    <glyph glyph-name="uni1E0C" unicode="&#x1e0c;" horiz-adv-x="781" 
d="M64 712h291q118 0 203.5 -42.5t131 -122.5t45.5 -190q0 -111 -45 -191.5t-130.5 -123t-204.5 -42.5h-291v712zM342 150q104 0 155.5 51.5t51.5 155.5q0 205 -207 205h-90v-412h90zM310 -57h159v-151h-159v151z" />
    <glyph glyph-name="uni1E0D" unicode="&#x1e0d;" horiz-adv-x="643" 
d="M589 736v-736h-178v69q-22 -36 -64 -56.5t-92 -20.5q-65 0 -116 33.5t-79.5 94t-28.5 139.5q0 78 28.5 138t79.5 92.5t116 32.5q48 0 88.5 -20t64.5 -54v288h181zM385 160.5q26 33.5 26 96.5q0 61 -26.5 94.5t-73.5 33.5q-49 0 -75 -32.5t-26 -93.5q0 -63 26.5 -97.5
t74.5 -34.5t74 33.5zM242 -57h159v-151h-159v151z" />
    <glyph glyph-name="uni1E0E" unicode="&#x1e0e;" horiz-adv-x="781" 
d="M64 712h291q118 0 203.5 -42.5t131 -122.5t45.5 -190q0 -111 -45 -191.5t-130.5 -123t-204.5 -42.5h-291v712zM342 150q104 0 155.5 51.5t51.5 155.5q0 205 -207 205h-90v-412h90zM229 -183v101h321v-101h-321z" />
    <glyph glyph-name="uni1E0F" unicode="&#x1e0f;" horiz-adv-x="643" 
d="M589 736v-736h-178v69q-22 -36 -64 -56.5t-92 -20.5q-65 0 -116 33.5t-79.5 94t-28.5 139.5q0 78 28.5 138t79.5 92.5t116 32.5q48 0 88.5 -20t64.5 -54v288h181zM385 160.5q26 33.5 26 96.5q0 61 -26.5 94.5t-73.5 33.5q-49 0 -75 -32.5t-26 -93.5q0 -63 26.5 -97.5
t74.5 -34.5t74 33.5zM161 -183v101h321v-101h-321z" />
    <glyph glyph-name="uni1E14" unicode="&#x1e14;" horiz-adv-x="604" 
d="M64 0v712h508v-144h-325v-134h304v-144h-304v-146h325v-144h-508zM175 798v108h321v-108h-321zM281 935l-157 158h162l104 -158h-109z" />
    <glyph glyph-name="uni1E15" unicode="&#x1e15;" horiz-adv-x="553" 
d="M523 236h-319q5 -59 34 -85t85 -26q38 0 76 12.5t69 34.5l46 -120q-38 -28 -92 -44t-108 -16q-87 0 -151 32t-98 91.5t-34 140.5q0 77 32.5 137.5t90 94.5t131.5 34q72 0 126 -32t83 -91.5t29 -138.5v-24zM206 320h162q-10 78 -78 78q-67 0 -84 -78zM124 621v108h321
v-108h-321zM230 764l-161 208h172l98 -208h-109z" />
    <glyph glyph-name="uni1E16" unicode="&#x1e16;" horiz-adv-x="604" 
d="M64 0v712h508v-144h-325v-134h304v-144h-304v-146h325v-144h-508zM175 798v108h321v-108h-321zM390 935h-109l104 158h162z" />
    <glyph glyph-name="uni1E17" unicode="&#x1e17;" horiz-adv-x="553" 
d="M523 236h-319q5 -59 34 -85t85 -26q38 0 76 12.5t69 34.5l46 -120q-38 -28 -92 -44t-108 -16q-87 0 -151 32t-98 91.5t-34 140.5q0 77 32.5 137.5t90 94.5t131.5 34q72 0 126 -32t83 -91.5t29 -138.5v-24zM206 320h162q-10 78 -78 78q-67 0 -84 -78zM124 621v108h321
v-108h-321zM339 764h-109l98 208h172z" />
    <glyph glyph-name="uni1E1C" unicode="&#x1e1c;" horiz-adv-x="604" 
d="M217 810q-49 29 -67 82l77 33q30 -41 109 -41q78 0 108 41l77 -33q-18 -53 -67 -82t-118 -29q-70 0 -119 29zM247 568v-134h304v-144h-304v-146h325v-144h-201l-6 -40h8q41 0 64 -19t23 -51q0 -41 -37 -65.5t-107 -24.5q-22 0 -48.5 4.5t-48.5 12.5l11 65q54 -14 80 -14
q43 0 43 22q0 17 -32 17q-12 0 -32 -5l-20 22l10 76h-215v712h508v-144h-325z" />
    <glyph glyph-name="uni1E1D" unicode="&#x1e1d;" horiz-adv-x="553" 
d="M160 632.5q-55 39.5 -71 113.5l77 34q45 -77 119 -77q73 0 118 77l77 -34q-16 -74 -71 -113.5t-124 -39.5q-70 0 -125 39.5zM523 236h-319q5 -59 34 -85t85 -26q38 0 76 12.5t69 34.5l46 -120q-32 -24 -77.5 -39.5t-92.5 -19.5l-5 -33h8q41 0 64 -19t23 -51
q0 -41 -37 -65.5t-107 -24.5q-22 0 -48.5 4.5t-48.5 12.5l11 65q54 -14 80 -14q43 0 43 22q0 17 -32 17q-12 0 -32 -5l-20 22l10 72q-104 17 -163 85.5t-59 174.5q0 77 32.5 137.5t90 94.5t131.5 34q72 0 126 -32t83 -91.5t29 -138.5v-24zM206 320h162q-10 78 -78 78
q-67 0 -84 -78z" />
    <glyph glyph-name="uni1E20" unicode="&#x1e20;" horiz-adv-x="751" 
d="M696 402v-357q-57 -26 -127.5 -40t-144.5 -14q-116 0 -201.5 44t-131.5 126.5t-46 195.5q0 110 46 192.5t130 127t196 44.5q77 0 145.5 -20t111.5 -55l-59 -133q-49 32 -94.5 46.5t-97.5 14.5q-95 0 -141.5 -53.5t-46.5 -163.5q0 -114 48.5 -169t149.5 -55q47 0 94 10
v132h-124v127h293zM256 798v108h321v-108h-321z" />
    <glyph glyph-name="uni1E21" unicode="&#x1e21;" horiz-adv-x="647" 
d="M595 508v-476q0 -125 -75 -190.5t-220 -65.5q-124 0 -215 44l27 132q45 -20 92.5 -31.5t89.5 -11.5q62 0 91.5 26.5t29.5 82.5v75q-25 -33 -67.5 -56t-90.5 -23q-65 0 -116.5 31.5t-80.5 89t-29 133.5q0 75 29 132.5t80.5 89.5t116.5 32q51 0 93 -21t65 -57v64h180z
M388 180.5q27 31.5 27 87.5q0 54 -27 85.5t-75 31.5t-75.5 -31t-27.5 -86t28 -87t75 -32q48 0 75 31.5zM163 621v108h321v-108h-321z" />
    <glyph glyph-name="uni1E24" unicode="&#x1e24;" horiz-adv-x="784" 
d="M536 712h184v-712h-184v288h-288v-288h-184v712h184v-277h288v277zM312 -57h159v-151h-159v151z" />
    <glyph glyph-name="uni1E25" unicode="&#x1e25;" horiz-adv-x="624" 
d="M528.5 467.5q44.5 -54.5 44.5 -164.5v-303h-181v295q0 47 -16 67.5t-50 20.5q-41 0 -66 -27.5t-25 -72.5v-283h-181v736h181v-290q59 76 159 76q90 0 134.5 -54.5zM234 -57h159v-151h-159v151z" />
    <glyph glyph-name="uni1E2A" unicode="&#x1e2a;" horiz-adv-x="784" 
d="M536 712h184v-712h-184v288h-288v-288h-184v712h184v-277h288v277zM267 -195.5q-55 39.5 -71 113.5l77 32q46 -75 119 -75q72 0 118 75l77 -32q-16 -74 -71 -113.5t-124 -39.5q-70 0 -125 39.5z" />
    <glyph glyph-name="uni1E2B" unicode="&#x1e2b;" horiz-adv-x="624" 
d="M528.5 467.5q44.5 -54.5 44.5 -164.5v-303h-181v295q0 47 -16 67.5t-50 20.5q-41 0 -66 -27.5t-25 -72.5v-283h-181v736h181v-290q59 76 159 76q90 0 134.5 -54.5zM189 -195.5q-55 39.5 -71 113.5l77 32q46 -75 119 -75q72 0 118 75l77 -32q-16 -74 -71 -113.5
t-124 -39.5q-70 0 -125 39.5z" />
    <glyph glyph-name="uni1E2E" unicode="&#x1e2e;" horiz-adv-x="316" 
d="M64 0v712h188v-712h-188zM-24 928h160v-151h-160v151zM177 928h160v-151h-160v151zM211 935h-109l104 158h162z" />
    <glyph glyph-name="uni1E2F" unicode="&#x1e2f;" horiz-adv-x="289" 
d="M54 0v508h181v-508h-181zM-37 751h160v-152h-160v152zM164 751h160v-152h-160v152zM198 764h-109l98 208h172z" />
    <glyph glyph-name="uni1E36" unicode="&#x1e36;" horiz-adv-x="579" 
d="M64 0v712h188v-560h301v-152h-489zM237 -57h159v-151h-159v151z" />
    <glyph glyph-name="uni1E37" unicode="&#x1e37;" horiz-adv-x="289" 
d="M54 0v736h181v-736h-181zM64 -57h159v-151h-159v151z" />
    <glyph glyph-name="uni1E3A" unicode="&#x1e3a;" horiz-adv-x="579" 
d="M64 0v712h188v-560h301v-152h-489zM156 -183v101h321v-101h-321z" />
    <glyph glyph-name="uni1E3B" unicode="&#x1e3b;" horiz-adv-x="289" 
d="M54 0v736h181v-736h-181zM-17 -183v101h321v-101h-321z" />
    <glyph glyph-name="uni1E42" unicode="&#x1e42;" horiz-adv-x="852" 
d="M639 712h146v-712h-164l-1 326l-135 -326h-119l-136 322v-322h-163v712h147l213 -486zM345 -57h159v-151h-159v151z" />
    <glyph glyph-name="uni1E43" unicode="&#x1e43;" horiz-adv-x="925" 
d="M831.5 468q42.5 -54 42.5 -165v-303h-181v298q0 45 -13.5 65t-45.5 20q-38 0 -59 -28t-21 -79v-276h-181v298q0 45 -14 65t-45 20q-38 0 -58.5 -28t-20.5 -79v-276h-181v362q0 82 -8 146h170l9 -71q23 41 64.5 63t95.5 22q109 0 148 -92q27 42 71.5 67t96.5 25
q88 0 130.5 -54zM385 -57h159v-151h-159v151z" />
    <glyph glyph-name="uni1E44" unicode="&#x1e44;" horiz-adv-x="766" 
d="M524 712h177v-712h-139l-323 404v-404h-175v712h137l323 -402v402zM287 934h189v-163h-189v163z" />
    <glyph glyph-name="uni1E45" unicode="&#x1e45;" horiz-adv-x="624" 
d="M528.5 467.5q44.5 -54.5 44.5 -164.5v-303h-181v295q0 47 -16 67.5t-50 20.5q-41 0 -66 -27.5t-25 -72.5v-283h-181v362q0 82 -8 146h170l9 -75q29 43 72 66t97 23q90 0 134.5 -54.5zM219 757h189v-163h-189v163z" />
    <glyph glyph-name="uni1E46" unicode="&#x1e46;" horiz-adv-x="766" 
d="M524 712h177v-712h-139l-323 404v-404h-175v712h137l323 -402v402zM303 -57h159v-151h-159v151z" />
    <glyph glyph-name="uni1E47" unicode="&#x1e47;" horiz-adv-x="624" 
d="M528.5 467.5q44.5 -54.5 44.5 -164.5v-303h-181v295q0 47 -16 67.5t-50 20.5q-41 0 -66 -27.5t-25 -72.5v-283h-181v362q0 82 -8 146h170l9 -75q29 43 72 66t97 23q90 0 134.5 -54.5zM234 -57h159v-151h-159v151z" />
    <glyph glyph-name="uni1E48" unicode="&#x1e48;" horiz-adv-x="766" 
d="M524 712h177v-712h-139l-323 404v-404h-175v712h137l323 -402v402zM222 -183v101h321v-101h-321z" />
    <glyph glyph-name="uni1E49" unicode="&#x1e49;" horiz-adv-x="624" 
d="M528.5 467.5q44.5 -54.5 44.5 -164.5v-303h-181v295q0 47 -16 67.5t-50 20.5q-41 0 -66 -27.5t-25 -72.5v-283h-181v362q0 82 -8 146h170l9 -75q29 43 72 66t97 23q90 0 134.5 -54.5zM153 -183v101h321v-101h-321z" />
    <glyph glyph-name="uni1E4C" unicode="&#x1e4c;" horiz-adv-x="805" 
d="M213 35.5q-81 44.5 -124.5 127.5t-43.5 194t44 193t124.5 126.5t189.5 44.5t189.5 -44.5t123.5 -126.5t43 -193t-43 -194t-123.5 -127.5t-189.5 -44.5t-190 44.5zM528.5 191q45.5 57 45.5 166q0 108 -45.5 164.5t-125.5 56.5t-125 -56t-45 -165q0 -110 45 -166.5
t125 -56.5t125.5 57zM254 894.5q33 39.5 84 39.5q17 0 33 -6.5t40 -20.5q19 -11 32 -17t25 -6q17 0 28 12t14 35h72q0 -81 -33 -120.5t-84 -39.5q-17 0 -33 6.5t-40 20.5q-19 11 -32 17t-25 6q-17 0 -28 -12t-14 -35h-72q0 81 33 120.5zM456 935h-109l104 158h162z" />
    <glyph glyph-name="uni1E4D" unicode="&#x1e4d;" horiz-adv-x="618" 
d="M162 24q-63 32 -97 92t-34 141t34 141t97 92t148 32q84 0 146.5 -32.5t96.5 -92t34 -140.5t-34 -140.5t-96.5 -92t-146.5 -32.5q-85 0 -148 32zM408 257q0 66 -24.5 97.5t-73.5 31.5q-50 0 -75 -31.5t-25 -97.5q0 -67 25 -98.5t75 -31.5q98 0 98 130zM162 719.5
q33 39.5 84 39.5q17 0 33 -6.5t40 -20.5q19 -11 32 -17t25 -6q17 0 28 12t14 35h72q0 -81 -33 -120.5t-84 -39.5q-17 0 -33 6.5t-40 20.5q-19 11 -32 17t-25 6q-17 0 -28 -12t-14 -35h-72q0 81 33 120.5zM364 764h-109l98 208h172z" />
    <glyph glyph-name="uni1E4E" unicode="&#x1e4e;" horiz-adv-x="805" 
d="M213 35.5q-81 44.5 -124.5 127.5t-43.5 194t44 193t124.5 126.5t189.5 44.5t189.5 -44.5t123.5 -126.5t43 -193t-43 -194t-123.5 -127.5t-189.5 -44.5t-190 44.5zM528.5 191q45.5 57 45.5 166q0 108 -45.5 164.5t-125.5 56.5t-125 -56t-45 -165q0 -110 45 -166.5
t125 -56.5t125.5 57zM254 894.5q33 39.5 84 39.5q17 0 33 -6.5t40 -20.5q19 -11 32 -17t25 -6q17 0 28 12t14 35h72q0 -81 -33 -120.5t-84 -39.5q-17 0 -33 6.5t-40 20.5q-19 11 -32 17t-25 6q-17 0 -28 -12t-14 -35h-72q0 81 33 120.5zM221 1090h160v-151h-160v151z
M422 1090h160v-151h-160v151z" />
    <glyph glyph-name="uni1E4F" unicode="&#x1e4f;" horiz-adv-x="618" 
d="M162 24q-63 32 -97 92t-34 141t34 141t97 92t148 32q84 0 146.5 -32.5t96.5 -92t34 -140.5t-34 -140.5t-96.5 -92t-146.5 -32.5q-85 0 -148 32zM408 257q0 66 -24.5 97.5t-73.5 31.5q-50 0 -75 -31.5t-25 -97.5q0 -67 25 -98.5t75 -31.5q98 0 98 130zM162 719.5
q33 39.5 84 39.5q17 0 33 -6.5t40 -20.5q19 -11 32 -17t25 -6q17 0 28 12t14 35h72q0 -81 -33 -120.5t-84 -39.5q-17 0 -33 6.5t-40 20.5q-19 11 -32 17t-25 6q-17 0 -28 -12t-14 -35h-72q0 81 33 120.5zM129 942h160v-152h-160v152zM330 942h160v-152h-160v152z" />
    <glyph glyph-name="uni1E50" unicode="&#x1e50;" horiz-adv-x="805" 
d="M213 35.5q-81 44.5 -124.5 127.5t-43.5 194t44 193t124.5 126.5t189.5 44.5t189.5 -44.5t123.5 -126.5t43 -193t-43 -194t-123.5 -127.5t-189.5 -44.5t-190 44.5zM528.5 191q45.5 57 45.5 166q0 108 -45.5 164.5t-125.5 56.5t-125 -56t-45 -165q0 -110 45 -166.5
t125 -56.5t125.5 57zM241 798v108h321v-108h-321zM347 935l-157 158h162l104 -158h-109z" />
    <glyph glyph-name="uni1E51" unicode="&#x1e51;" horiz-adv-x="618" 
d="M162 24q-63 32 -97 92t-34 141t34 141t97 92t148 32q84 0 146.5 -32.5t96.5 -92t34 -140.5t-34 -140.5t-96.5 -92t-146.5 -32.5q-85 0 -148 32zM408 257q0 66 -24.5 97.5t-73.5 31.5q-50 0 -75 -31.5t-25 -97.5q0 -67 25 -98.5t75 -31.5q98 0 98 130zM149 621v108h321
v-108h-321zM255 764l-161 208h172l98 -208h-109z" />
    <glyph glyph-name="uni1E52" unicode="&#x1e52;" horiz-adv-x="805" 
d="M213 35.5q-81 44.5 -124.5 127.5t-43.5 194t44 193t124.5 126.5t189.5 44.5t189.5 -44.5t123.5 -126.5t43 -193t-43 -194t-123.5 -127.5t-189.5 -44.5t-190 44.5zM528.5 191q45.5 57 45.5 166q0 108 -45.5 164.5t-125.5 56.5t-125 -56t-45 -165q0 -110 45 -166.5
t125 -56.5t125.5 57zM241 798v108h321v-108h-321zM456 935h-109l104 158h162z" />
    <glyph glyph-name="uni1E53" unicode="&#x1e53;" horiz-adv-x="618" 
d="M162 24q-63 32 -97 92t-34 141t34 141t97 92t148 32q84 0 146.5 -32.5t96.5 -92t34 -140.5t-34 -140.5t-96.5 -92t-146.5 -32.5q-85 0 -148 32zM408 257q0 66 -24.5 97.5t-73.5 31.5q-50 0 -75 -31.5t-25 -97.5q0 -67 25 -98.5t75 -31.5q98 0 98 130zM149 621v108h321
v-108h-321zM364 764h-109l98 208h172z" />
    <glyph glyph-name="uni1E5A" unicode="&#x1e5a;" horiz-adv-x="714" 
d="M683 0h-199l-92 237q-16 40 -75 40h-68v-277h-185v712h331q129 0 194 -55.5t65 -158.5q0 -72 -38.5 -124.5t-108.5 -74.5q30 -6 54 -28t38 -59zM452 435.5q27 18.5 27 57.5q0 41 -26.5 59t-87.5 18h-118v-153h118q60 0 87 18.5zM282 -57h159v-151h-159v151z" />
    <glyph glyph-name="uni1E5B" unicode="&#x1e5b;" horiz-adv-x="430" 
d="M432 509v-165q-43 20 -83 20q-114 0 -114 -109v-255h-181v362q0 82 -8 146h170l11 -85q18 47 58 72t90 25q37 0 57 -11zM64 -57h159v-151h-159v151z" />
    <glyph glyph-name="uni1E5E" unicode="&#x1e5e;" horiz-adv-x="714" 
d="M683 0h-199l-92 237q-16 40 -75 40h-68v-277h-185v712h331q129 0 194 -55.5t65 -158.5q0 -72 -38.5 -124.5t-108.5 -74.5q30 -6 54 -28t38 -59zM452 435.5q27 18.5 27 57.5q0 41 -26.5 59t-87.5 18h-118v-153h118q60 0 87 18.5zM201 -183v101h321v-101h-321z" />
    <glyph glyph-name="uni1E5F" unicode="&#x1e5f;" horiz-adv-x="430" 
d="M432 509v-165q-43 20 -83 20q-114 0 -114 -109v-255h-181v362q0 82 -8 146h170l11 -85q18 47 58 72t90 25q37 0 57 -11zM-17 -183v101h321v-101h-321z" />
    <glyph glyph-name="uni1E60" unicode="&#x1e60;" horiz-adv-x="672" 
d="M164 12q-78 21 -127 57l59 133q52 -33 110.5 -50.5t117.5 -17.5q60 0 92 16.5t32 46.5q0 27 -29 44.5t-109 34.5q-101 20 -157 49.5t-78.5 69.5t-22.5 97q0 65 37 117.5t104 82t153 29.5q77 0 149.5 -21.5t113.5 -56.5l-58 -133q-47 33 -99 50.5t-104 17.5
q-51 0 -82 -19.5t-31 -52.5q0 -18 11 -30t41 -23.5t90 -24.5q97 -21 152.5 -50.5t78.5 -69t23 -94.5q0 -104 -81 -163.5t-228 -59.5q-80 0 -158 21zM245 934h189v-163h-189v163z" />
    <glyph glyph-name="uni1E61" unicode="&#x1e61;" horiz-adv-x="507" 
d="M19 53l46 123q41 -28 93 -43.5t102 -15.5q31 0 48 9t17 25q0 14 -12.5 22.5t-47.5 15.5l-82 19q-78 16 -112.5 50.5t-34.5 95.5q0 49 29 87t80.5 59.5t118.5 21.5q55 0 108 -16t99 -45l-48 -120q-40 26 -82 40t-79 14q-30 0 -47 -9.5t-17 -27.5q0 -11 10 -17.5t38 -13.5
l85 -19q81 -19 116.5 -55.5t35.5 -99.5q0 -75 -59.5 -118t-164.5 -43q-152 0 -240 61zM167 757h189v-163h-189v163z" />
    <glyph glyph-name="uni1E62" unicode="&#x1e62;" horiz-adv-x="672" 
d="M164 12q-78 21 -127 57l59 133q52 -33 110.5 -50.5t117.5 -17.5q60 0 92 16.5t32 46.5q0 27 -29 44.5t-109 34.5q-101 20 -157 49.5t-78.5 69.5t-22.5 97q0 65 37 117.5t104 82t153 29.5q77 0 149.5 -21.5t113.5 -56.5l-58 -133q-47 33 -99 50.5t-104 17.5
q-51 0 -82 -19.5t-31 -52.5q0 -18 11 -30t41 -23.5t90 -24.5q97 -21 152.5 -50.5t78.5 -69t23 -94.5q0 -104 -81 -163.5t-228 -59.5q-80 0 -158 21zM252 -57h159v-151h-159v151z" />
    <glyph glyph-name="uni1E63" unicode="&#x1e63;" horiz-adv-x="507" 
d="M19 53l46 123q41 -28 93 -43.5t102 -15.5q31 0 48 9t17 25q0 14 -12.5 22.5t-47.5 15.5l-82 19q-78 16 -112.5 50.5t-34.5 95.5q0 49 29 87t80.5 59.5t118.5 21.5q55 0 108 -16t99 -45l-48 -120q-40 26 -82 40t-79 14q-30 0 -47 -9.5t-17 -27.5q0 -11 10 -17.5t38 -13.5
l85 -19q81 -19 116.5 -55.5t35.5 -99.5q0 -75 -59.5 -118t-164.5 -43q-152 0 -240 61zM174 -57h159v-151h-159v151z" />
    <glyph glyph-name="uni1E64" unicode="&#x1e64;" horiz-adv-x="672" 
d="M164 12q-78 21 -127 57l59 133q52 -33 110.5 -50.5t117.5 -17.5q60 0 92 16.5t32 46.5q0 27 -29 44.5t-109 34.5q-101 20 -157 49.5t-78.5 69.5t-22.5 97q0 65 37 117.5t104 82t153 29.5q77 0 149.5 -21.5t113.5 -56.5l-58 -133q-47 33 -99 50.5t-104 17.5
q-51 0 -82 -19.5t-31 -52.5q0 -18 11 -30t41 -23.5t90 -24.5q97 -21 152.5 -50.5t78.5 -69t23 -94.5q0 -104 -81 -163.5t-228 -59.5q-80 0 -158 21zM428 773h-109l104 158h162zM118 930h189v-163h-189v163z" />
    <glyph glyph-name="uni1E65" unicode="&#x1e65;" horiz-adv-x="507" 
d="M19 53l46 123q41 -28 93 -43.5t102 -15.5q31 0 48 9t17 25q0 14 -12.5 22.5t-47.5 15.5l-82 19q-78 16 -112.5 50.5t-34.5 95.5q0 49 29 87t80.5 59.5t118.5 21.5q55 0 108 -16t99 -45l-48 -120q-40 26 -82 40t-79 14q-30 0 -47 -9.5t-17 -27.5q0 -11 10 -17.5t38 -13.5
l85 -19q81 -19 116.5 -55.5t35.5 -99.5q0 -75 -59.5 -118t-164.5 -43q-152 0 -240 61zM335 559h-109l98 208h172zM57 769h189v-163h-189v163z" />
    <glyph glyph-name="uni1E66" unicode="&#x1e66;" horiz-adv-x="672" 
d="M164 12q-78 21 -127 57l59 133q52 -33 110.5 -50.5t117.5 -17.5q60 0 92 16.5t32 46.5q0 27 -29 44.5t-109 34.5q-101 20 -157 49.5t-78.5 69.5t-22.5 97q0 65 37 117.5t104 82t153 29.5q77 0 149.5 -21.5t113.5 -56.5l-58 -133q-47 33 -99 50.5t-104 17.5
q-51 0 -82 -19.5t-31 -52.5q0 -18 11 -30t41 -23.5t90 -24.5q97 -21 152.5 -50.5t78.5 -69t23 -94.5q0 -104 -81 -163.5t-228 -59.5q-80 0 -158 21zM397 931h131l-139 -158h-99l-139 158h131l58 -79zM245 1096h189v-163h-189v163z" />
    <glyph glyph-name="uni1E67" unicode="&#x1e67;" horiz-adv-x="507" 
d="M19 53l46 123q41 -28 93 -43.5t102 -15.5q31 0 48 9t17 25q0 14 -12.5 22.5t-47.5 15.5l-82 19q-78 16 -112.5 50.5t-34.5 95.5q0 49 29 87t80.5 59.5t118.5 21.5q55 0 108 -16t99 -45l-48 -120q-40 26 -82 40t-79 14q-30 0 -47 -9.5t-17 -27.5q0 -11 10 -17.5t38 -13.5
l85 -19q81 -19 116.5 -55.5t35.5 -99.5q0 -75 -59.5 -118t-164.5 -43q-152 0 -240 61zM314 781h136l-136 -208h-105l-136 208h136l53 -107zM167 948h189v-163h-189v163z" />
    <glyph glyph-name="uni1E68" unicode="&#x1e68;" horiz-adv-x="672" 
d="M164 12q-78 21 -127 57l59 133q52 -33 110.5 -50.5t117.5 -17.5q60 0 92 16.5t32 46.5q0 27 -29 44.5t-109 34.5q-101 20 -157 49.5t-78.5 69.5t-22.5 97q0 65 37 117.5t104 82t153 29.5q77 0 149.5 -21.5t113.5 -56.5l-58 -133q-47 33 -99 50.5t-104 17.5
q-51 0 -82 -19.5t-31 -52.5q0 -18 11 -30t41 -23.5t90 -24.5q97 -21 152.5 -50.5t78.5 -69t23 -94.5q0 -104 -81 -163.5t-228 -59.5q-80 0 -158 21zM252 -57h159v-151h-159v151zM245 934h189v-163h-189v163z" />
    <glyph glyph-name="uni1E69" unicode="&#x1e69;" horiz-adv-x="507" 
d="M19 53l46 123q41 -28 93 -43.5t102 -15.5q31 0 48 9t17 25q0 14 -12.5 22.5t-47.5 15.5l-82 19q-78 16 -112.5 50.5t-34.5 95.5q0 49 29 87t80.5 59.5t118.5 21.5q55 0 108 -16t99 -45l-48 -120q-40 26 -82 40t-79 14q-30 0 -47 -9.5t-17 -27.5q0 -11 10 -17.5t38 -13.5
l85 -19q81 -19 116.5 -55.5t35.5 -99.5q0 -75 -59.5 -118t-164.5 -43q-152 0 -240 61zM174 -57h159v-151h-159v151zM167 757h189v-163h-189v163z" />
    <glyph glyph-name="uni1E6C" unicode="&#x1e6c;" horiz-adv-x="638" 
d="M224 0v560h-212v152h614v-152h-212v-560h-190zM239 -57h159v-151h-159v151z" />
    <glyph glyph-name="uni1E6D" unicode="&#x1e6d;" horiz-adv-x="416" 
d="M402 144v-137q-37 -15 -94 -15q-103 0 -156.5 58t-53.5 161v164h-95v133h95v115l181 58v-173h122v-133h-122v-164q0 -36 21.5 -54.5t53.5 -18.5q18 0 48 6zM181 -57h159v-151h-159v151z" />
    <glyph glyph-name="uni1E6E" unicode="&#x1e6e;" horiz-adv-x="638" 
d="M224 0v560h-212v152h614v-152h-212v-560h-190zM158 -183v101h321v-101h-321z" />
    <glyph glyph-name="uni1E6F" unicode="&#x1e6f;" horiz-adv-x="416" 
d="M402 144v-137q-37 -15 -94 -15q-103 0 -156.5 58t-53.5 161v164h-95v133h95v115l181 58v-173h122v-133h-122v-164q0 -36 21.5 -54.5t53.5 -18.5q18 0 48 6zM100 -183v101h321v-101h-321z" />
    <glyph glyph-name="uni1E78" unicode="&#x1e78;" horiz-adv-x="752" 
d="M141 69.5q-80 78.5 -80 230.5v412h183v-419q0 -77 34.5 -118t98.5 -41q63 0 97 41.5t34 117.5v419h185v-412q0 -150 -81.5 -229.5t-234.5 -79.5q-156 0 -236 78.5zM229 894.5q33 39.5 84 39.5q17 0 33 -6.5t40 -20.5q19 -11 32 -17t25 -6q17 0 28 12t14 35h72
q0 -81 -33 -120.5t-84 -39.5q-17 0 -33 6.5t-40 20.5q-19 11 -32 17t-25 6q-17 0 -28 -12t-14 -35h-72q0 81 33 120.5zM431 935h-109l104 158h162z" />
    <glyph glyph-name="uni1E79" unicode="&#x1e79;" horiz-adv-x="619" 
d="M565 508v-508h-177v68q-49 -76 -145 -76q-97 0 -144.5 54t-47.5 165v297h181v-302q0 -75 65 -75q38 0 61.5 27t23.5 72v278h183zM161 719.5q33 39.5 84 39.5q17 0 33 -6.5t40 -20.5q19 -11 32 -17t25 -6q17 0 28 12t14 35h72q0 -81 -33 -120.5t-84 -39.5q-17 0 -33 6.5
t-40 20.5q-19 11 -32 17t-25 6q-17 0 -28 -12t-14 -35h-72q0 81 33 120.5zM363 764h-109l98 208h172z" />
    <glyph glyph-name="uni1E7A" unicode="&#x1e7a;" horiz-adv-x="752" 
d="M141 69.5q-80 78.5 -80 230.5v412h183v-419q0 -77 34.5 -118t98.5 -41q63 0 97 41.5t34 117.5v419h185v-412q0 -150 -81.5 -229.5t-234.5 -79.5q-156 0 -236 78.5zM216 798v108h321v-108h-321zM196 1090h160v-151h-160v151zM397 1090h160v-151h-160v151z" />
    <glyph glyph-name="uni1E7B" unicode="&#x1e7b;" horiz-adv-x="619" 
d="M565 508v-508h-177v68q-49 -76 -145 -76q-97 0 -144.5 54t-47.5 165v297h181v-302q0 -75 65 -75q38 0 61.5 27t23.5 72v278h183zM148 621v108h321v-108h-321zM128 942h160v-152h-160v152zM329 942h160v-152h-160v152z" />
    <glyph glyph-name="Wgrave" unicode="&#x1e80;" horiz-adv-x="1132" 
d="M942 712h178l-255 -712h-149l-149 423l-152 -423h-149l-254 712h191l146 -449l159 449h128l153 -457zM512 773l-157 158h162l104 -158h-109z" />
    <glyph glyph-name="wgrave" unicode="&#x1e81;" horiz-adv-x="900" 
d="M736 508h174l-212 -508h-149l-102 252l-96 -252h-150l-212 508h184l113 -293l110 293h116l113 -299zM394 573l-161 208h172l98 -208h-109z" />
    <glyph glyph-name="Wacute" unicode="&#x1e82;" horiz-adv-x="1132" 
d="M942 712h178l-255 -712h-149l-149 423l-152 -423h-149l-254 712h191l146 -449l159 449h128l153 -457zM621 773h-109l104 158h162z" />
    <glyph glyph-name="wacute" unicode="&#x1e83;" horiz-adv-x="900" 
d="M736 508h174l-212 -508h-149l-102 252l-96 -252h-150l-212 508h184l113 -293l110 293h116l113 -299zM503 573h-109l98 208h172z" />
    <glyph glyph-name="Wdieresis" unicode="&#x1e84;" horiz-adv-x="1132" 
d="M942 712h178l-255 -712h-149l-149 423l-152 -423h-149l-254 712h191l146 -449l159 449h128l153 -457zM386 928h160v-151h-160v151zM587 928h160v-151h-160v151z" />
    <glyph glyph-name="wdieresis" unicode="&#x1e85;" horiz-adv-x="900" 
d="M736 508h174l-212 -508h-149l-102 252l-96 -252h-150l-212 508h184l113 -293l110 293h116l113 -299zM268 751h160v-152h-160v152zM469 751h160v-152h-160v152z" />
    <glyph glyph-name="uni1E8E" unicode="&#x1e8e;" horiz-adv-x="657" 
d="M724 712l-301 -440v-272h-189v273l-299 439h212l180 -284l183 284h214zM233 934h189v-163h-189v163z" />
    <glyph glyph-name="uni1E8F" unicode="&#x1e8f;" horiz-adv-x="559" 
d="M579 508l-233 -526q-46 -103 -115.5 -150.5t-171.5 -59.5l-42 138q70 14 105 36t53 61l13 28l-207 473h188l114 -293l118 293h178zM184 757h189v-163h-189v163z" />
    <glyph glyph-name="uni1E92" unicode="&#x1e92;" horiz-adv-x="624" 
d="M260 147h329v-147h-536v137l314 428h-314v147h525v-135zM227 -57h159v-151h-159v151z" />
    <glyph glyph-name="uni1E93" unicode="&#x1e93;" horiz-adv-x="535" 
d="M258 134h246v-134h-457v127l230 248h-229v133h446v-119zM185 -57h159v-151h-159v151z" />
    <glyph glyph-name="uni1E97" unicode="&#x1e97;" horiz-adv-x="416" 
d="M402 144v-137q-37 -15 -94 -15q-103 0 -156.5 58t-53.5 161v164h-95v133h95v115l181 58v-173h122v-133h-122v-164q0 -36 21.5 -54.5t53.5 -18.5q18 0 48 6zM8 872h160v-151h-160v151zM209 872h160v-151h-160v151z" />
    <glyph glyph-name="uni1E9E" unicode="&#x1e9e;" horiz-adv-x="726" 
d="M658.5 312q39.5 -46 39.5 -112q0 -58 -30 -105t-82 -74t-116 -27q-61 0 -106.5 13t-85.5 42l47 130q76 -48 135 -48q28 0 44.5 20.5t16.5 55.5q0 45 -26.5 63t-94.5 18h-89v144h76q82 0 82 67q0 35 -26 55.5t-69 20.5q-60 0 -93 -34t-33 -96v-445h-184v440
q0 131 83.5 205t231.5 74q79 0 138.5 -25t92 -71t32.5 -107q0 -48 -24.5 -86t-67.5 -58q69 -14 108.5 -60z" />
    <glyph glyph-name="uni1EA0" unicode="&#x1ea0;" horiz-adv-x="769" 
d="M607 0l-63 147h-316l-63 -147h-188l333 712h148l334 -712h-185zM289 288h194l-97 225zM305 -57h159v-151h-159v151z" />
    <glyph glyph-name="uni1EA1" unicode="&#x1ea1;" horiz-adv-x="643" 
d="M589 508v-508h-178v69q-22 -36 -64 -56.5t-92 -20.5q-65 0 -116 32t-79.5 91.5t-28.5 137.5q0 79 29 140t80 95t115 34q50 0 91.5 -21.5t64.5 -57.5v65h178zM385 160q26 33 26 95q0 63 -26 96.5t-74 33.5q-47 0 -74 -34.5t-27 -97.5q0 -61 26 -93.5t75 -32.5q48 0 74 33z
M241 -57h159v-151h-159v151z" />
    <glyph glyph-name="uni1EA2" unicode="&#x1ea2;" horiz-adv-x="769" 
d="M607 0l-63 147h-316l-63 -147h-188l333 712h148l334 -712h-185zM289 288h194l-97 225zM425 773h-84v23q0 18 12 27t33 18q21 7 21 14q0 16 -31 16q-24 0 -55 -10l-22 56q45 18 102 18q49 0 79.5 -19t30.5 -45q0 -19 -13.5 -30.5t-36.5 -21.5q-19 -9 -27.5 -15.5
t-8.5 -16.5v-14z" />
    <glyph glyph-name="uni1EA3" unicode="&#x1ea3;" horiz-adv-x="643" 
d="M589 508v-508h-178v69q-22 -36 -64 -56.5t-92 -20.5q-65 0 -116 32t-79.5 91.5t-28.5 137.5q0 79 29 140t80 95t115 34q50 0 91.5 -21.5t64.5 -57.5v65h178zM385 160q26 33 26 95q0 63 -26 96.5t-74 33.5q-47 0 -74 -34.5t-27 -97.5q0 -61 26 -93.5t75 -32.5q48 0 74 33z
M365 573h-86v24q0 21 9 33.5t27 28.5q11 9 16 15t5 13q0 11 -7.5 16.5t-23.5 5.5q-24 0 -46 -8l-23 62q43 20 89 20q58 0 90.5 -23t32.5 -55q0 -24 -13 -39t-37 -32q-17 -11 -25 -19.5t-8 -18.5v-23z" />
    <glyph glyph-name="uni1EA4" unicode="&#x1ea4;" horiz-adv-x="769" 
d="M607 0l-63 147h-316l-63 -147h-188l333 712h148l334 -712h-185zM289 288h194l-97 225zM566 882h-84l65 142h142zM323 773h-128l139 136h99l139 -136h-128l-60 59z" />
    <glyph glyph-name="uni1EA5" unicode="&#x1ea5;" horiz-adv-x="643" 
d="M589 508v-508h-178v69q-22 -36 -64 -56.5t-92 -20.5q-65 0 -116 32t-79.5 91.5t-28.5 137.5q0 79 29 140t80 95t115 34q50 0 91.5 -21.5t64.5 -57.5v65h178zM385 160q26 33 26 95q0 63 -26 96.5t-74 33.5q-47 0 -74 -34.5t-27 -97.5q0 -61 26 -93.5t75 -32.5q48 0 74 33z
M503 683h-84l65 141h142zM260 573h-128l139 136h99l139 -136h-128l-60 59z" />
    <glyph glyph-name="uni1EA6" unicode="&#x1ea6;" horiz-adv-x="769" 
d="M607 0l-63 147h-316l-63 -147h-188l333 712h148l334 -712h-185zM289 288h194l-97 225zM525 882l-127 142h143l68 -142h-84zM323 773h-128l139 136h99l139 -136h-128l-60 59z" />
    <glyph glyph-name="uni1EA7" unicode="&#x1ea7;" horiz-adv-x="643" 
d="M589 508v-508h-178v69q-22 -36 -64 -56.5t-92 -20.5q-65 0 -116 32t-79.5 91.5t-28.5 137.5q0 79 29 140t80 95t115 34q50 0 91.5 -21.5t64.5 -57.5v65h178zM385 160q26 33 26 95q0 63 -26 96.5t-74 33.5q-47 0 -74 -34.5t-27 -97.5q0 -61 26 -93.5t75 -32.5q48 0 74 33z
M462 683l-127 141h143l68 -141h-84zM260 573h-128l139 136h99l139 -136h-128l-60 59z" />
    <glyph glyph-name="uni1EA8" unicode="&#x1ea8;" horiz-adv-x="769" 
d="M607 0l-63 147h-316l-63 -147h-188l333 712h148l334 -712h-185zM289 288h194l-97 225zM565 884h-84v21q0 19 14.5 28.5t33 15.5t18.5 8q0 5 -7 8.5t-23 3.5q-26 0 -56 -11l-22 54q45 18 102 18q50 0 80 -16t30 -42q0 -20 -12.5 -30t-37.5 -21q-20 -8 -28 -13.5t-8 -16.5
v-7zM323 773h-128l139 136h99l139 -136h-128l-60 59z" />
    <glyph glyph-name="uni1EA9" unicode="&#x1ea9;" horiz-adv-x="643" 
d="M589 508v-508h-178v69q-22 -36 -64 -56.5t-92 -20.5q-65 0 -116 32t-79.5 91.5t-28.5 137.5q0 79 29 140t80 95t115 34q50 0 91.5 -21.5t64.5 -57.5v65h178zM385 160q26 33 26 95q0 63 -26 96.5t-74 33.5q-47 0 -74 -34.5t-27 -97.5q0 -61 26 -93.5t75 -32.5q48 0 74 33z
M502 684h-84v21q0 19 14.5 28.5t33 15.5t18.5 8q0 4 -7 8t-23 4q-21 0 -56 -11l-22 54q47 19 102 19q50 0 80 -17t30 -44q0 -19 -13 -29t-37 -19q-19 -8 -27.5 -14t-8.5 -16v-8zM260 573h-128l139 136h99l139 -136h-128l-60 59z" />
    <glyph glyph-name="uni1EAA" unicode="&#x1eaa;" horiz-adv-x="769" 
d="M607 0l-63 147h-316l-63 -147h-188l333 712h148l334 -712h-185zM289 288h194l-97 225zM237.5 1005q34.5 31 82.5 31q17 0 36.5 -4.5t36.5 -10.5q37 -13 57 -13q19 0 29 4.5t13 19.5h72q0 -45 -34.5 -76.5t-82.5 -31.5q-27 0 -73 16q-37 13 -57 13q-19 0 -29 -5t-13 -20
h-72q0 46 34.5 77zM323 773h-128l139 136h99l139 -136h-128l-60 59z" />
    <glyph glyph-name="uni1EAB" unicode="&#x1eab;" horiz-adv-x="643" 
d="M589 508v-508h-178v69q-22 -36 -64 -56.5t-92 -20.5q-65 0 -116 32t-79.5 91.5t-28.5 137.5q0 79 29 140t80 95t115 34q50 0 91.5 -21.5t64.5 -57.5v65h178zM385 160q26 33 26 95q0 63 -26 96.5t-74 33.5q-47 0 -74 -34.5t-27 -97.5q0 -61 26 -93.5t75 -32.5q48 0 74 33z
M174.5 805q34.5 31 82.5 31q17 0 36.5 -4.5t36.5 -10.5q37 -13 57 -13q19 0 29 4.5t13 19.5h72q0 -45 -34.5 -76.5t-82.5 -31.5q-17 0 -36.5 4.5t-36.5 10.5q-37 13 -57 13q-19 0 -29 -4.5t-13 -19.5h-72q0 46 34.5 77zM260 573h-128l139 136h99l139 -136h-128l-60 59z" />
    <glyph glyph-name="uni1EAC" unicode="&#x1eac;" horiz-adv-x="769" 
d="M607 0l-63 147h-316l-63 -147h-188l333 712h148l334 -712h-185zM289 288h194l-97 225zM305 -57h159v-151h-159v151zM326 773h-131l139 158h99l139 -158h-131l-57 78z" />
    <glyph glyph-name="uni1EAD" unicode="&#x1ead;" horiz-adv-x="643" 
d="M589 508v-508h-178v69q-22 -36 -64 -56.5t-92 -20.5q-65 0 -116 32t-79.5 91.5t-28.5 137.5q0 79 29 140t80 95t115 34q50 0 91.5 -21.5t64.5 -57.5v65h178zM385 160q26 33 26 95q0 63 -26 96.5t-74 33.5q-47 0 -74 -34.5t-27 -97.5q0 -61 26 -93.5t75 -32.5q48 0 74 33z
M241 -57h159v-151h-159v151zM268 573h-136l136 208h105l136 -208h-136l-52 106z" />
    <glyph glyph-name="uni1EAE" unicode="&#x1eae;" horiz-adv-x="769" 
d="M607 0l-63 147h-316l-63 -147h-188l333 712h148l334 -712h-185zM289 288h194l-97 225zM435 882h-103l101 142h149zM265 797q-49 29 -67 82l57 24q15 -22 52.5 -36t76.5 -14q38 0 75.5 14t52.5 36l57 -24q-18 -53 -67 -82t-118 -29q-70 0 -119 29z" />
    <glyph glyph-name="uni1EAF" unicode="&#x1eaf;" horiz-adv-x="643" 
d="M589 508v-508h-178v69q-22 -36 -64 -56.5t-92 -20.5q-65 0 -116 32t-79.5 91.5t-28.5 137.5q0 79 29 140t80 95t115 34q50 0 91.5 -21.5t64.5 -57.5v65h178zM385 160q26 33 26 95q0 63 -26 96.5t-74 33.5q-47 0 -74 -34.5t-27 -97.5q0 -61 26 -93.5t75 -32.5q48 0 74 33z
M372 683h-103l101 141h149zM202 597q-49 29 -67 82l57 24q15 -22 52.5 -35.5t76.5 -13.5t76 13.5t52 35.5l57 -24q-18 -53 -67 -82t-118 -29q-70 0 -119 29z" />
    <glyph glyph-name="uni1EB0" unicode="&#x1eb0;" horiz-adv-x="769" 
d="M607 0l-63 147h-316l-63 -147h-188l333 712h148l334 -712h-185zM289 288h194l-97 225zM332 882l-147 142h149l101 -142h-103zM265 797q-49 29 -67 82l57 24q15 -22 52.5 -36t76.5 -14q38 0 75.5 14t52.5 36l57 -24q-18 -53 -67 -82t-118 -29q-70 0 -119 29z" />
    <glyph glyph-name="uni1EB1" unicode="&#x1eb1;" horiz-adv-x="643" 
d="M589 508v-508h-178v69q-22 -36 -64 -56.5t-92 -20.5q-65 0 -116 32t-79.5 91.5t-28.5 137.5q0 79 29 140t80 95t115 34q50 0 91.5 -21.5t64.5 -57.5v65h178zM385 160q26 33 26 95q0 63 -26 96.5t-74 33.5q-47 0 -74 -34.5t-27 -97.5q0 -61 26 -93.5t75 -32.5q48 0 74 33z
M269 683l-147 141h149l101 -141h-103zM202 597q-49 29 -67 82l57 24q15 -22 52.5 -35.5t76.5 -13.5t76 13.5t52 35.5l57 -24q-18 -53 -67 -82t-118 -29q-70 0 -119 29z" />
    <glyph glyph-name="uni1EB2" unicode="&#x1eb2;" horiz-adv-x="769" 
d="M607 0l-63 147h-316l-63 -147h-188l333 712h148l334 -712h-185zM289 288h194l-97 225zM425 884h-84v21q0 19 14.5 28.5t33 15.5t18.5 8q0 5 -7 8.5t-24 3.5q-25 0 -55 -11l-22 54q45 18 102 18q50 0 80 -16t30 -42q0 -20 -12.5 -30t-37.5 -21q-20 -8 -28 -13.5t-8 -16.5
v-7zM265 797q-49 29 -67 82l57 24q15 -22 52.5 -36t76.5 -14q38 0 75.5 14t52.5 36l57 -24q-18 -53 -67 -82t-118 -29q-70 0 -119 29z" />
    <glyph glyph-name="uni1EB3" unicode="&#x1eb3;" horiz-adv-x="643" 
d="M589 508v-508h-178v69q-22 -36 -64 -56.5t-92 -20.5q-65 0 -116 32t-79.5 91.5t-28.5 137.5q0 79 29 140t80 95t115 34q50 0 91.5 -21.5t64.5 -57.5v65h178zM385 160q26 33 26 95q0 63 -26 96.5t-74 33.5q-47 0 -74 -34.5t-27 -97.5q0 -61 26 -93.5t75 -32.5q48 0 74 33z
M362 684h-84v21q0 19 14.5 28.5t33 15.5t18.5 8q0 4 -7 8t-24 4q-20 0 -55 -11l-22 54q47 19 102 19q50 0 80 -17t30 -44q0 -19 -13 -29t-37 -19q-19 -8 -27.5 -14t-8.5 -16v-8zM202 597q-49 29 -67 82l57 24q15 -22 52.5 -35.5t76.5 -13.5t76 13.5t52 35.5l57 -24
q-18 -53 -67 -82t-118 -29q-70 0 -119 29z" />
    <glyph glyph-name="uni1EB4" unicode="&#x1eb4;" horiz-adv-x="769" 
d="M607 0l-63 147h-316l-63 -147h-188l333 712h148l334 -712h-185zM289 288h194l-97 225zM237.5 997.5q34.5 30.5 82.5 30.5q27 0 73 -14q37 -11 57 -11q19 0 29 4.5t13 17.5h72q0 -44 -34.5 -75t-82.5 -31q-27 0 -73 14q-37 11 -57 11q-19 0 -29 -4.5t-13 -17.5h-72
q0 45 34.5 75.5zM265 797q-49 29 -67 82l57 24q15 -22 52.5 -36t76.5 -14q38 0 75.5 14t52.5 36l57 -24q-18 -53 -67 -82t-118 -29q-70 0 -119 29z" />
    <glyph glyph-name="uni1EB5" unicode="&#x1eb5;" horiz-adv-x="643" 
d="M589 508v-508h-178v69q-22 -36 -64 -56.5t-92 -20.5q-65 0 -116 32t-79.5 91.5t-28.5 137.5q0 79 29 140t80 95t115 34q50 0 91.5 -21.5t64.5 -57.5v65h178zM385 160q26 33 26 95q0 63 -26 96.5t-74 33.5q-47 0 -74 -34.5t-27 -97.5q0 -61 26 -93.5t75 -32.5q48 0 74 33z
M174.5 797.5q34.5 30.5 82.5 30.5q27 0 73 -14q37 -11 57 -11q19 0 29 4.5t13 17.5h72q0 -44 -34.5 -75t-82.5 -31q-27 0 -73 14q-37 11 -57 11q-19 0 -29 -4.5t-13 -17.5h-72q0 45 34.5 75.5zM202 597q-49 29 -67 82l57 24q15 -22 52.5 -35.5t76.5 -13.5t76 13.5t52 35.5
l57 -24q-18 -53 -67 -82t-118 -29q-70 0 -119 29z" />
    <glyph glyph-name="uni1EB6" unicode="&#x1eb6;" horiz-adv-x="769" 
d="M607 0l-63 147h-316l-63 -147h-188l333 712h148l334 -712h-185zM289 288h194l-97 225zM305 -57h159v-151h-159v151zM265 810q-49 29 -67 82l77 33q30 -41 109 -41q78 0 108 41l77 -33q-18 -53 -67 -82t-118 -29q-70 0 -119 29z" />
    <glyph glyph-name="uni1EB7" unicode="&#x1eb7;" horiz-adv-x="643" 
d="M589 508v-508h-178v69q-22 -36 -64 -56.5t-92 -20.5q-65 0 -116 32t-79.5 91.5t-28.5 137.5q0 79 29 140t80 95t115 34q50 0 91.5 -21.5t64.5 -57.5v65h178zM385 160q26 33 26 95q0 63 -26 96.5t-74 33.5q-47 0 -74 -34.5t-27 -97.5q0 -61 26 -93.5t75 -32.5q48 0 74 33z
M241 -57h159v-151h-159v151zM196 632.5q-55 39.5 -71 113.5l77 34q45 -77 119 -77q73 0 118 77l77 -34q-16 -74 -71 -113.5t-124 -39.5q-70 0 -125 39.5z" />
    <glyph glyph-name="uni1EB8" unicode="&#x1eb8;" horiz-adv-x="604" 
d="M64 0v712h508v-144h-325v-134h304v-144h-304v-146h325v-144h-508zM256 -57h159v-151h-159v151z" />
    <glyph glyph-name="uni1EB9" unicode="&#x1eb9;" horiz-adv-x="553" 
d="M523 236h-319q5 -59 34 -85t85 -26q38 0 76 12.5t69 34.5l46 -120q-38 -28 -92 -44t-108 -16q-87 0 -151 32t-98 91.5t-34 140.5q0 77 32.5 137.5t90 94.5t131.5 34q72 0 126 -32t83 -91.5t29 -138.5v-24zM206 320h162q-10 78 -78 78q-67 0 -84 -78zM230 -57h159v-151
h-159v151z" />
    <glyph glyph-name="uni1EBA" unicode="&#x1eba;" horiz-adv-x="604" 
d="M64 0v712h508v-144h-325v-134h304v-144h-304v-146h325v-144h-508zM377 773h-84v23q0 18 12 27t33 18q21 7 21 14q0 16 -31 16q-24 0 -55 -10l-22 56q45 18 102 18q49 0 79.5 -19t30.5 -45q0 -19 -13.5 -30.5t-36.5 -21.5q-19 -9 -27.5 -15.5t-8.5 -16.5v-14z" />
    <glyph glyph-name="uni1EBB" unicode="&#x1ebb;" horiz-adv-x="553" 
d="M523 236h-319q5 -59 34 -85t85 -26q38 0 76 12.5t69 34.5l46 -120q-38 -28 -92 -44t-108 -16q-87 0 -151 32t-98 91.5t-34 140.5q0 77 32.5 137.5t90 94.5t131.5 34q72 0 126 -32t83 -91.5t29 -138.5v-24zM206 320h162q-10 78 -78 78q-67 0 -84 -78zM329 573h-86v24
q0 21 9 33.5t27 28.5q11 9 16 15t5 13q0 11 -7.5 16.5t-23.5 5.5q-24 0 -46 -8l-23 62q43 20 89 20q58 0 90.5 -23t32.5 -55q0 -24 -13 -39t-37 -32q-17 -11 -25 -19.5t-8 -18.5v-23z" />
    <glyph glyph-name="uni1EBC" unicode="&#x1ebc;" horiz-adv-x="604" 
d="M64 0v712h508v-144h-325v-134h304v-144h-304v-146h325v-144h-508zM188 894.5q33 39.5 84 39.5q17 0 33 -6.5t40 -20.5q19 -11 32 -17t25 -6q17 0 28 12t14 35h72q0 -81 -33 -120.5t-84 -39.5q-17 0 -33 6.5t-40 20.5q-19 11 -32 17t-25 6q-17 0 -28 -12t-14 -35h-72
q0 81 33 120.5z" />
    <glyph glyph-name="uni1EBD" unicode="&#x1ebd;" horiz-adv-x="553" 
d="M523 236h-319q5 -59 34 -85t85 -26q38 0 76 12.5t69 34.5l46 -120q-38 -28 -92 -44t-108 -16q-87 0 -151 32t-98 91.5t-34 140.5q0 77 32.5 137.5t90 94.5t131.5 34q72 0 126 -32t83 -91.5t29 -138.5v-24zM206 320h162q-10 78 -78 78q-67 0 -84 -78zM137 719.5
q33 39.5 84 39.5q17 0 33 -6.5t40 -20.5q19 -11 32 -17t25 -6q17 0 28 12t14 35h72q0 -81 -33 -120.5t-84 -39.5q-17 0 -33 6.5t-40 20.5q-19 11 -32 17t-25 6q-17 0 -28 -12t-14 -35h-72q0 81 33 120.5z" />
    <glyph glyph-name="uni1EBE" unicode="&#x1ebe;" horiz-adv-x="604" 
d="M64 0v712h508v-144h-325v-134h304v-144h-304v-146h325v-144h-508zM518 882h-84l65 142h142zM275 773h-128l139 136h99l139 -136h-128l-60 59z" />
    <glyph glyph-name="uni1EBF" unicode="&#x1ebf;" horiz-adv-x="553" 
d="M523 236h-319q5 -59 34 -85t85 -26q38 0 76 12.5t69 34.5l46 -120q-38 -28 -92 -44t-108 -16q-87 0 -151 32t-98 91.5t-34 140.5q0 77 32.5 137.5t90 94.5t131.5 34q72 0 126 -32t83 -91.5t29 -138.5v-24zM206 320h162q-10 78 -78 78q-67 0 -84 -78zM467 683h-84l65 141
h142zM224 573h-128l139 136h99l139 -136h-128l-60 59z" />
    <glyph glyph-name="uni1EC0" unicode="&#x1ec0;" horiz-adv-x="604" 
d="M64 0v712h508v-144h-325v-134h304v-144h-304v-146h325v-144h-508zM477 882l-127 142h143l68 -142h-84zM275 773h-128l139 136h99l139 -136h-128l-60 59z" />
    <glyph glyph-name="uni1EC1" unicode="&#x1ec1;" horiz-adv-x="553" 
d="M523 236h-319q5 -59 34 -85t85 -26q38 0 76 12.5t69 34.5l46 -120q-38 -28 -92 -44t-108 -16q-87 0 -151 32t-98 91.5t-34 140.5q0 77 32.5 137.5t90 94.5t131.5 34q72 0 126 -32t83 -91.5t29 -138.5v-24zM206 320h162q-10 78 -78 78q-67 0 -84 -78zM426 683l-127 141
h143l68 -141h-84zM224 573h-128l139 136h99l139 -136h-128l-60 59z" />
    <glyph glyph-name="uni1EC2" unicode="&#x1ec2;" horiz-adv-x="604" 
d="M64 0v712h508v-144h-325v-134h304v-144h-304v-146h325v-144h-508zM517 884h-84v21q0 19 14.5 28.5t33 15.5t18.5 8q0 5 -7 8.5t-23 3.5q-26 0 -56 -11l-22 54q45 18 102 18q50 0 80 -16t30 -42q0 -20 -12.5 -30t-37.5 -21q-20 -8 -28 -13.5t-8 -16.5v-7zM275 773h-128
l139 136h99l139 -136h-128l-60 59z" />
    <glyph glyph-name="uni1EC3" unicode="&#x1ec3;" horiz-adv-x="553" 
d="M523 236h-319q5 -59 34 -85t85 -26q38 0 76 12.5t69 34.5l46 -120q-38 -28 -92 -44t-108 -16q-87 0 -151 32t-98 91.5t-34 140.5q0 77 32.5 137.5t90 94.5t131.5 34q72 0 126 -32t83 -91.5t29 -138.5v-24zM206 320h162q-10 78 -78 78q-67 0 -84 -78zM466 684h-84v21
q0 19 14.5 28.5t33 15.5t18.5 8q0 4 -7 8t-23 4q-21 0 -56 -11l-22 54q47 19 102 19q50 0 80 -17t30 -44q0 -19 -13 -29t-37 -19q-19 -8 -27.5 -14t-8.5 -16v-8zM224 573h-128l139 136h99l139 -136h-128l-60 59z" />
    <glyph glyph-name="uni1EC4" unicode="&#x1ec4;" horiz-adv-x="604" 
d="M64 0v712h508v-144h-325v-134h304v-144h-304v-146h325v-144h-508zM189.5 1005q34.5 31 82.5 31q17 0 36.5 -4.5t36.5 -10.5q37 -13 57 -13q19 0 29 4.5t13 19.5h72q0 -45 -34.5 -76.5t-82.5 -31.5q-27 0 -73 16q-37 13 -57 13q-19 0 -29 -5t-13 -20h-72q0 46 34.5 77z
M275 773h-128l139 136h99l139 -136h-128l-60 59z" />
    <glyph glyph-name="uni1EC5" unicode="&#x1ec5;" horiz-adv-x="553" 
d="M523 236h-319q5 -59 34 -85t85 -26q38 0 76 12.5t69 34.5l46 -120q-38 -28 -92 -44t-108 -16q-87 0 -151 32t-98 91.5t-34 140.5q0 77 32.5 137.5t90 94.5t131.5 34q72 0 126 -32t83 -91.5t29 -138.5v-24zM206 320h162q-10 78 -78 78q-67 0 -84 -78zM138.5 805
q34.5 31 82.5 31q17 0 36.5 -4.5t36.5 -10.5q37 -13 57 -13q19 0 29 4.5t13 19.5h72q0 -45 -34.5 -76.5t-82.5 -31.5q-17 0 -36.5 4.5t-36.5 10.5q-37 13 -57 13q-19 0 -29 -4.5t-13 -19.5h-72q0 46 34.5 77zM224 573h-128l139 136h99l139 -136h-128l-60 59z" />
    <glyph glyph-name="uni1EC6" unicode="&#x1ec6;" horiz-adv-x="604" 
d="M64 0v712h508v-144h-325v-134h304v-144h-304v-146h325v-144h-508zM256 -57h159v-151h-159v151zM278 773h-131l139 158h99l139 -158h-131l-57 78z" />
    <glyph glyph-name="uni1EC7" unicode="&#x1ec7;" horiz-adv-x="553" 
d="M523 236h-319q5 -59 34 -85t85 -26q38 0 76 12.5t69 34.5l46 -120q-38 -28 -92 -44t-108 -16q-87 0 -151 32t-98 91.5t-34 140.5q0 77 32.5 137.5t90 94.5t131.5 34q72 0 126 -32t83 -91.5t29 -138.5v-24zM206 320h162q-10 78 -78 78q-67 0 -84 -78zM230 -57h159v-151
h-159v151zM232 573h-136l136 208h105l136 -208h-136l-52 106z" />
    <glyph glyph-name="uni1EC8" unicode="&#x1ec8;" horiz-adv-x="316" 
d="M64 0v712h188v-712h-188zM198 773h-84v23q0 18 12 27t33 18q21 7 21 14q0 16 -31 16q-24 0 -55 -10l-22 56q45 18 102 18q49 0 79.5 -19t30.5 -45q0 -19 -13.5 -30.5t-36.5 -21.5q-19 -9 -27.5 -15.5t-8.5 -16.5v-14z" />
    <glyph glyph-name="uni1EC9" unicode="&#x1ec9;" horiz-adv-x="289" 
d="M54 0v508h181v-508h-181zM188 573h-86v24q0 21 9 33.5t27 28.5q11 9 16 15t5 13q0 11 -7.5 16.5t-23.5 5.5q-24 0 -46 -8l-23 62q43 20 89 20q58 0 90.5 -23t32.5 -55q0 -24 -13 -39t-37 -32q-17 -11 -25 -19.5t-8 -18.5v-23z" />
    <glyph glyph-name="uni1ECA" unicode="&#x1eca;" horiz-adv-x="316" 
d="M64 0v712h188v-712h-188zM77 -57h159v-151h-159v151z" />
    <glyph glyph-name="uni1ECB" unicode="&#x1ecb;" horiz-adv-x="289" 
d="M54 0v508h181v-508h-181zM49 757h189v-163h-189v163zM64 -57h159v-151h-159v151z" />
    <glyph glyph-name="uni1ECC" unicode="&#x1ecc;" horiz-adv-x="805" 
d="M213 35.5q-81 44.5 -124.5 127.5t-43.5 194t44 193t124.5 126.5t189.5 44.5t189.5 -44.5t123.5 -126.5t43 -193t-43 -194t-123.5 -127.5t-189.5 -44.5t-190 44.5zM528.5 191q45.5 57 45.5 166q0 108 -45.5 164.5t-125.5 56.5t-125 -56t-45 -165q0 -110 45 -166.5
t125 -56.5t125.5 57zM323 -57h159v-151h-159v151z" />
    <glyph glyph-name="uni1ECD" unicode="&#x1ecd;" horiz-adv-x="618" 
d="M162 24q-63 32 -97 92t-34 141t34 141t97 92t148 32q84 0 146.5 -32.5t96.5 -92t34 -140.5t-34 -140.5t-96.5 -92t-146.5 -32.5q-85 0 -148 32zM408 257q0 66 -24.5 97.5t-73.5 31.5q-50 0 -75 -31.5t-25 -97.5q0 -67 25 -98.5t75 -31.5q98 0 98 130zM230 -57h159v-151
h-159v151z" />
    <glyph glyph-name="uni1ECE" unicode="&#x1ece;" horiz-adv-x="805" 
d="M213 35.5q-81 44.5 -124.5 127.5t-43.5 194t44 193t124.5 126.5t189.5 44.5t189.5 -44.5t123.5 -126.5t43 -193t-43 -194t-123.5 -127.5t-189.5 -44.5t-190 44.5zM528.5 191q45.5 57 45.5 166q0 108 -45.5 164.5t-125.5 56.5t-125 -56t-45 -165q0 -110 45 -166.5
t125 -56.5t125.5 57zM443 773h-84v23q0 18 12 27t33 18q21 7 21 14q0 16 -31 16q-24 0 -55 -10l-22 56q45 18 102 18q49 0 79.5 -19t30.5 -45q0 -19 -13.5 -30.5t-36.5 -21.5q-19 -9 -27.5 -15.5t-8.5 -16.5v-14z" />
    <glyph glyph-name="uni1ECF" unicode="&#x1ecf;" horiz-adv-x="618" 
d="M162 24q-63 32 -97 92t-34 141t34 141t97 92t148 32q84 0 146.5 -32.5t96.5 -92t34 -140.5t-34 -140.5t-96.5 -92t-146.5 -32.5q-85 0 -148 32zM408 257q0 66 -24.5 97.5t-73.5 31.5q-50 0 -75 -31.5t-25 -97.5q0 -67 25 -98.5t75 -31.5q98 0 98 130zM354 573h-86v24
q0 21 9 33.5t27 28.5q11 9 16 15t5 13q0 11 -7.5 16.5t-23.5 5.5q-24 0 -46 -8l-23 62q43 20 89 20q58 0 90.5 -23t32.5 -55q0 -24 -13 -39t-37 -32q-17 -11 -25 -19.5t-8 -18.5v-23z" />
    <glyph glyph-name="uni1ED0" unicode="&#x1ed0;" horiz-adv-x="805" 
d="M213 35.5q-81 44.5 -124.5 127.5t-43.5 194t44 193t124.5 126.5t189.5 44.5t189.5 -44.5t123.5 -126.5t43 -193t-43 -194t-123.5 -127.5t-189.5 -44.5t-190 44.5zM528.5 191q45.5 57 45.5 166q0 108 -45.5 164.5t-125.5 56.5t-125 -56t-45 -165q0 -110 45 -166.5
t125 -56.5t125.5 57zM584 882h-84l65 142h142zM341 773h-128l139 136h99l139 -136h-128l-60 59z" />
    <glyph glyph-name="uni1ED1" unicode="&#x1ed1;" horiz-adv-x="618" 
d="M162 24q-63 32 -97 92t-34 141t34 141t97 92t148 32q84 0 146.5 -32.5t96.5 -92t34 -140.5t-34 -140.5t-96.5 -92t-146.5 -32.5q-85 0 -148 32zM408 257q0 66 -24.5 97.5t-73.5 31.5q-50 0 -75 -31.5t-25 -97.5q0 -67 25 -98.5t75 -31.5q98 0 98 130zM492 683h-84l65 141
h142zM249 573h-128l139 136h99l139 -136h-128l-60 59z" />
    <glyph glyph-name="uni1ED2" unicode="&#x1ed2;" horiz-adv-x="805" 
d="M213 35.5q-81 44.5 -124.5 127.5t-43.5 194t44 193t124.5 126.5t189.5 44.5t189.5 -44.5t123.5 -126.5t43 -193t-43 -194t-123.5 -127.5t-189.5 -44.5t-190 44.5zM528.5 191q45.5 57 45.5 166q0 108 -45.5 164.5t-125.5 56.5t-125 -56t-45 -165q0 -110 45 -166.5
t125 -56.5t125.5 57zM543 882l-127 142h143l68 -142h-84zM341 773h-128l139 136h99l139 -136h-128l-60 59z" />
    <glyph glyph-name="uni1ED3" unicode="&#x1ed3;" horiz-adv-x="618" 
d="M162 24q-63 32 -97 92t-34 141t34 141t97 92t148 32q84 0 146.5 -32.5t96.5 -92t34 -140.5t-34 -140.5t-96.5 -92t-146.5 -32.5q-85 0 -148 32zM408 257q0 66 -24.5 97.5t-73.5 31.5q-50 0 -75 -31.5t-25 -97.5q0 -67 25 -98.5t75 -31.5q98 0 98 130zM451 683l-127 141
h143l68 -141h-84zM249 573h-128l139 136h99l139 -136h-128l-60 59z" />
    <glyph glyph-name="uni1ED4" unicode="&#x1ed4;" horiz-adv-x="805" 
d="M213 35.5q-81 44.5 -124.5 127.5t-43.5 194t44 193t124.5 126.5t189.5 44.5t189.5 -44.5t123.5 -126.5t43 -193t-43 -194t-123.5 -127.5t-189.5 -44.5t-190 44.5zM528.5 191q45.5 57 45.5 166q0 108 -45.5 164.5t-125.5 56.5t-125 -56t-45 -165q0 -110 45 -166.5
t125 -56.5t125.5 57zM583 884h-84v21q0 19 14.5 28.5t33 15.5t18.5 8q0 5 -7 8.5t-23 3.5q-26 0 -56 -11l-22 54q45 18 102 18q50 0 80 -16t30 -42q0 -20 -12.5 -30t-37.5 -21q-20 -8 -28 -13.5t-8 -16.5v-7zM341 773h-128l139 136h99l139 -136h-128l-60 59z" />
    <glyph glyph-name="uni1ED5" unicode="&#x1ed5;" horiz-adv-x="618" 
d="M162 24q-63 32 -97 92t-34 141t34 141t97 92t148 32q84 0 146.5 -32.5t96.5 -92t34 -140.5t-34 -140.5t-96.5 -92t-146.5 -32.5q-85 0 -148 32zM408 257q0 66 -24.5 97.5t-73.5 31.5q-50 0 -75 -31.5t-25 -97.5q0 -67 25 -98.5t75 -31.5q98 0 98 130zM491 684h-84v21
q0 19 14.5 28.5t33 15.5t18.5 8q0 4 -7 8t-23 4q-21 0 -56 -11l-22 54q47 19 102 19q50 0 80 -17t30 -44q0 -19 -13 -29t-37 -19q-19 -8 -27.5 -14t-8.5 -16v-8zM249 573h-128l139 136h99l139 -136h-128l-60 59z" />
    <glyph glyph-name="uni1ED6" unicode="&#x1ed6;" horiz-adv-x="805" 
d="M213 35.5q-81 44.5 -124.5 127.5t-43.5 194t44 193t124.5 126.5t189.5 44.5t189.5 -44.5t123.5 -126.5t43 -193t-43 -194t-123.5 -127.5t-189.5 -44.5t-190 44.5zM528.5 191q45.5 57 45.5 166q0 108 -45.5 164.5t-125.5 56.5t-125 -56t-45 -165q0 -110 45 -166.5
t125 -56.5t125.5 57zM255.5 1005q34.5 31 82.5 31q17 0 36.5 -4.5t36.5 -10.5q37 -13 57 -13q19 0 29 4.5t13 19.5h72q0 -45 -34.5 -76.5t-82.5 -31.5q-27 0 -73 16q-37 13 -57 13q-19 0 -29 -5t-13 -20h-72q0 46 34.5 77zM341 773h-128l139 136h99l139 -136h-128l-60 59z
" />
    <glyph glyph-name="uni1ED7" unicode="&#x1ed7;" horiz-adv-x="618" 
d="M162 24q-63 32 -97 92t-34 141t34 141t97 92t148 32q84 0 146.5 -32.5t96.5 -92t34 -140.5t-34 -140.5t-96.5 -92t-146.5 -32.5q-85 0 -148 32zM408 257q0 66 -24.5 97.5t-73.5 31.5q-50 0 -75 -31.5t-25 -97.5q0 -67 25 -98.5t75 -31.5q98 0 98 130zM163.5 805
q34.5 31 82.5 31q17 0 36.5 -4.5t36.5 -10.5q37 -13 57 -13q19 0 29 4.5t13 19.5h72q0 -45 -34.5 -76.5t-82.5 -31.5q-17 0 -36.5 4.5t-36.5 10.5q-37 13 -57 13q-19 0 -29 -4.5t-13 -19.5h-72q0 46 34.5 77zM249 573h-128l139 136h99l139 -136h-128l-60 59z" />
    <glyph glyph-name="uni1ED8" unicode="&#x1ed8;" horiz-adv-x="805" 
d="M213 35.5q-81 44.5 -124.5 127.5t-43.5 194t44 193t124.5 126.5t189.5 44.5t189.5 -44.5t123.5 -126.5t43 -193t-43 -194t-123.5 -127.5t-189.5 -44.5t-190 44.5zM528.5 191q45.5 57 45.5 166q0 108 -45.5 164.5t-125.5 56.5t-125 -56t-45 -165q0 -110 45 -166.5
t125 -56.5t125.5 57zM323 -57h159v-151h-159v151zM344 773h-131l139 158h99l139 -158h-131l-57 78z" />
    <glyph glyph-name="uni1ED9" unicode="&#x1ed9;" horiz-adv-x="618" 
d="M162 24q-63 32 -97 92t-34 141t34 141t97 92t148 32q84 0 146.5 -32.5t96.5 -92t34 -140.5t-34 -140.5t-96.5 -92t-146.5 -32.5q-85 0 -148 32zM408 257q0 66 -24.5 97.5t-73.5 31.5q-50 0 -75 -31.5t-25 -97.5q0 -67 25 -98.5t75 -31.5q98 0 98 130zM230 -57h159v-151
h-159v151zM257 573h-136l136 208h105l136 -208h-136l-52 106z" />
    <glyph glyph-name="uni1EDA" unicode="&#x1eda;" horiz-adv-x="805" 
d="M729 690.5q-30 -42.5 -79 -56.5q109 -96 109 -277q0 -111 -43 -194t-123.5 -127.5t-189.5 -44.5t-190 44.5t-124.5 127.5t-43.5 194t44 193t125 126.5t191 44.5q30 0 62 -5q36 -4 58 -4q44 0 61.5 22t17.5 77v22h155v-43q0 -57 -30 -99.5zM528.5 191q45.5 57 45.5 166
q0 108 -45.5 164.5t-125.5 56.5t-125 -56t-45 -165q0 -110 45 -166.5t125 -56.5t125.5 57zM456 773h-109l104 158h162z" />
    <glyph glyph-name="uni1EDB" unicode="&#x1edb;" horiz-adv-x="618" 
d="M594.5 496.5q-26.5 -41.5 -72.5 -58.5q65 -66 65 -183q0 -80 -34 -139.5t-96.5 -91.5t-146.5 -32q-85 0 -148 32t-97 91.5t-34 139.5q0 82 34 142t96 92.5t145 32.5q21 0 68 -7q15 -3 22 -3q31 0 51 21t20 81v22h154v-43q0 -55 -26.5 -96.5zM408 257q0 66 -24.5 97.5
t-73.5 31.5q-50 0 -75 -31.5t-25 -97.5q0 -67 25 -98.5t75 -31.5q98 0 98 130zM364 573h-109l98 208h172z" />
    <glyph glyph-name="uni1EDC" unicode="&#x1edc;" horiz-adv-x="805" 
d="M729 690.5q-30 -42.5 -79 -56.5q109 -96 109 -277q0 -111 -43 -194t-123.5 -127.5t-189.5 -44.5t-190 44.5t-124.5 127.5t-43.5 194t44 193t125 126.5t191 44.5q30 0 62 -5q36 -4 58 -4q44 0 61.5 22t17.5 77v22h155v-43q0 -57 -30 -99.5zM528.5 191q45.5 57 45.5 166
q0 108 -45.5 164.5t-125.5 56.5t-125 -56t-45 -165q0 -110 45 -166.5t125 -56.5t125.5 57zM347 773l-157 158h162l104 -158h-109z" />
    <glyph glyph-name="uni1EDD" unicode="&#x1edd;" horiz-adv-x="618" 
d="M594.5 496.5q-26.5 -41.5 -72.5 -58.5q65 -66 65 -183q0 -80 -34 -139.5t-96.5 -91.5t-146.5 -32q-85 0 -148 32t-97 91.5t-34 139.5q0 82 34 142t96 92.5t145 32.5q21 0 68 -7q15 -3 22 -3q31 0 51 21t20 81v22h154v-43q0 -55 -26.5 -96.5zM408 257q0 66 -24.5 97.5
t-73.5 31.5q-50 0 -75 -31.5t-25 -97.5q0 -67 25 -98.5t75 -31.5q98 0 98 130zM255 573l-161 208h172l98 -208h-109z" />
    <glyph glyph-name="uni1EDE" unicode="&#x1ede;" horiz-adv-x="805" 
d="M729 690.5q-30 -42.5 -79 -56.5q109 -96 109 -277q0 -111 -43 -194t-123.5 -127.5t-189.5 -44.5t-190 44.5t-124.5 127.5t-43.5 194t44 193t125 126.5t191 44.5q30 0 62 -5q36 -4 58 -4q44 0 61.5 22t17.5 77v22h155v-43q0 -57 -30 -99.5zM528.5 191q45.5 57 45.5 166
q0 108 -45.5 164.5t-125.5 56.5t-125 -56t-45 -165q0 -110 45 -166.5t125 -56.5t125.5 57zM443 773h-84v23q0 18 12 27t33 18q21 7 21 14q0 16 -31 16q-24 0 -55 -10l-22 56q45 18 102 18q49 0 79.5 -19t30.5 -45q0 -19 -13.5 -30.5t-36.5 -21.5q-19 -9 -27.5 -15.5
t-8.5 -16.5v-14z" />
    <glyph glyph-name="uni1EDF" unicode="&#x1edf;" horiz-adv-x="618" 
d="M594.5 496.5q-26.5 -41.5 -72.5 -58.5q65 -66 65 -183q0 -80 -34 -139.5t-96.5 -91.5t-146.5 -32q-85 0 -148 32t-97 91.5t-34 139.5q0 82 34 142t96 92.5t145 32.5q21 0 68 -7q15 -3 22 -3q31 0 51 21t20 81v22h154v-43q0 -55 -26.5 -96.5zM408 257q0 66 -24.5 97.5
t-73.5 31.5q-50 0 -75 -31.5t-25 -97.5q0 -67 25 -98.5t75 -31.5q98 0 98 130zM354 573h-86v24q0 21 9 33.5t27 28.5q11 9 16 15t5 13q0 11 -7.5 16.5t-23.5 5.5q-24 0 -46 -8l-23 62q43 20 89 20q58 0 90.5 -23t32.5 -55q0 -24 -13 -39t-37 -32q-17 -11 -25 -19.5t-8 -18.5
v-23z" />
    <glyph glyph-name="uni1EE0" unicode="&#x1ee0;" horiz-adv-x="805" 
d="M729 690.5q-30 -42.5 -79 -56.5q109 -96 109 -277q0 -111 -43 -194t-123.5 -127.5t-189.5 -44.5t-190 44.5t-124.5 127.5t-43.5 194t44 193t125 126.5t191 44.5q30 0 62 -5q36 -4 58 -4q44 0 61.5 22t17.5 77v22h155v-43q0 -57 -30 -99.5zM528.5 191q45.5 57 45.5 166
q0 108 -45.5 164.5t-125.5 56.5t-125 -56t-45 -165q0 -110 45 -166.5t125 -56.5t125.5 57zM254 894.5q33 39.5 84 39.5q17 0 33 -6.5t40 -20.5q19 -11 32 -17t25 -6q17 0 28 12t14 35h72q0 -81 -33 -120.5t-84 -39.5q-17 0 -33 6.5t-40 20.5q-19 11 -32 17t-25 6
q-17 0 -28 -12t-14 -35h-72q0 81 33 120.5z" />
    <glyph glyph-name="uni1EE1" unicode="&#x1ee1;" horiz-adv-x="618" 
d="M594.5 496.5q-26.5 -41.5 -72.5 -58.5q65 -66 65 -183q0 -80 -34 -139.5t-96.5 -91.5t-146.5 -32q-85 0 -148 32t-97 91.5t-34 139.5q0 82 34 142t96 92.5t145 32.5q21 0 68 -7q15 -3 22 -3q31 0 51 21t20 81v22h154v-43q0 -55 -26.5 -96.5zM408 257q0 66 -24.5 97.5
t-73.5 31.5q-50 0 -75 -31.5t-25 -97.5q0 -67 25 -98.5t75 -31.5q98 0 98 130zM162 719.5q33 39.5 84 39.5q17 0 33 -6.5t40 -20.5q19 -11 32 -17t25 -6q17 0 28 12t14 35h72q0 -81 -33 -120.5t-84 -39.5q-17 0 -33 6.5t-40 20.5q-19 11 -32 17t-25 6q-17 0 -28 -12t-14 -35
h-72q0 81 33 120.5z" />
    <glyph glyph-name="uni1EE2" unicode="&#x1ee2;" horiz-adv-x="805" 
d="M729 690.5q-30 -42.5 -79 -56.5q109 -96 109 -277q0 -111 -43 -194t-123.5 -127.5t-189.5 -44.5t-190 44.5t-124.5 127.5t-43.5 194t44 193t125 126.5t191 44.5q30 0 62 -5q36 -4 58 -4q44 0 61.5 22t17.5 77v22h155v-43q0 -57 -30 -99.5zM528.5 191q45.5 57 45.5 166
q0 108 -45.5 164.5t-125.5 56.5t-125 -56t-45 -165q0 -110 45 -166.5t125 -56.5t125.5 57zM323 -57h159v-151h-159v151z" />
    <glyph glyph-name="uni1EE3" unicode="&#x1ee3;" horiz-adv-x="618" 
d="M594.5 496.5q-26.5 -41.5 -72.5 -58.5q65 -66 65 -183q0 -80 -34 -139.5t-96.5 -91.5t-146.5 -32q-85 0 -148 32t-97 91.5t-34 139.5q0 82 34 142t96 92.5t145 32.5q21 0 68 -7q15 -3 22 -3q31 0 51 21t20 81v22h154v-43q0 -55 -26.5 -96.5zM408 257q0 66 -24.5 97.5
t-73.5 31.5q-50 0 -75 -31.5t-25 -97.5q0 -67 25 -98.5t75 -31.5q98 0 98 130zM230 -57h159v-151h-159v151z" />
    <glyph glyph-name="uni1EE4" unicode="&#x1ee4;" horiz-adv-x="752" 
d="M141 69.5q-80 78.5 -80 230.5v412h183v-419q0 -77 34.5 -118t98.5 -41q63 0 97 41.5t34 117.5v419h185v-412q0 -150 -81.5 -229.5t-234.5 -79.5q-156 0 -236 78.5zM297 -57h159v-151h-159v151z" />
    <glyph glyph-name="uni1EE5" unicode="&#x1ee5;" horiz-adv-x="619" 
d="M565 508v-508h-177v68q-49 -76 -145 -76q-97 0 -144.5 54t-47.5 165v297h181v-302q0 -75 65 -75q38 0 61.5 27t23.5 72v278h183zM229 -57h159v-151h-159v151z" />
    <glyph glyph-name="uni1EE6" unicode="&#x1ee6;" horiz-adv-x="752" 
d="M141 69.5q-80 78.5 -80 230.5v412h183v-419q0 -77 34.5 -118t98.5 -41q63 0 97 41.5t34 117.5v419h185v-412q0 -150 -81.5 -229.5t-234.5 -79.5q-156 0 -236 78.5zM418 773h-84v23q0 18 12 27t33 18q21 7 21 14q0 16 -31 16q-24 0 -55 -10l-22 56q45 18 102 18
q49 0 79.5 -19t30.5 -45q0 -19 -13.5 -30.5t-36.5 -21.5q-19 -9 -27.5 -15.5t-8.5 -16.5v-14z" />
    <glyph glyph-name="uni1EE7" unicode="&#x1ee7;" horiz-adv-x="619" 
d="M565 508v-508h-177v68q-49 -76 -145 -76q-97 0 -144.5 54t-47.5 165v297h181v-302q0 -75 65 -75q38 0 61.5 27t23.5 72v278h183zM353 573h-86v24q0 21 9 33.5t27 28.5q11 9 16 15t5 13q0 11 -7.5 16.5t-23.5 5.5q-24 0 -46 -8l-23 62q43 20 89 20q58 0 90.5 -23t32.5 -55
q0 -24 -13 -39t-37 -32q-17 -11 -25 -19.5t-8 -18.5v-23z" />
    <glyph glyph-name="uni1EE8" unicode="&#x1ee8;" horiz-adv-x="752" 
d="M804 833v-43q0 -56 -30.5 -98.5t-80.5 -56.5v-335q0 -150 -81.5 -229.5t-234.5 -79.5q-156 0 -236 78.5t-80 230.5v412h183v-419q0 -77 34.5 -118t98.5 -41q63 0 97 41.5t34 117.5v419h54q49 0 68 21.5t19 77.5v22h155zM431 773h-109l104 158h162z" />
    <glyph glyph-name="uni1EE9" unicode="&#x1ee9;" horiz-adv-x="648" 
d="M679 636v-43q0 -58 -31.5 -101.5t-82.5 -57.5v-434h-177v68q-49 -76 -145 -76q-97 0 -144.5 54t-47.5 165v297h181v-302q0 -75 65 -75q38 0 61.5 27t23.5 72v278h52q50 0 70 24t20 82v22h155zM363 573h-109l98 208h172z" />
    <glyph glyph-name="uni1EEA" unicode="&#x1eea;" horiz-adv-x="752" 
d="M804 833v-43q0 -56 -30.5 -98.5t-80.5 -56.5v-335q0 -150 -81.5 -229.5t-234.5 -79.5q-156 0 -236 78.5t-80 230.5v412h183v-419q0 -77 34.5 -118t98.5 -41q63 0 97 41.5t34 117.5v419h54q49 0 68 21.5t19 77.5v22h155zM322 773l-157 158h162l104 -158h-109z" />
    <glyph glyph-name="uni1EEB" unicode="&#x1eeb;" horiz-adv-x="648" 
d="M679 636v-43q0 -58 -31.5 -101.5t-82.5 -57.5v-434h-177v68q-49 -76 -145 -76q-97 0 -144.5 54t-47.5 165v297h181v-302q0 -75 65 -75q38 0 61.5 27t23.5 72v278h52q50 0 70 24t20 82v22h155zM254 573l-161 208h172l98 -208h-109z" />
    <glyph glyph-name="uni1EEC" unicode="&#x1eec;" horiz-adv-x="752" 
d="M804 833v-43q0 -56 -30.5 -98.5t-80.5 -56.5v-335q0 -150 -81.5 -229.5t-234.5 -79.5q-156 0 -236 78.5t-80 230.5v412h183v-419q0 -77 34.5 -118t98.5 -41q63 0 97 41.5t34 117.5v419h54q49 0 68 21.5t19 77.5v22h155zM418 773h-84v23q0 18 12 27t33 18q21 7 21 14
q0 16 -31 16q-24 0 -55 -10l-22 56q45 18 102 18q49 0 79.5 -19t30.5 -45q0 -19 -13.5 -30.5t-36.5 -21.5q-19 -9 -27.5 -15.5t-8.5 -16.5v-14z" />
    <glyph glyph-name="uni1EED" unicode="&#x1eed;" horiz-adv-x="648" 
d="M679 636v-43q0 -58 -31.5 -101.5t-82.5 -57.5v-434h-177v68q-49 -76 -145 -76q-97 0 -144.5 54t-47.5 165v297h181v-302q0 -75 65 -75q38 0 61.5 27t23.5 72v278h52q50 0 70 24t20 82v22h155zM353 573h-86v24q0 21 9 33.5t27 28.5q11 9 16 15t5 13q0 11 -7.5 16.5
t-23.5 5.5q-24 0 -46 -8l-23 62q43 20 89 20q58 0 90.5 -23t32.5 -55q0 -24 -13 -39t-37 -32q-17 -11 -25 -19.5t-8 -18.5v-23z" />
    <glyph glyph-name="uni1EEE" unicode="&#x1eee;" horiz-adv-x="752" 
d="M804 833v-43q0 -56 -30.5 -98.5t-80.5 -56.5v-335q0 -150 -81.5 -229.5t-234.5 -79.5q-156 0 -236 78.5t-80 230.5v412h183v-419q0 -77 34.5 -118t98.5 -41q63 0 97 41.5t34 117.5v419h54q49 0 68 21.5t19 77.5v22h155zM229 894.5q33 39.5 84 39.5q17 0 33 -6.5t40 -20.5
q19 -11 32 -17t25 -6q17 0 28 12t14 35h72q0 -81 -33 -120.5t-84 -39.5q-17 0 -33 6.5t-40 20.5q-19 11 -32 17t-25 6q-17 0 -28 -12t-14 -35h-72q0 81 33 120.5z" />
    <glyph glyph-name="uni1EEF" unicode="&#x1eef;" horiz-adv-x="648" 
d="M679 636v-43q0 -58 -31.5 -101.5t-82.5 -57.5v-434h-177v68q-49 -76 -145 -76q-97 0 -144.5 54t-47.5 165v297h181v-302q0 -75 65 -75q38 0 61.5 27t23.5 72v278h52q50 0 70 24t20 82v22h155zM161 719.5q33 39.5 84 39.5q17 0 33 -6.5t40 -20.5q19 -11 32 -17t25 -6
q17 0 28 12t14 35h72q0 -81 -33 -120.5t-84 -39.5q-17 0 -33 6.5t-40 20.5q-19 11 -32 17t-25 6q-17 0 -28 -12t-14 -35h-72q0 81 33 120.5z" />
    <glyph glyph-name="uni1EF0" unicode="&#x1ef0;" horiz-adv-x="752" 
d="M804 833v-43q0 -56 -30.5 -98.5t-80.5 -56.5v-335q0 -150 -81.5 -229.5t-234.5 -79.5q-156 0 -236 78.5t-80 230.5v412h183v-419q0 -77 34.5 -118t98.5 -41q63 0 97 41.5t34 117.5v419h54q49 0 68 21.5t19 77.5v22h155zM297 -57h159v-151h-159v151z" />
    <glyph glyph-name="uni1EF1" unicode="&#x1ef1;" horiz-adv-x="648" 
d="M679 636v-43q0 -58 -31.5 -101.5t-82.5 -57.5v-434h-177v68q-49 -76 -145 -76q-97 0 -144.5 54t-47.5 165v297h181v-302q0 -75 65 -75q38 0 61.5 27t23.5 72v278h52q50 0 70 24t20 82v22h155zM229 -57h159v-151h-159v151z" />
    <glyph glyph-name="Ygrave" unicode="&#x1ef2;" horiz-adv-x="657" 
d="M724 712l-301 -440v-272h-189v273l-299 439h212l180 -284l183 284h214zM273 773l-157 158h162l104 -158h-109z" />
    <glyph glyph-name="ygrave" unicode="&#x1ef3;" horiz-adv-x="559" 
d="M579 508l-233 -526q-46 -103 -115.5 -150.5t-171.5 -59.5l-42 138q70 14 105 36t53 61l13 28l-207 473h188l114 -293l118 293h178zM224 573l-161 208h172l98 -208h-109z" />
    <glyph glyph-name="uni1EF4" unicode="&#x1ef4;" horiz-adv-x="657" 
d="M724 712l-301 -440v-272h-189v273l-299 439h212l180 -284l183 284h214zM249 -57h159v-151h-159v151z" />
    <glyph glyph-name="uni1EF5" unicode="&#x1ef5;" horiz-adv-x="559" 
d="M579 508l-233 -526q-46 -103 -115.5 -150.5t-171.5 -59.5l-42 138q70 14 105 36t53 61l13 28l-207 473h188l114 -293l118 293h178zM368 -57h159v-151h-159v151z" />
    <glyph glyph-name="uni1EF6" unicode="&#x1ef6;" horiz-adv-x="657" 
d="M724 712l-301 -440v-272h-189v273l-299 439h212l180 -284l183 284h214zM369 773h-84v23q0 18 12 27t33 18q21 7 21 14q0 16 -31 16q-24 0 -55 -10l-22 56q45 18 102 18q49 0 79.5 -19t30.5 -45q0 -19 -13.5 -30.5t-36.5 -21.5q-19 -9 -27.5 -15.5t-8.5 -16.5v-14z" />
    <glyph glyph-name="uni1EF7" unicode="&#x1ef7;" horiz-adv-x="559" 
d="M579 508l-233 -526q-46 -103 -115.5 -150.5t-171.5 -59.5l-42 138q70 14 105 36t53 61l13 28l-207 473h188l114 -293l118 293h178zM323 573h-86v24q0 21 9 33.5t27 28.5q11 9 16 15t5 13q0 11 -7.5 16.5t-23.5 5.5q-24 0 -46 -8l-23 62q43 20 89 20q58 0 90.5 -23
t32.5 -55q0 -24 -13 -39t-37 -32q-17 -11 -25 -19.5t-8 -18.5v-23z" />
    <glyph glyph-name="uni1EF8" unicode="&#x1ef8;" horiz-adv-x="657" 
d="M724 712l-301 -440v-272h-189v273l-299 439h212l180 -284l183 284h214zM180 894.5q33 39.5 84 39.5q17 0 33 -6.5t40 -20.5q19 -11 32 -17t25 -6q17 0 28 12t14 35h72q0 -81 -33 -120.5t-84 -39.5q-17 0 -33 6.5t-40 20.5q-19 11 -32 17t-25 6q-17 0 -28 -12t-14 -35h-72
q0 81 33 120.5z" />
    <glyph glyph-name="uni1EF9" unicode="&#x1ef9;" horiz-adv-x="559" 
d="M579 508l-233 -526q-46 -103 -115.5 -150.5t-171.5 -59.5l-42 138q70 14 105 36t53 61l13 28l-207 473h188l114 -293l118 293h178zM131 719.5q33 39.5 84 39.5q17 0 33 -6.5t40 -20.5q19 -11 32 -17t25 -6q17 0 28 12t14 35h72q0 -81 -33 -120.5t-84 -39.5q-17 0 -33 6.5
t-40 20.5q-19 11 -32 17t-25 6q-17 0 -28 -12t-14 -35h-72q0 81 33 120.5z" />
    <glyph glyph-name="uni2007" unicode="&#x2007;" horiz-adv-x="606" 
 />
    <glyph glyph-name="uni2008" unicode="&#x2008;" horiz-adv-x="276" 
 />
    <glyph glyph-name="uni2009" unicode="&#x2009;" horiz-adv-x="202" 
 />
    <glyph glyph-name="uni200A" unicode="&#x200a;" horiz-adv-x="101" 
 />
    <glyph glyph-name="uni200B" unicode="&#x200b;" 
 />
    <glyph glyph-name="uni2010" unicode="&#x2010;" horiz-adv-x="450" 
d="M64 201v140h324v-140h-324z" />
    <glyph glyph-name="figuredash" unicode="&#x2012;" horiz-adv-x="606" 
d="M64 220v103h478v-103h-478z" />
    <glyph glyph-name="endash" unicode="&#x2013;" horiz-adv-x="505" 
d="M0 220v103h505v-103h-505z" />
    <glyph glyph-name="emdash" unicode="&#x2014;" horiz-adv-x="1010" 
d="M0 220v103h1010v-103h-1010z" />
    <glyph glyph-name="uni2015" unicode="&#x2015;" horiz-adv-x="1010" 
d="M0 220v103h1010v-103h-1010z" />
    <glyph glyph-name="quoteleft" unicode="&#x2018;" horiz-adv-x="276" 
d="M232 564v-186h-189v116q0 65 23.5 117.5t79.5 109.5l68 -54q-55 -58 -68 -103h86z" />
    <glyph glyph-name="quoteright" unicode="&#x2019;" horiz-adv-x="276" 
d="M232 712v-116q0 -66 -23.5 -118.5t-80.5 -108.5l-67 54q28 29 44 53.5t23 49.5h-85v186h189z" />
    <glyph glyph-name="quotesinglbase" unicode="&#x201a;" horiz-adv-x="276" 
d="M232 186v-117q0 -65 -23.5 -118t-80.5 -108l-67 54q55 55 67 103h-85v186h189z" />
    <glyph glyph-name="quotedblleft" unicode="&#x201c;" horiz-adv-x="502" 
d="M232 564v-186h-189v116q0 65 23.5 117.5t79.5 109.5l68 -54q-55 -58 -68 -103h86zM458 564v-186h-189v116q0 65 23.5 117.5t79.5 109.5l68 -54q-55 -58 -68 -103h86z" />
    <glyph glyph-name="quotedblright" unicode="&#x201d;" horiz-adv-x="502" 
d="M232 712v-116q0 -66 -23.5 -118.5t-80.5 -108.5l-67 54q28 29 44 53.5t23 49.5h-85v186h189zM458 712v-116q0 -66 -23.5 -118.5t-80.5 -108.5l-67 54q28 29 44 53.5t23 49.5h-85v186h189z" />
    <glyph glyph-name="quotedblbase" unicode="&#x201e;" horiz-adv-x="502" 
d="M232 186v-117q0 -65 -23.5 -118t-80.5 -108l-67 54q55 55 67 103h-85v186h189zM458 186v-117q0 -65 -23.5 -118t-80.5 -108l-67 54q55 55 67 103h-85v186h189z" />
    <glyph glyph-name="dagger" unicode="&#x2020;" horiz-adv-x="375" 
d="M253 720v-121h101v-114h-101v-318h-132v318h-101v114h101v121h132z" />
    <glyph glyph-name="daggerdbl" unicode="&#x2021;" horiz-adv-x="375" 
d="M253 720v-119h101v-114h-101v-88h101v-112h-101v-121h-132v121h-101v112h101v88h-101v114h101v119h132z" />
    <glyph glyph-name="bullet" unicode="&#x2022;" horiz-adv-x="529" 
d="M174 112.5q-42 23.5 -67 65t-25 90.5q0 46 24 87.5t66 66.5t93 25q48 0 90 -23.5t67 -64.5t25 -91q0 -49 -24.5 -90t-66.5 -65t-91 -24t-91 23.5z" />
    <glyph glyph-name="ellipsis" unicode="&#x2026;" horiz-adv-x="826" 
d="M43 186h189v-186h-189v186zM319 186h188v-186h-188v186zM594 186h188v-186h-188v186z" />
    <glyph glyph-name="perthousand" unicode="&#x2030;" horiz-adv-x="1380" 
d="M79 345.5q-51 56.5 -51 162.5q0 104 51 160t140 56t140 -56.5t51 -160.5q0 -106 -51 -162t-140 -56t-140 56.5zM356 0h-152l414 712h151zM253 423.5q10 23.5 10 83.5q0 57 -11 81.5t-33 24.5t-32.5 -24.5t-10.5 -81.5q0 -59 10.5 -83t32.5 -24q24 0 34 23.5zM615 49.5
q-50 56.5 -50 162.5q0 104 50 160t139 56q90 0 140 -56t50 -161q0 -106 -50 -162t-140 -56q-89 0 -139 56.5zM1020 49.5q-50 56.5 -50 162.5q0 104 50 160t139 56q90 0 140.5 -56t50.5 -161q0 -106 -50.5 -162t-140.5 -56q-89 0 -139 56.5zM787.5 128q10.5 24 10.5 83
q0 57 -11 81.5t-33 24.5t-32.5 -24.5t-10.5 -81.5q0 -59 10.5 -83t32.5 -24q23 0 33.5 24zM1193 127.5q10 23.5 10 83.5q0 57 -11 81.5t-33 24.5t-32.5 -24.5t-10.5 -81.5q0 -59 10.5 -83t32.5 -24q24 0 34 23.5z" />
    <glyph glyph-name="minute" unicode="&#x2032;" horiz-adv-x="272" 
d="M76 402l-44 310h207l-42 -310h-121z" />
    <glyph glyph-name="second" unicode="&#x2033;" horiz-adv-x="494" 
d="M76 402l-44 310h207l-42 -310h-121zM298 402l-44 310h207l-42 -310h-121z" />
    <glyph glyph-name="guilsinglleft" unicode="&#x2039;" horiz-adv-x="324" 
d="M157 84l-138 183l137 185h148l-132 -184l131 -184h-146z" />
    <glyph glyph-name="guilsinglright" unicode="&#x203a;" horiz-adv-x="324" 
d="M168 84h-147l132 184l-133 184h149l136 -185z" />
    <glyph glyph-name="fraction" unicode="&#x2044;" horiz-adv-x="213" 
d="M-43 -32l-114 66l413 710l114 -66z" />
    <glyph glyph-name="uni2070" unicode="&#x2070;" horiz-adv-x="380" 
d="M58.5 337.5q-47.5 56.5 -47.5 162.5q0 104 47.5 160t131.5 56t131.5 -56t47.5 -161q0 -106 -47.5 -162t-131.5 -56t-131.5 56.5zM214.5 416q7.5 24 7.5 83q0 106 -32 106q-17 0 -25 -24.5t-8 -81.5q0 -59 8 -83t25 -24t24.5 24z" />
    <glyph glyph-name="uni2074" unicode="&#x2074;" horiz-adv-x="380" 
d="M381 450v-109h-59v-56h-133v56h-186v105l200 266h119v-262h59zM123 450h66v84z" />
    <glyph glyph-name="uni2075" unicode="&#x2075;" horiz-adv-x="380" 
d="M328.5 534q39.5 -36 39.5 -100q0 -72 -51 -113t-133 -41q-40 0 -85 9t-75 24l20 111q56 -28 123 -28q32 0 45 7t13 22q0 17 -12 23.5t-42 6.5q-32 0 -70 -7h-63v264h302v-118h-167v-32q22 8 58 8q58 0 97.5 -36z" />
    <glyph glyph-name="uni2076" unicode="&#x2076;" horiz-adv-x="380" 
d="M326 528q39 -33 39 -99q0 -71 -47 -109.5t-122 -38.5q-82 0 -131.5 53t-49.5 159q0 105 56.5 164t152.5 59q71 0 130 -34l-20 -111q-56 29 -108 29q-32 0 -48 -13t-20 -43q30 17 73 17q56 0 95 -33zM237 422q0 40 -37 40q-20 0 -30 -9.5t-10 -30.5q0 -39 37 -39
q40 0 40 39z" />
    <glyph glyph-name="uni2077" unicode="&#x2077;" horiz-adv-x="380" 
d="M22 712h337v-124l-160 -304l-175 1l169 303h-171v124z" />
    <glyph glyph-name="uni2078" unicode="&#x2078;" horiz-adv-x="380" 
d="M372 401q0 -56 -50.5 -88.5t-131.5 -32.5t-131.5 32.5t-50.5 88.5q0 41 21.5 68.5t66.5 36.5q-38 12 -57.5 37.5t-19.5 58.5q0 52 48 83t123 31t123 -31t48 -83q0 -34 -20 -60t-58 -36q89 -22 89 -105zM162.5 603.5q-11.5 -7.5 -11.5 -21.5q0 -12 8 -19.5t17.5 -12.5
t13.5 -7q20 9 29 17t9 22t-11 21.5t-27 7.5t-27.5 -7.5zM223.5 393.5q12.5 8.5 12.5 23.5t-11 24.5t-35 17.5q-25 -8 -36.5 -17.5t-11.5 -24.5t13.5 -23.5t34.5 -8.5t33.5 8.5z" />
    <glyph glyph-name="uni2079" unicode="&#x2079;" horiz-adv-x="380" 
d="M315.5 663.5q49.5 -52.5 49.5 -159.5q0 -105 -56.5 -164t-152.5 -59q-71 0 -129 34l18 111q58 -29 109 -29q32 0 47 13t20 43q-32 -16 -72 -16q-56 0 -95 32.5t-39 98.5q0 71 47 109.5t122 38.5q82 0 131.5 -52.5zM220 575q0 39 -37 39q-41 0 -41 -39q0 -19 10 -29.5
t28 -10.5q40 0 40 40z" />
    <glyph glyph-name="uni2080" unicode="&#x2080;" horiz-adv-x="380" 
d="M58.5 52.5q-47.5 56.5 -47.5 162.5q0 104 47.5 160t131.5 56t131.5 -56t47.5 -161q0 -106 -47.5 -162t-131.5 -56t-131.5 56.5zM214.5 131q7.5 24 7.5 83q0 106 -32 106q-17 0 -25 -24.5t-8 -81.5q0 -59 8 -83t25 -24t24.5 24z" />
    <glyph glyph-name="uni2081" unicode="&#x2081;" horiz-adv-x="380" 
d="M295 119h83v-119h-320v119h83v148l-78 -39v134l125 65h107v-308z" />
    <glyph glyph-name="uni2082" unicode="&#x2082;" horiz-adv-x="380" 
d="M357 119v-119h-318v112l129 133q27 31 27 49q0 23 -38 23q-51 0 -111 -31l-20 111q29 15 74.5 24.5t86.5 9.5q73 0 118 -34.5t45 -92.5q0 -36 -18 -67.5t-67 -74.5l-52 -43h144z" />
    <glyph glyph-name="uni2083" unicode="&#x2083;" horiz-adv-x="380" 
d="M343 183q21 -27 21 -65q0 -32 -20 -60.5t-60.5 -45.5t-100.5 -17q-43 0 -88.5 9t-74.5 24l19 111q58 -30 129 -30q29 0 40.5 6t11.5 18q0 24 -43 24h-78v116h66q25 0 33.5 4.5t8.5 17.5q0 10 -10.5 16t-31.5 6q-28 0 -59.5 -8.5t-59.5 -22.5l-20 111q29 15 73 24.5
t79 9.5q82 0 127 -35t45 -87q0 -31 -16.5 -54.5t-48.5 -33.5q37 -11 58 -38z" />
    <glyph glyph-name="uni2084" unicode="&#x2084;" horiz-adv-x="380" 
d="M381 165v-109h-59v-56h-133v56h-186v105l200 266h119v-262h59zM123 165h66v84z" />
    <glyph glyph-name="uni2085" unicode="&#x2085;" horiz-adv-x="380" 
d="M328.5 249q39.5 -36 39.5 -100q0 -72 -51 -113t-133 -41q-40 0 -85 9t-75 24l20 111q56 -28 123 -28q32 0 45 7t13 22q0 17 -12 23.5t-42 6.5q-32 0 -70 -7h-63v264h302v-118h-167v-32q22 8 58 8q58 0 97.5 -36z" />
    <glyph glyph-name="uni2086" unicode="&#x2086;" horiz-adv-x="380" 
d="M326 243q39 -33 39 -99q0 -71 -47 -109.5t-122 -38.5q-82 0 -131.5 53t-49.5 159q0 105 56.5 164t152.5 59q71 0 130 -34l-20 -111q-56 29 -108 29q-32 0 -48 -13t-20 -43q30 17 73 17q56 0 95 -33zM237 137q0 40 -37 40q-20 0 -30 -9.5t-10 -30.5q0 -39 37 -39
q40 0 40 39z" />
    <glyph glyph-name="uni2087" unicode="&#x2087;" horiz-adv-x="380" 
d="M22 427h337v-124l-160 -304l-175 1l169 303h-171v124z" />
    <glyph glyph-name="uni2088" unicode="&#x2088;" horiz-adv-x="380" 
d="M372 116q0 -56 -50.5 -88.5t-131.5 -32.5t-131.5 32.5t-50.5 88.5q0 41 21.5 68.5t66.5 36.5q-38 12 -57.5 37.5t-19.5 58.5q0 52 48 83t123 31t123 -31t48 -83q0 -34 -20 -60t-58 -36q89 -22 89 -105zM162.5 318.5q-11.5 -7.5 -11.5 -21.5q0 -12 8 -19.5t17.5 -12.5
t13.5 -7q20 9 29 17t9 22t-11 21.5t-27 7.5t-27.5 -7.5zM223.5 108.5q12.5 8.5 12.5 23.5t-11 24.5t-35 17.5q-25 -8 -36.5 -17.5t-11.5 -24.5t13.5 -23.5t34.5 -8.5t33.5 8.5z" />
    <glyph glyph-name="uni2089" unicode="&#x2089;" horiz-adv-x="380" 
d="M315.5 378.5q49.5 -52.5 49.5 -159.5q0 -105 -56.5 -164t-152.5 -59q-71 0 -129 34l18 111q58 -29 109 -29q32 0 47 13t20 43q-32 -16 -72 -16q-56 0 -95 32.5t-39 98.5q0 71 47 109.5t122 38.5q82 0 131.5 -52.5zM220 290q0 39 -37 39q-41 0 -41 -39q0 -19 10 -29.5
t28 -10.5q40 0 40 40z" />
    <glyph glyph-name="colonmonetary" unicode="&#x20a1;" horiz-adv-x="600" 
d="M258.5 518.5q-35.5 -55.5 -35.5 -161.5q0 -107 35.5 -163t103.5 -56q34 0 69 14t85 50l58 -133q-38 -36 -98 -57t-123 -21q-27 0 -59 5l-47 -120l-105 41l47 116q-21 12 -39 27l-51 -128l-105 37l78 194q-40 83 -40 194q0 98 31.5 174.5t90 124t137.5 60.5l45 112h118
l-43 -112q27 -4 46 -10l48 122h120l-68 -171q9 -6 17 -14l-58 -133q-50 36 -85 50t-69 14q-68 0 -103.5 -55.5z" />
    <glyph glyph-name="franc" unicode="&#x20a3;" horiz-adv-x="600" 
d="M599 504v-144h-9q-69 0 -98.5 -24t-29.5 -84v-252h-172v288h-81v-288h-177v712h451v-149h-274v-126h81v60h156v-98q16 62 47 83.5t92 21.5h14z" />
    <glyph glyph-name="lira" unicode="&#x20a4;" horiz-adv-x="600" 
d="M248 149h328v-149h-540v126q35 19 48.5 40t14.5 59h-63v106h63v51h-63v106h63v29q0 60 31 106.5t86.5 72t126.5 25.5t134.5 -19.5t110.5 -55.5l-58 -133q-49 31 -92.5 47t-77.5 16q-75 0 -75 -72v-16h154v-106h-154v-51h154v-106h-156q-6 -50 -35 -76z" />
    <glyph glyph-name="uni20A6" unicode="&#x20a6;" horiz-adv-x="600" 
d="M582 384h-77v-50h77v-107h-77v-227h-147l-112 326v-326h-151v227h-76v107h76v50h-76v107h76v221h146l112 -356v356h152v-221h77v-107z" />
    <glyph glyph-name="peseta" unicode="&#x20a7;" horiz-adv-x="1200" 
d="M1189.5 258q38.5 -35 38.5 -101q0 -49 -27 -86.5t-76.5 -58t-114.5 -20.5q-108 0 -188 41l-3 -37q-33 -4 -63 -4q-124 0 -179.5 51.5t-55.5 161.5v170h-53q-25 -70 -82.5 -111t-135.5 -41h-18v-223h-180v728h198q97 0 160.5 -60t72.5 -160h38v148h181v-148h97v-134h-97
v-171q0 -41 18.5 -61.5t57.5 -20.5q10 0 36 2l20 53q43 -26 89 -40t89 -14q24 0 39 8.5t15 22.5q0 12 -8 20t-28.5 14.5t-63.5 14.5q-82 16 -121 52.5t-39 97.5q0 47 28.5 86t77 61.5t106.5 22.5q50 0 102 -16.5t95 -44.5l-47 -120q-89 50 -157 50q-17 0 -29.5 -8.5
t-12.5 -22.5q0 -16 17 -25t71 -21q94 -21 132.5 -56zM300.5 389.5q16.5 25.5 16.5 84.5t-17 85.5t-56 26.5h-13v-222h13q40 0 56.5 25.5z" />
    <glyph glyph-name="uni20A9" unicode="&#x20a9;" horiz-adv-x="600" 
d="M582 384h-75l-7 -50h82v-107h-96l-31 -227h-87l-69 391l-69 -391h-87l-30 227h-94v107h79l-6 50h-73v107h58l-29 221h126l33 -342l52 342h81l51 -342l34 342h126l-30 -221h61v-107z" />
    <glyph glyph-name="dong" unicode="&#x20ab;" horiz-adv-x="600" 
d="M612 541h-66v-541h-179v65q-21 -33 -59 -53.5t-80 -20.5q-60 0 -105.5 33t-70 92.5t-24.5 137.5q0 117 53.5 186.5t146.5 69.5q41 0 78.5 -19.5t58.5 -51.5v102h-137v101h137v70h181v-70h66v-101zM344 161.5q23 34.5 23 89.5t-23 89.5t-57 34.5q-36 0 -57.5 -33
t-21.5 -88q0 -57 21.5 -92t57.5 -35q34 0 57 34.5zM55 -162v101h491v-101h-491z" />
    <glyph glyph-name="Euro" unicode="&#x20ac;" horiz-adv-x="600" 
d="M442 152q33 14 85 50l59 -133q-40 -36 -99.5 -57t-119.5 -21q-102 0 -170.5 61.5t-94.5 172.5h-83v106h69v26v25h-69v106h83q26 111 95 172t170 61q58 0 118.5 -21.5t100.5 -56.5l-59 -133q-52 36 -85 50t-65 14q-36 0 -58.5 -20.5t-33.5 -65.5h138v-106h-149v-25v-26
h149v-106h-138q11 -46 33 -66.5t59 -20.5q32 0 65 14z" />
    <glyph glyph-name="uni20AD" unicode="&#x20ad;" horiz-adv-x="600" 
d="M576 305h-135l184 -305h-199l-172 297v-297h-179v305h-56v101h56v306h179v-295l172 295h199l-183 -306h134v-101z" />
    <glyph glyph-name="uni20B1" unicode="&#x20b1;" horiz-adv-x="600" 
d="M582 489h-64q1 -8 1 -25t-1 -25h64v-107h-95q-28 -53 -79 -84.5t-119 -31.5h-13v-216h-181v332h-76v107h76v50h-76v107h76v116h194q69 0 120 -31t79 -85h94v-107zM333.5 380q16.5 24 16.5 83q0 60 -16.5 83.5t-49.5 23.5h-11v-214h11q33 0 49.5 24z" />
    <glyph glyph-name="uni20B2" unicode="&#x20b2;" horiz-adv-x="600" 
d="M570 43q-99 -36 -161 -46v-113h-142v116q-113 25 -177.5 119t-64.5 238q0 141 64 235t174 120v116h142v-112q47 -8 89.5 -26.5t72.5 -46.5l-58 -133q-51 36 -86 50t-68 14q-65 0 -102 -54t-37 -163q0 -110 36 -167t95 -57q23 0 55 8v134h-95v127h263v-359z" />
    <glyph glyph-name="uni20B5" unicode="&#x20b5;" horiz-adv-x="600" 
d="M574 69q-28 -27 -69.5 -45.5t-88.5 -27.5v-112h-142v116q-113 25 -177.5 119.5t-64.5 237.5q0 142 65 236t177 119v116h142v-112q47 -9 88.5 -27.5t69.5 -45.5l-58 -133q-59 42 -100 55v-418q41 13 100 55zM274 174v364q-51 -54 -51 -181t51 -183z" />
    <glyph glyph-name="uni20B9" unicode="&#x20b9;" horiz-adv-x="600" 
d="M603 0h-226l-152 227q-12 19 -27 28.5t-38 9.5h-142v143h206q67 0 91 42h-297v106h302q-21 50 -96 50h-206v106h565v-106h-104q14 -23 21 -50h83v-106h-79q-10 -64 -51.5 -107.5t-107.5 -60.5q37 -5 64 -22t50 -52z" />
    <glyph glyph-name="uni20BA" unicode="&#x20ba;" horiz-adv-x="600" 
d="M599 67q-94 -76 -254 -76q-115 0 -230 48v209l-63 -36v121l63 36v48l-63 -36v122l63 36v173h188v-67l148 83v-121l-148 -84v-47l148 84v-123l-148 -83v-205q14 -6 30.5 -8.5t46.5 -2.5q26 0 67.5 13.5t93.5 47.5z" />
    <glyph glyph-name="uni20BC" unicode="&#x20bc;" horiz-adv-x="600" 
d="M406 0q0 283 -8.5 402.5t-31.5 155.5v-277h-132v278q-16 -24 -24.5 -83t-12 -170t-3.5 -306h-183q0 261 24.5 412t71.5 217.5t121 82.5v116h144v-116q74 -16 120.5 -83t71 -217.5t24.5 -411.5h-182z" />
    <glyph glyph-name="uni20BD" unicode="&#x20bd;" horiz-adv-x="600" 
d="M276 296v-51h150v-106h-150v-139h-181v139h-76v106h76v51h-76v107h76v309h252q79 0 134.5 -27t84 -73t28.5 -103q0 -102 -63 -157.5t-184 -55.5h-71zM273 403h27q63 0 93.5 19t30.5 61q0 52 -27 73.5t-84 21.5h-40v-175z" />
    <glyph glyph-name="uni2113" unicode="&#x2113;" horiz-adv-x="606" 
d="M202 33q-42 51 -42 126v5l-51 -42l-55 59l106 91v247q0 57 23 102t64.5 70.5t96.5 25.5q69 0 107 -36t38 -106q0 -68 -33 -126t-96 -125l-34 -34v-98q0 -37 16.5 -56t40.5 -19q18 0 34.5 7.5t36.5 24.5l43 -95q-69 -72 -168 -72q-85 0 -127 51zM337 418q25 31 41 69
t16 67q0 19 -6 29t-23 10q-19 0 -29 -12t-10 -35v-139z" />
    <glyph glyph-name="uni2116" unicode="&#x2116;" horiz-adv-x="1153" 
d="M821.5 448.5q-45.5 45.5 -45.5 112.5q0 65 45.5 110.5t136.5 45.5t137 -45.5t46 -110.5q0 -67 -46 -112.5t-137 -45.5t-136.5 45.5zM524 310v402h177v-712h-139l-323 404v-404h-175v712h137zM921 561q0 -21 10 -33t27 -12q18 0 29.5 12t11.5 33q0 42 -41 42
q-37 0 -37 -42zM796 201v140h324v-140h-324z" />
    <glyph glyph-name="trademark" unicode="&#x2122;" horiz-adv-x="966" 
d="M17 582v130h380v-130h-108v-295h-164v295h-108zM783 712h122v-425h-141v147l-35 -67h-100l-35 66v-146h-141v425h127l100 -191z" />
    <glyph glyph-name="uni2126" unicode="&#x2126;" horiz-adv-x="833" 
d="M754 277.5q-36 -67.5 -106 -128.5h125v-149h-305v145q73 64 104 125.5t31 138.5q0 80 -49 124.5t-137 44.5t-137.5 -45t-49.5 -124q0 -77 32 -138.5t105 -125.5v-145h-306v149h124q-70 61 -106 128.5t-36 137.5q0 91 47 161t131.5 108t195.5 38t195.5 -38t131 -108
t46.5 -161q0 -70 -36 -137.5z" />
    <glyph glyph-name="estimated" unicode="&#x212e;" horiz-adv-x="903" 
d="M238 43q-91 48 -139 129t-48 176q0 96 49 181t139.5 136.5t210.5 51.5q146 0 236 -55t128 -141t38 -187h-649q-5 0 -5 -6v-173q0 -22 7 -30q40 -48 102.5 -73t141.5 -25q82 0 144.5 27.5t117.5 80.5h72q-62 -74 -136.5 -107t-194.5 -33q-123 0 -214 48zM700 366q5 0 5 6
v190q0 14 -10 26q-47 55 -113.5 76.5t-134.5 21.5q-64 0 -126.5 -22.5t-113.5 -73.5q-9 -9 -9 -27v-191q0 -6 5 -6h497z" />
    <glyph glyph-name="partialdiff" unicode="&#x2202;" horiz-adv-x="600" 
d="M394 730.5q81 -53.5 122.5 -147.5t41.5 -214q0 -189 -71 -287.5t-213 -98.5q-79 0 -139 32t-92 89.5t-32 133.5q0 73 29 132t80.5 93t117.5 34q89 0 134 -53q-1 93 -60.5 145.5t-175.5 52.5h-34v134q43 8 96 8q115 0 196 -53.5zM336 157q23 30 23 76q0 53 -22.5 85.5
t-60.5 32.5q-37 0 -59 -30t-22 -78q0 -52 21 -84t60 -32q37 0 60 30z" />
    <glyph glyph-name="emptyset" unicode="&#x2205;" horiz-adv-x="600" 
d="M102 126q-47 39 -74 93.5t-27 118.5q0 76 39.5 142t108 105.5t152.5 39.5q80 0 154 -40l81 103l56 -42l-82 -104q42 -39 65.5 -91.5t23.5 -112.5q0 -77 -40 -142t-108.5 -103.5t-149.5 -38.5q-72 0 -142 34l-81 -103l-57 38zM400 511q-45 24 -99 24q-57 0 -104.5 -25.5
t-74.5 -70.5t-27 -101q0 -41 16.5 -78.5t45.5 -63.5zM403 166.5q47 25.5 75 70.5t28 101q0 76 -51 133l-242 -312q41 -18 88 -18q55 0 102 25.5z" />
    <glyph glyph-name="uni2206" unicode="&#x2206;" horiz-adv-x="833" 
d="M754 277.5q-36 -67.5 -106 -128.5h125v-149h-305v145q73 64 104 125.5t31 138.5q0 80 -49 124.5t-137 44.5t-137.5 -45t-49.5 -124q0 -77 32 -138.5t105 -125.5v-145h-306v149h124q-70 61 -106 128.5t-36 137.5q0 91 47 161t131.5 108t195.5 38t195.5 -38t131 -108
t46.5 -161q0 -70 -36 -137.5z" />
    <glyph glyph-name="product" unicode="&#x220f;" horiz-adv-x="600" 
d="M546 712v-894h-167v749h-158v-749h-167v894h492z" />
    <glyph glyph-name="summation" unicode="&#x2211;" horiz-adv-x="621" 
d="M573 712v-149h-314l178 -241l-1 -113l-178 -242h315v-149h-527v135l228 312l-228 312v135h527z" />
    <glyph glyph-name="minus" unicode="&#x2212;" horiz-adv-x="600" 
d="M546 351v-121h-492v121h492z" />
    <glyph glyph-name="uni2215" unicode="&#x2215;" horiz-adv-x="600" 
d="M235 -83l-132 40l263 821l133 -40z" />
    <glyph glyph-name="uni2219" unicode="&#x2219;" horiz-adv-x="600" 
d="M206 365h188v-186h-188v186z" />
    <glyph glyph-name="radical" unicode="&#x221a;" horiz-adv-x="600" 
d="M578 766l-218 -968h-135l-114 432h-108v121h202l84 -348l162 763h127z" />
    <glyph glyph-name="infinity" unicode="&#x221e;" horiz-adv-x="600" 
d="M535 424q42 -50 42 -137q0 -88 -42.5 -137.5t-115.5 -49.5q-78 0 -119 74q-41 -74 -119 -74q-73 0 -115.5 49.5t-42.5 137.5q0 87 42 137t116 50q34 0 65 -17t54 -58q23 41 54 58t65 17q74 0 116 -50zM232.5 224q19.5 21 30.5 64q-11 41 -30.5 62t-43.5 21
q-29 0 -44.5 -23.5t-15.5 -60.5t15.5 -60.5t44.5 -23.5q24 0 43.5 21zM455.5 226.5q15.5 23.5 15.5 60.5t-15.5 60.5t-44.5 23.5q-24 0 -43.5 -21t-30.5 -62q11 -43 30.5 -64t43.5 -21q29 0 44.5 23.5z" />
    <glyph glyph-name="integral" unicode="&#x222b;" horiz-adv-x="600" 
d="M512 706v-139q-28 7 -48 7q-32 0 -52.5 -18t-20.5 -54v-476q0 -102 -53 -159.5t-155 -57.5q-58 0 -95 14v139q28 -7 48 -7q32 0 52.5 18t20.5 54v476q0 101 53 159t155 58q58 0 95 -14z" />
    <glyph glyph-name="approxequal" unicode="&#x2248;" horiz-adv-x="603" 
d="M548 416q-15 -51 -55 -82.5t-87 -31.5q-28 0 -54.5 9.5t-66.5 29.5q-29 14 -45.5 20.5t-30.5 6.5q-46 0 -65 -60l-88 60q15 52 54.5 83t86.5 31q29 0 56.5 -9.5t65.5 -28.5q27 -14 44 -20.5t31 -6.5q46 0 66 58zM548 214q-15 -51 -55 -82.5t-87 -31.5q-28 0 -54.5 9.5
t-66.5 29.5q-29 14 -45.5 20.5t-30.5 6.5q-46 0 -65 -60l-88 60q15 52 54.5 83t86.5 31q29 0 56.5 -9.5t65.5 -28.5q27 -14 44 -20.5t31 -6.5q46 0 66 58z" />
    <glyph glyph-name="notequal" unicode="&#x2260;" horiz-adv-x="600" 
d="M546 331h-169l-34 -81h203v-121h-253l-54 -129l-113 46l35 83h-107v121h157l34 81h-191v121h242l54 130l112 -47l-35 -83h119v-121z" />
    <glyph glyph-name="lessequal" unicode="&#x2264;" horiz-adv-x="600" 
d="M546 550v-126l-301 -79l301 -81v-126l-492 139v135zM54 0v121h492v-121h-492z" />
    <glyph glyph-name="greaterequal" unicode="&#x2265;" horiz-adv-x="600" 
d="M54 550l492 -138v-135l-492 -139v126l301 81l-301 79v126zM54 0v121h492v-121h-492z" />
    <glyph glyph-name="lozenge" unicode="&#x25ca;" horiz-adv-x="606" 
d="M563 282l-192 -484h-136l-193 484l193 484h136zM430 282l-127 329l-127 -329l127 -330z" />
    <glyph glyph-name="uniF8FF" unicode="&#xf8ff;" horiz-adv-x="665" 
d="M138 1l71 226l-192 146h239l74 226l78 -226h239l-192 -146l71 -226l-196 136zM264 200h28v76l29 -55h23l30 55v-76h28v131h-27l-42 -79l-42 79h-27v-131z" />
    <glyph glyph-name="Iacute_J.loclNLD" horiz-adv-x="719" 
d="M64 0v712h188v-712h-188zM211 773h-109l104 158h162zM318 -29q50 -5 73 -5q45 0 60 18t15 69v659h188v-656q0 -126 -51 -185t-175 -59q-49 0 -110 9v150zM613 773h-109l104 158h162z" />
    <glyph glyph-name="i.loclTRK" horiz-adv-x="289" 
d="M54 0v508h181v-508h-181zM49 757h189v-163h-189v163z" />
    <glyph glyph-name="iacute_j.loclNLD" horiz-adv-x="578" 
d="M54 0v508h181v-508h-181zM198 573h-109l98 208h172zM269 -79q32 0 53 18.5t21 56.5v512h181v-514q0 -103 -53.5 -161t-156.5 -58q-58 0 -94 14v139q29 -7 49 -7zM486 573h-109l98 208h172z" />
    <glyph glyph-name="I_J.loclNLD" horiz-adv-x="719" 
d="M64 0v712h188v-712h-188zM318 -29q50 -5 73 -5q45 0 60 18t15 69v659h188v-656q0 -126 -51 -185t-175 -59q-49 0 -110 9v150z" />
    <glyph glyph-name="i_j.loclNLD" horiz-adv-x="578" 
d="M54 0v508h181v-508h-181zM49 757h189v-163h-189v163zM269 -79q32 0 53 18.5t21 56.5v512h181v-514q0 -103 -53.5 -161t-156.5 -58q-58 0 -94 14v139q29 -7 49 -7zM337 757h189v-163h-189v163z" />
    <glyph glyph-name="zero.dnom" horiz-adv-x="380" 
d="M58.5 52.5q-47.5 56.5 -47.5 162.5q0 104 47.5 160t131.5 56t131.5 -56t47.5 -161q0 -106 -47.5 -162t-131.5 -56t-131.5 56.5zM214.5 131q7.5 24 7.5 83q0 106 -32 106q-17 0 -25 -24.5t-8 -81.5q0 -59 8 -83t25 -24t24.5 24z" />
    <glyph glyph-name="one.dnom" horiz-adv-x="380" 
d="M295 119h83v-119h-320v119h83v148l-78 -39v134l125 65h107v-308z" />
    <glyph glyph-name="two.dnom" horiz-adv-x="380" 
d="M357 119v-119h-318v112l129 133q27 31 27 49q0 23 -38 23q-51 0 -111 -31l-20 111q29 15 74.5 24.5t86.5 9.5q73 0 118 -34.5t45 -92.5q0 -36 -18 -67.5t-67 -74.5l-52 -43h144z" />
    <glyph glyph-name="three.dnom" horiz-adv-x="380" 
d="M343 183q21 -27 21 -65q0 -32 -20 -60.5t-60.5 -45.5t-100.5 -17q-43 0 -88.5 9t-74.5 24l19 111q58 -30 129 -30q29 0 40.5 6t11.5 18q0 24 -43 24h-78v116h66q25 0 33.5 4.5t8.5 17.5q0 10 -10.5 16t-31.5 6q-28 0 -59.5 -8.5t-59.5 -22.5l-20 111q29 15 73 24.5
t79 9.5q82 0 127 -35t45 -87q0 -31 -16.5 -54.5t-48.5 -33.5q37 -11 58 -38z" />
    <glyph glyph-name="four.dnom" horiz-adv-x="380" 
d="M381 165v-109h-59v-56h-133v56h-186v105l200 266h119v-262h59zM123 165h66v84z" />
    <glyph glyph-name="five.dnom" horiz-adv-x="380" 
d="M328.5 249q39.5 -36 39.5 -100q0 -72 -51 -113t-133 -41q-40 0 -85 9t-75 24l20 111q56 -28 123 -28q32 0 45 7t13 22q0 17 -12 23.5t-42 6.5q-32 0 -70 -7h-63v264h302v-118h-167v-32q22 8 58 8q58 0 97.5 -36z" />
    <glyph glyph-name="six.dnom" horiz-adv-x="380" 
d="M326 243q39 -33 39 -99q0 -71 -47 -109.5t-122 -38.5q-82 0 -131.5 53t-49.5 159q0 105 56.5 164t152.5 59q71 0 130 -34l-20 -111q-56 29 -108 29q-32 0 -48 -13t-20 -43q30 17 73 17q56 0 95 -33zM237 137q0 40 -37 40q-20 0 -30 -9.5t-10 -30.5q0 -39 37 -39
q40 0 40 39z" />
    <glyph glyph-name="seven.dnom" horiz-adv-x="380" 
d="M22 427h337v-124l-160 -304l-175 1l169 303h-171v124z" />
    <glyph glyph-name="eight.dnom" horiz-adv-x="380" 
d="M372 116q0 -56 -50.5 -88.5t-131.5 -32.5t-131.5 32.5t-50.5 88.5q0 41 21.5 68.5t66.5 36.5q-38 12 -57.5 37.5t-19.5 58.5q0 52 48 83t123 31t123 -31t48 -83q0 -34 -20 -60t-58 -36q89 -22 89 -105zM162.5 318.5q-11.5 -7.5 -11.5 -21.5q0 -12 8 -19.5t17.5 -12.5
t13.5 -7q20 9 29 17t9 22t-11 21.5t-27 7.5t-27.5 -7.5zM223.5 108.5q12.5 8.5 12.5 23.5t-11 24.5t-35 17.5q-25 -8 -36.5 -17.5t-11.5 -24.5t13.5 -23.5t34.5 -8.5t33.5 8.5z" />
    <glyph glyph-name="nine.dnom" horiz-adv-x="380" 
d="M315.5 378.5q49.5 -52.5 49.5 -159.5q0 -105 -56.5 -164t-152.5 -59q-71 0 -129 34l18 111q58 -29 109 -29q32 0 47 13t20 43q-32 -16 -72 -16q-56 0 -95 32.5t-39 98.5q0 71 47 109.5t122 38.5q82 0 131.5 -52.5zM220 290q0 39 -37 39q-41 0 -41 -39q0 -19 10 -29.5
t28 -10.5q40 0 40 40z" />
    <glyph glyph-name="zero.numr" horiz-adv-x="380" 
d="M58.5 337.5q-47.5 56.5 -47.5 162.5q0 104 47.5 160t131.5 56t131.5 -56t47.5 -161q0 -106 -47.5 -162t-131.5 -56t-131.5 56.5zM214.5 416q7.5 24 7.5 83q0 106 -32 106q-17 0 -25 -24.5t-8 -81.5q0 -59 8 -83t25 -24t24.5 24z" />
    <glyph glyph-name="one.numr" horiz-adv-x="380" 
d="M295 404h83v-119h-320v119h83v148l-78 -39v134l125 65h107v-308z" />
    </font>
</defs>
</svg>
