<?xml version="1.0" standalone="no"?>
<!DOCTYPE svg PUBLIC "-//W3C//DTD SVG 1.1//EN" "http://www.w3.org/Graphics/SVG/1.1/DTD/svg11.dtd" >
<svg xmlns="http://www.w3.org/2000/svg" xmlns:xlink="http://www.w3.org/1999/xlink" version="1.1">
<metadata>
Created by FontForge 20161013 at Thu Oct  6 17:43:03 2016
 By ,,,
Copyright 2016 The Muli Project Authors (contact@sansoxygen.com)
</metadata>
<defs>
<font id="Muli-ExtraBold" horiz-adv-x="0" >
  <font-face 
    font-family="Muli ExtraBold"
    font-weight="800"
    font-stretch="normal"
    units-per-em="1000"
    panose-1="0 0 9 0 0 0 0 0 0 0"
    ascent="800"
    descent="-200"
    x-height="506"
    cap-height="712"
    bbox="-357 -278 1336 1092"
    underline-thickness="50"
    underline-position="-150"
    unicode-range="U+000D-FB02"
  />
<missing-glyph horiz-adv-x="476" 
d="M390 736v-952h-301v952h301zM317 672h-157v-31h62v-35h-63v-32h158v32h-63v35h63v31zM254 549h-95v-99h158v33h-63v66zM222 517v-34h-32v34h32zM317 425h-158v-32h63v-35h-63v-31h95v66h63v32zM317 368h-31v-63h-127v-33h158v96zM317 251h-95v-53h32v22h32v-45h-96v76
h-31v-107h158v107zM317 87h-158v-108h158v108zM286 55v-44h-96v44h96zM317 -43h-158v-31h67l-67 -45v-31h158v31h-97l67 45h30v31z" />
    <glyph glyph-name="fi" unicode="fi" horiz-adv-x="658" 
d="M439 750h165v-145h-165v145zM251 507h346v-507h-152v394h-194v-394h-151v394h-96v113h96v41q0 72 22.5 113t73.5 59.5t139 18.5h40v-109h-24q-44 0 -64.5 -7t-28 -26.5t-7.5 -61.5v-28z" />
    <glyph glyph-name="fl" unicode="fl" horiz-adv-x="659" 
d="M271 597.5q-21 -19.5 -21 -62.5v-28h106v-113h-106v-394h-151v394h-95v113h95v32q0 96 49 149t142 53q52 0 86 -13v-118q-29 7 -49 7q-35 0 -56 -19.5zM446 0v736h151v-736h-151z" />
    <glyph glyph-name=".notdef" horiz-adv-x="476" 
d="M390 736v-952h-301v952h301zM317 672h-157v-31h62v-35h-63v-32h158v32h-63v35h63v31zM254 549h-95v-99h158v33h-63v66zM222 517v-34h-32v34h32zM317 425h-158v-32h63v-35h-63v-31h95v66h63v32zM317 368h-31v-63h-127v-33h158v96zM317 251h-95v-53h32v22h32v-45h-96v76
h-31v-107h158v107zM317 87h-158v-108h158v108zM286 55v-44h-96v44h96zM317 -43h-158v-31h67l-67 -45v-31h158v31h-97l67 45h30v31z" />
    <glyph glyph-name=".null" 
 />
    <glyph glyph-name="nonmarkingreturn" unicode="&#xd;" horiz-adv-x="281" 
 />
    <glyph glyph-name="NULL" 
 />
    <glyph glyph-name="NULL" 
 />
    <glyph glyph-name="space" unicode=" " horiz-adv-x="281" 
 />
    <glyph glyph-name="exclam" unicode="!" horiz-adv-x="262" 
d="M85 229l-48 484l187 -1l-47 -483h-92zM49 161h163v-161h-163v161z" />
    <glyph glyph-name="quotedbl" unicode="&#x22;" horiz-adv-x="473" 
d="M79 411l-38 301h174l-35 -301h-101zM295 411l-38 301h174l-35 -301h-101z" />
    <glyph glyph-name="numbersign" unicode="#" horiz-adv-x="606" 
d="M557 460h-78l-39 -199h94v-94h-113l-33 -167h-101l33 167h-109l-33 -167h-101l33 167h-60v94h79l39 199h-96v93h115l31 159h101l-31 -159h109l31 159h101l-31 -159h59v-93zM339 261l39 199h-109l-39 -199h109z" />
    <glyph glyph-name="dollar" unicode="$" horiz-adv-x="600" 
d="M522 69.5q-56 -56.5 -151 -72.5v-113h-122v109q-138 13 -221 78l51 112q82 -60 181 -69v180q-68 18 -114 39t-77.5 61.5t-31.5 107.5q0 81 58.5 139.5t153.5 74.5v112h122v-111q57 -8 108 -27.5t83 -48.5l-51 -112q-72 52 -150 66v-186q66 -16 111 -36.5t75.5 -60.5
t30.5 -105q0 -81 -56 -137.5zM210.5 467.5q17.5 -17.5 49.5 -29.5v154q-32 -9 -49.5 -29.5t-17.5 -50.5q0 -27 17.5 -44.5zM422 200q0 23 -15.5 38.5t-45.5 27.5v-144q61 18 61 78z" />
    <glyph glyph-name="percent" unicode="%" horiz-adv-x="964" 
d="M86 344q-49 56 -49 163q0 104 49 160t135 56q87 0 136 -56t49 -161q0 -106 -49 -162t-136 -56q-86 0 -135 56zM340 0h-130l413 712h130zM267.5 411.5q14.5 28.5 14.5 94.5q0 65 -15 93.5t-46 28.5q-30 0 -44.5 -28.5t-14.5 -93.5q0 -66 14 -94.5t45 -28.5q32 0 46.5 28.5
zM606.5 49q-48.5 56 -48.5 163q0 105 48.5 160.5t134.5 55.5q88 0 136.5 -55.5t48.5 -161.5t-48.5 -162t-136.5 -56q-86 0 -134.5 56zM787.5 116.5q14.5 28.5 14.5 94.5q0 65 -15 93.5t-46 28.5q-30 0 -44.5 -28.5t-14.5 -93.5q0 -66 14 -94.5t45 -28.5q32 0 46.5 28.5z" />
    <glyph glyph-name="ampersand" unicode="&#x26;" horiz-adv-x="698" 
d="M653 -10q-94 29 -154 82q-94 -80 -213 -80q-75 0 -132.5 25t-89.5 70.5t-32 103.5q0 64 34 113t107 91q-69 73 -69 150q0 51 26 90.5t72.5 61.5t107.5 22q85 0 136 -43.5t51 -116.5q0 -56 -31 -100t-97 -82l123 -121q38 81 44 179h125q-8 -154 -79 -267q62 -53 143 -74z
M259 598.5q-20 -19.5 -20 -52.5q0 -20 11.5 -40t41.5 -52q46 25 65.5 48t19.5 51q0 30 -18 47.5t-47 17.5q-33 0 -53 -19.5zM209 132q30 -25 81 -25q68 0 125 48l-164 162q-37 -24 -54.5 -52.5t-17.5 -64.5q0 -43 30 -68z" />
    <glyph glyph-name="quotesingle" unicode="'" horiz-adv-x="257" 
d="M79 411l-38 301h174l-35 -301h-101z" />
    <glyph glyph-name="parenleft" unicode="(" horiz-adv-x="378" 
d="M130 45q-30 104 -30 221t30.5 224t101.5 222h120q-55 -138 -75.5 -239t-20.5 -207q0 -105 20.5 -206t73.5 -242h-119q-71 123 -101 227z" />
    <glyph glyph-name="parenright" unicode=")" horiz-adv-x="378" 
d="M27 -182q54 140 74.5 241.5t20.5 206.5q0 106 -20.5 207t-75.5 239h119q71 -115 101.5 -222t30.5 -224t-30 -221t-101 -227h-119z" />
    <glyph glyph-name="asterisk" unicode="*" horiz-adv-x="459" 
d="M154 336l-83 61l88 108l-136 35l33 99l129 -51l-7 139h103l-9 -138l131 50l32 -99l-136 -35l89 -108l-84 -61l-75 117z" />
    <glyph glyph-name="plus" unicode="+" horiz-adv-x="600" 
d="M546 341v-103h-194v-195h-104v195h-194v103h194v195h104v-195h194z" />
    <glyph glyph-name="comma" unicode="," horiz-adv-x="262" 
d="M212 161v-103q0 -59 -20.5 -106.5t-69.5 -95.5l-59 46q49 51 61 98h-75v161h163z" />
    <glyph glyph-name="hyphen" unicode="-" horiz-adv-x="444" 
d="M67 211v119h311v-119h-311z" />
    <glyph glyph-name="period" unicode="." horiz-adv-x="262" 
d="M49 161h163v-161h-163v161z" />
    <glyph glyph-name="slash" unicode="/" horiz-adv-x="333" 
d="M97 -61h-124l262 816h125z" />
    <glyph glyph-name="zero" unicode="0" horiz-adv-x="600" 
d="M102.5 85q-68.5 94 -68.5 272q0 176 68.5 269t197.5 93t197.5 -93t68.5 -269q0 -178 -68.5 -272t-197.5 -94t-197.5 94zM386 169q27 58 27 188q0 127 -27 184.5t-86 57.5t-86 -57.5t-27 -184.5q0 -130 27 -188t86 -58t86 58z" />
    <glyph glyph-name="one" unicode="1" horiz-adv-x="600" 
d="M413 125h154v-125h-464v125h154v413l-144 -85v137l209 122h91v-587z" />
    <glyph glyph-name="two" unicode="2" horiz-adv-x="601" 
d="M554 125v-125h-489v115l237 252q74 80 74 146q0 42 -24.5 63.5t-71.5 21.5q-91 0 -189 -69l-50 112q43 37 110 58.5t136 21.5q111 0 176.5 -53.5t65.5 -143.5q0 -62 -25.5 -114.5t-85.5 -116.5l-161 -168h297z" />
    <glyph glyph-name="three" unicode="3" horiz-adv-x="600" 
d="M513.5 303.5q33.5 -44.5 33.5 -109.5q0 -94 -71 -148t-193 -54q-74 0 -142 21.5t-110 58.5l50 112q95 -69 195 -69q65 0 94.5 22.5t29.5 71.5q0 47 -29.5 68.5t-94.5 21.5h-102v122h85q62 0 92 21.5t30 65.5t-26.5 67t-75.5 23q-46 0 -94 -17.5t-94 -51.5l-50 112
q43 37 110 58.5t138 21.5q72 0 126.5 -24t84 -67t29.5 -101t-29 -100.5t-82 -62.5q62 -18 95.5 -62.5z" />
    <glyph glyph-name="four" unicode="4" horiz-adv-x="600" 
d="M582 251v-121h-97v-130h-153v130h-299v116l327 466h125v-461h97zM176 251h156v224z" />
    <glyph glyph-name="five" unicode="5" horiz-adv-x="600" 
d="M460.5 432.5q51.5 -28.5 80 -80.5t28.5 -120q0 -72 -33.5 -126.5t-96 -84t-145.5 -29.5q-68 0 -134.5 22t-107.5 58l50 112q95 -69 194 -69q125 0 125 111q0 53 -32.5 83.5t-88.5 30.5q-35 0 -70.5 -13t-63.5 -36h-89v421h457v-120h-305v-159q47 28 114 28
q66 0 117.5 -28.5z" />
    <glyph glyph-name="six" unicode="6" horiz-adv-x="600" 
d="M463.5 433.5q49.5 -29.5 77 -82t27.5 -119.5q0 -69 -31.5 -124t-87 -86t-125.5 -31q-139 0 -214 92t-75 262q0 117 36 201.5t103 129.5t160 45q66 0 128 -21t106 -59l-51 -112q-90 69 -176 69q-70 0 -109 -56.5t-43 -165.5q23 40 66.5 63.5t96.5 23.5q62 0 111.5 -29.5z
M391.5 144q28.5 31 28.5 82q0 53 -28 83.5t-77 30.5q-48 0 -77.5 -31.5t-29.5 -82.5q0 -50 30 -81.5t77 -31.5q48 0 76.5 31z" />
    <glyph glyph-name="seven" unicode="7" horiz-adv-x="600" 
d="M45 712h511v-116l-317 -596h-167l316 587h-343v125z" />
    <glyph glyph-name="eight" unicode="8" horiz-adv-x="600" 
d="M535 304q38 -45 38 -110q0 -62 -34.5 -107.5t-96.5 -70t-142 -24.5t-142 24.5t-96.5 70t-34.5 107.5q0 65 38.5 110.5t106.5 62.5q-60 20 -94 62t-34 99q0 58 33 102t91.5 67.5t131.5 23.5t131.5 -23.5t91.5 -67.5t33 -102t-34.5 -101t-93.5 -60q69 -18 107 -63z
M220.5 578q-29.5 -23 -29.5 -67q0 -42 29.5 -67.5t79.5 -35.5q50 10 79.5 35.5t29.5 67.5q0 44 -29.5 67t-79.5 23t-79.5 -23zM393.5 136q34.5 24 34.5 70q0 43 -34.5 70t-93.5 36q-59 -9 -93.5 -36t-34.5 -70q0 -46 34.5 -70t93.5 -24t93.5 24z" />
    <glyph glyph-name="nine" unicode="9" horiz-adv-x="600" 
d="M490 629q75 -92 75 -262q0 -117 -36 -201.5t-103 -129.5t-160 -45q-66 0 -128 21t-106 59l51 112q91 -69 176 -69q70 0 108.5 56.5t42.5 165.5q-23 -40 -66 -63.5t-96 -23.5q-62 0 -111.5 29.5t-77 82t-27.5 119.5q0 69 31.5 124t87 86t125.5 31q139 0 214 -92z
M362.5 403.5q29.5 31.5 29.5 82.5q0 50 -30 81.5t-77 31.5q-48 0 -76.5 -31t-28.5 -82q0 -53 28 -83.5t77 -30.5q48 0 77.5 31.5z" />
    <glyph glyph-name="colon" unicode=":" horiz-adv-x="262" 
d="M49 496h163v-161h-163v161zM49 161h163v-161h-163v161z" />
    <glyph glyph-name="semicolon" unicode=";" horiz-adv-x="262" 
d="M49 496h163v-161h-163v161zM49 161h163v-103q0 -59 -20.5 -106.5t-69.5 -95.5l-59 46q49 51 61 98h-75v161z" />
    <glyph glyph-name="less" unicode="&#x3c;" horiz-adv-x="600" 
d="M546 547v-113l-360 -145l360 -145v-113l-492 202v114z" />
    <glyph glyph-name="equal" unicode="=" horiz-adv-x="600" 
d="M546 442v-103h-492v103h492zM546 240v-103h-492v103h492z" />
    <glyph glyph-name="greater" unicode="&#x3e;" horiz-adv-x="600" 
d="M54 547l492 -200v-114l-492 -202v113l360 145l-360 145v113z" />
    <glyph glyph-name="question" unicode="?" horiz-adv-x="473" 
d="M242 721q65 0 115 -21.5t78 -60.5t28 -89q0 -53 -26 -90.5t-76 -84.5q-39 -37 -58.5 -62t-24.5 -55l-5 -33h-89v50q0 52 18.5 86t54.5 76q26 30 39 51.5t13 47.5q0 30 -20.5 46t-58.5 16q-72 0 -141 -43v125q66 41 153 41zM149 0v161h163v-161h-163z" />
    <glyph glyph-name="at" unicode="@" horiz-adv-x="948" 
d="M249 -106q-100 54 -154 151t-54 223q0 139 57.5 241t158.5 156t229 54q132 0 227 -49t144.5 -134.5t49.5 -192.5q0 -88 -27 -151t-74 -95.5t-108 -32.5q-53 0 -86.5 23t-41.5 62h-2q-27 -40 -61.5 -62.5t-85.5 -22.5q-75 0 -116.5 49.5t-41.5 132.5q0 72 27 131.5
t75 93.5t110 34q41 0 72.5 -17t44.5 -49h3l10 57h108l-42 -238q-5 -30 -5 -48q0 -30 12 -45t39 -15q19 0 39.5 19.5t34.5 63t14 110.5q0 85 -36 149t-108 99.5t-175 35.5q-97 0 -173.5 -42.5t-119.5 -123.5t-43 -193q0 -101 40 -177t115.5 -117.5t178.5 -41.5q74 0 127.5 18
t79.5 50h140q-39 -72 -129.5 -116t-217.5 -44q-135 0 -235 54zM515 175q29 25 43.5 65t14.5 85q0 46 -21 69.5t-58 23.5q-38 0 -65.5 -25.5t-41.5 -65t-14 -81.5q0 -43 19.5 -69.5t52.5 -26.5q41 0 70 25z" />
    <glyph glyph-name="A" unicode="A" horiz-adv-x="759" 
d="M615 0l-68 158h-333l-68 -158h-157l327 712h126l327 -712h-154zM266 277h230l-115 267z" />
    <glyph glyph-name="B" unicode="B" horiz-adv-x="696" 
d="M624 305q34 -45 34 -110q0 -90 -67 -142.5t-182 -52.5h-338v712h328q111 0 175.5 -49.5t64.5 -135.5q0 -56 -29.5 -98t-81.5 -61q62 -18 96 -63zM223 422h150q60 0 89.5 20.5t29.5 63.5q0 44 -29.5 65t-89.5 21h-150v-170zM482.5 141.5q28.5 21.5 28.5 68.5
q0 48 -28.5 70t-91.5 22h-168v-182h168q63 0 91.5 21.5z" />
    <glyph glyph-name="C" unicode="C" horiz-adv-x="685" 
d="M216.5 36.5q-80.5 45.5 -123.5 128t-43 192.5q0 109 43 191.5t123.5 127.5t188.5 45q71 0 135.5 -21.5t105.5 -60.5l-49 -112q-48 36 -93.5 52.5t-95.5 16.5q-96 0 -147 -61t-51 -178q0 -118 51 -179.5t147 -61.5q50 0 95.5 16.5t93.5 52.5l49 -112q-41 -39 -105.5 -60.5
t-135.5 -21.5q-108 0 -188.5 45.5z" />
    <glyph glyph-name="D" unicode="D" horiz-adv-x="771" 
d="M71 712h275q117 0 201 -42t128.5 -122t44.5 -191q0 -112 -44 -192t-128 -122.5t-202 -42.5h-275v712zM336 126q228 0 228 231q0 229 -228 229h-109v-460h109z" />
    <glyph glyph-name="E" unicode="E" horiz-adv-x="599" 
d="M71 0v712h491v-121h-339v-168h318v-122h-318v-180h339v-121h-491z" />
    <glyph glyph-name="F" unicode="F" horiz-adv-x="578" 
d="M71 0v712h480v-123h-326v-165h306v-124h-306v-300h-154z" />
    <glyph glyph-name="G" unicode="G" horiz-adv-x="745" 
d="M682 393v-349q-52 -25 -121.5 -39t-142.5 -14q-113 0 -196 44t-127.5 126t-44.5 196q0 111 44.5 193t126 126.5t190.5 44.5q77 0 143.5 -21t109.5 -59l-50 -112q-50 36 -97 52t-102 16q-206 0 -206 -240q0 -245 215 -245q59 0 118 15v157h-140v109h280z" />
    <glyph glyph-name="H" unicode="H" horiz-adv-x="779" 
d="M554 712h153v-712h-153v299h-330v-299h-153v712h153v-288h330v288z" />
    <glyph glyph-name="I" unicode="I" horiz-adv-x="299" 
d="M71 0v712h156v-712h-156z" />
    <glyph glyph-name="J" unicode="J" horiz-adv-x="381" 
d="M0 -53q42 -6 71 -6q48 0 65 21.5t17 77.5v672h156v-670q0 -119 -47 -174.5t-160 -55.5q-45 0 -102 9v126z" />
    <glyph glyph-name="K" unicode="K" horiz-adv-x="685" 
d="M725 0h-188l-310 329v-329h-156v712h156v-313l299 313h186l-331 -340z" />
    <glyph glyph-name="L" unicode="L" horiz-adv-x="569" 
d="M71 0v712h156v-585h318v-127h-474z" />
    <glyph glyph-name="M" unicode="M" horiz-adv-x="851" 
d="M655 712h123v-712h-138v389l-164 -389h-101l-165 384v-384h-137v712h124l230 -525z" />
    <glyph glyph-name="N" unicode="N" horiz-adv-x="760" 
d="M541 712h147v-712h-116l-355 454v-454h-146v712h115l355 -453v453z" />
    <glyph glyph-name="O" unicode="O" horiz-adv-x="795" 
d="M213.5 35.5q-78.5 44.5 -121 127.5t-42.5 194t42.5 193t121 126.5t184.5 44.5t184 -44.5t120 -126.5t42 -193t-42 -194t-120 -127.5t-184 -44.5t-184.5 44.5zM538.5 176q50.5 63 50.5 181t-50.5 180t-140.5 62t-140.5 -62t-50.5 -180q0 -119 50.5 -181.5t140.5 -62.5
t140.5 63z" />
    <glyph glyph-name="P" unicode="P" horiz-adv-x="675" 
d="M71 712h323q118 0 183.5 -57t65.5 -155q0 -97 -66 -154.5t-183 -57.5h-167v-288h-156v712zM374 407q122 0 122 92q0 93 -122 93h-147v-185h147z" />
    <glyph glyph-name="Q" unicode="Q" horiz-adv-x="795" 
d="M622.5 -43q32.5 -33 74.5 -68l-105 -80q-105 71 -169 183q-9 -1 -25 -1q-106 0 -184.5 44.5t-121 127.5t-42.5 194t42.5 193t121 126.5t184.5 44.5t184 -44.5t120 -126.5t42 -193q0 -117 -46 -202t-130 -127q22 -38 54.5 -71zM257.5 175.5q50.5 -62.5 140.5 -62.5
t140.5 63t50.5 181t-50.5 180t-140.5 62t-140.5 -62t-50.5 -180q0 -119 50.5 -181.5z" />
    <glyph glyph-name="R" unicode="R" horiz-adv-x="708" 
d="M672 0h-165l-91 237q-11 28 -33.5 39t-56.5 11h-101v-287h-154v712h317q124 0 188 -54t64 -155q0 -71 -37.5 -122t-107.5 -73q63 -13 91 -87zM365 406q67 0 98 22.5t31 70.5t-31 70.5t-98 22.5h-142v-186h142z" />
    <glyph glyph-name="S" unicode="S" horiz-adv-x="657" 
d="M164.5 12.5q-74.5 21.5 -123.5 60.5l50 112q103 -72 230 -72q68 0 104.5 21.5t36.5 60.5q0 34 -33.5 53.5t-117.5 37.5q-94 19 -149.5 46.5t-81 67t-25.5 98.5q0 64 35.5 115t99.5 79.5t148 28.5q76 0 146 -22t112 -60l-50 -112q-94 72 -207 72q-60 0 -96 -24t-36 -65
q0 -24 13.5 -40t45.5 -28.5t91 -24.5q137 -30 197.5 -78t60.5 -131q0 -100 -78 -158.5t-217 -58.5q-81 0 -155.5 21.5z" />
    <glyph glyph-name="T" unicode="T" horiz-adv-x="628" 
d="M235 0v585h-223v127h604v-127h-223v-585h-158z" />
    <glyph glyph-name="U" unicode="U" horiz-adv-x="746" 
d="M145 68q-78 77 -78 226v418h153v-425q0 -85 39.5 -129.5t113.5 -44.5t113 44.5t39 129.5v425h154v-418q0 -148 -78.5 -225.5t-227.5 -77.5q-150 0 -228 77z" />
    <glyph glyph-name="V" unicode="V" horiz-adv-x="735" 
d="M593 712h157l-320 -712h-125l-320 712h162l222 -517z" />
    <glyph glyph-name="W" unicode="W" horiz-adv-x="1126" 
d="M958 712h149l-253 -712h-125l-166 471l-167 -471h-125l-253 712h159l164 -492l172 492h109l168 -499z" />
    <glyph glyph-name="X" unicode="X" horiz-adv-x="681" 
d="M428 361l272 -361h-182l-178 246l-178 -246h-182l271 361l-263 351h182l170 -237l172 237h182z" />
    <glyph glyph-name="Y" unicode="Y" horiz-adv-x="642" 
d="M694 712l-295 -436v-276h-156v277l-294 435h177l194 -304l196 304h178z" />
    <glyph glyph-name="Z" unicode="Z" horiz-adv-x="615" 
d="M223 123h357v-123h-529v114l343 475h-343v123h518v-113z" />
    <glyph glyph-name="bracketleft" unicode="[" horiz-adv-x="376" 
d="M105 -182v894h257v-113h-108v-668h108v-113h-257z" />
    <glyph glyph-name="backslash" unicode="\" horiz-adv-x="332" 
d="M234 -61l-261 816h124l262 -816h-125z" />
    <glyph glyph-name="bracketright" unicode="]" horiz-adv-x="376" 
d="M271 -182h-257v113h108v668h-108v113h257v-894z" />
    <glyph glyph-name="asciicircum" unicode="^" horiz-adv-x="600" 
d="M559 144h-114l-145 360l-145 -360h-114l202 493h114z" />
    <glyph glyph-name="underscore" unicode="_" horiz-adv-x="505" 
d="M14 -88v88h477v-88h-477z" />
    <glyph glyph-name="grave" unicode="`" horiz-adv-x="300" 
d="M105 561l-154 206h148l99 -206h-93z" />
    <glyph glyph-name="a" unicode="a" horiz-adv-x="630" 
d="M569 507v-507h-149v75q-23 -39 -65 -61t-95 -22q-66 0 -116.5 32t-79 91.5t-28.5 137.5t28.5 139t79.5 94.5t116 33.5q53 0 95 -23t65 -62v72h149zM390 145q30 38 30 110t-30 110.5t-86 38.5t-87 -40t-31 -111t30.5 -108.5t87.5 -37.5q56 0 86 38z" />
    <glyph glyph-name="b" unicode="b" horiz-adv-x="631" 
d="M488 487.5q51 -32.5 79 -92t28 -137.5t-28.5 -138.5t-79.5 -94t-116 -33.5q-53 0 -95.5 22.5t-64.5 61.5v-76h-150v736h151v-300q22 39 64.5 61.5t94.5 22.5q66 0 117 -32.5zM414 146q30 39 30 112q0 70 -30 108t-86 38t-86.5 -38.5t-30.5 -109.5q0 -72 30.5 -110.5
t86.5 -38.5t86 39z" />
    <glyph glyph-name="c" unicode="c" horiz-adv-x="509" 
d="M106.5 62q-70.5 70 -70.5 191q0 79 34 139.5t95.5 94t142.5 33.5q55 0 107 -17t83 -46l-40 -105q-30 24 -66 37.5t-70 13.5q-62 0 -96.5 -37.5t-34.5 -109.5q0 -73 34 -110.5t97 -37.5q34 0 70 13.5t66 37.5l40 -105q-33 -29 -86 -45.5t-111 -16.5q-124 0 -194.5 70z" />
    <glyph glyph-name="d" unicode="d" horiz-adv-x="630" 
d="M569 736v-736h-149v75q-23 -39 -65 -61t-95 -22q-65 0 -116 33.5t-79.5 94t-28.5 138.5t28.5 137.5t79 92t116.5 32.5q51 0 93 -21.5t65 -59.5v297h151zM390 145.5q30 38.5 30 110.5q0 71 -30.5 109.5t-85.5 38.5q-56 0 -87 -38t-31 -108q0 -72 31 -111.5t87 -39.5
t86 38.5z" />
    <glyph glyph-name="e" unicode="e" horiz-adv-x="550" 
d="M516 241h-334q4 -71 37 -103.5t98 -32.5q39 0 78 13t72 38l40 -102q-36 -29 -89.5 -45.5t-107.5 -16.5q-128 0 -201 70.5t-73 192.5q0 77 31.5 137.5t88.5 94t129 33.5q107 0 169 -69.5t62 -187.5v-22zM219.5 389q-26.5 -25 -34.5 -73h201q-12 98 -97 98q-43 0 -69.5 -25
z" />
    <glyph glyph-name="f" unicode="f" horiz-adv-x="385" 
d="M271 597.5q-21 -19.5 -21 -62.5v-28h106v-113h-106v-394h-151v394h-95v113h95v32q0 96 49 149t142 53q52 0 86 -13v-118q-29 7 -49 7q-35 0 -56 -19.5z" />
    <glyph glyph-name="g" unicode="g" horiz-adv-x="634" 
d="M574 507v-484q0 -121 -70 -184t-204 -63q-121 0 -210 47l23 112q92 -46 182 -46q65 0 97 30.5t32 92.5v88q-24 -37 -67 -61.5t-95 -24.5q-66 0 -117 31.5t-80 89t-29 132.5t29 132.5t80 89t117 31.5q53 0 96 -23t66 -62v72h150zM392.5 165.5q31.5 36.5 31.5 101.5
q0 64 -31 100.5t-87 36.5t-88 -36.5t-32 -100.5t32 -101t88 -37q55 0 86.5 36.5z" />
    <glyph glyph-name="h" unicode="h" horiz-adv-x="613" 
d="M554 307v-307h-151v300q0 53 -19.5 77.5t-61.5 24.5q-50 0 -80 -32t-30 -86v-284h-151v736h151v-298q27 40 69 61t93 21q180 0 180 -213z" />
    <glyph glyph-name="i" unicode="i" horiz-adv-x="274" 
d="M61 0v507h151v-507h-151zM56 745h161v-142h-161v142z" />
    <glyph glyph-name="j" unicode="j" horiz-adv-x="274" 
d="M-16 -100q34 0 55.5 20t21.5 62v525h151v-529q0 -96 -49 -149t-142 -53q-52 0 -86 13v118q29 -7 49 -7zM55 745h161v-142h-161v142z" />
    <glyph glyph-name="k" unicode="k" horiz-adv-x="573" 
d="M596 0h-185l-199 227v-227h-151v736h151v-447l190 217h181l-215 -243z" />
    <glyph glyph-name="l" unicode="l" horiz-adv-x="274" 
d="M61 0v736h151v-736h-151z" />
    <glyph glyph-name="m" unicode="m" horiz-adv-x="911" 
d="M810.5 467.5q42.5 -52.5 42.5 -160.5v-307h-151v302q0 53 -17 76.5t-56 23.5q-46 0 -71 -32t-25 -90v-280h-151v302q0 52 -17.5 76t-55.5 24q-46 0 -71.5 -32t-25.5 -90v-280h-151v362q0 81 -8 145h142l9 -76q23 43 64.5 66t95.5 23q113 0 150 -94q25 43 69.5 68.5
t97.5 25.5q87 0 129.5 -52.5z" />
    <glyph glyph-name="n" unicode="n" horiz-adv-x="613" 
d="M554 307v-307h-151v300q0 53 -19.5 77.5t-61.5 24.5q-50 0 -80 -32t-30 -86v-284h-151v362q0 81 -8 145h142l10 -80q27 45 70.5 69t98.5 24q180 0 180 -213z" />
    <glyph glyph-name="o" unicode="o" horiz-adv-x="604" 
d="M161.5 24q-60.5 32 -93 92t-32.5 140t32.5 140t93 92t141.5 32q80 0 140 -32t92.5 -92t32.5 -140t-32.5 -140t-92.5 -92t-140 -32q-81 0 -141.5 32zM388.5 144q29.5 37 29.5 112q0 74 -29.5 111.5t-85.5 37.5q-57 0 -87 -37.5t-30 -111.5q0 -149 117 -149q56 0 85.5 37z
" />
    <glyph glyph-name="p" unicode="p" horiz-adv-x="631" 
d="M487 486.5q51 -33.5 79.5 -94.5t28.5 -139t-28 -137.5t-79 -91.5t-117 -32q-53 0 -95 22t-64 61v-291h-151v578q0 81 -8 145h142l10 -84q20 45 64.5 71t101.5 26q65 0 116 -33.5zM414 144.5q30 37.5 30 108.5t-30.5 111t-85.5 40q-56 0 -86.5 -38.5t-30.5 -110.5
t30.5 -110t86.5 -38t86 37.5z" />
    <glyph glyph-name="q" unicode="q" horiz-adv-x="630" 
d="M578 507q-9 -62 -9 -145v-578h-151v288q-23 -38 -64.5 -59t-93.5 -21q-66 0 -116.5 32t-79 91.5t-28.5 137.5t28.5 139t79.5 94.5t116 33.5q57 0 101.5 -26t64.5 -70l10 83h142zM390 145q30 38 30 110t-30 110.5t-86 38.5t-87 -40t-31 -111t30.5 -108.5t87.5 -37.5
q56 0 86 38z" />
    <glyph glyph-name="r" unicode="r" horiz-adv-x="410" 
d="M410 509l-1 -138q-37 17 -74 17q-60 0 -91.5 -32.5t-31.5 -90.5v-265h-151v362q0 81 -8 145h142l10 -87q19 48 59.5 73.5t91.5 25.5q32 0 54 -10z" />
    <glyph glyph-name="s" unicode="s" horiz-adv-x="503" 
d="M28 54l40 105q40 -29 89 -44.5t100 -15.5q39 0 60 12t21 35q0 19 -15 30t-53 19l-83 19q-73 16 -107.5 51t-34.5 93q0 47 27.5 84t76.5 57.5t113 20.5q54 0 106 -16.5t93 -46.5l-42 -101q-39 27 -79.5 41t-78.5 14q-37 0 -58 -13t-21 -36q0 -17 12.5 -27.5t44.5 -17.5
l85 -19q78 -18 113 -54t35 -96q0 -72 -58 -114t-159 -42q-144 0 -227 62z" />
    <glyph glyph-name="t" unicode="t" horiz-adv-x="396" 
d="M251 394v-197q0 -42 22 -61.5t57 -19.5q22 0 50 7v-117q-36 -14 -87 -14q-94 0 -143.5 53t-49.5 149v200h-96v113h96v119l151 49v-168h129v-113h-129z" />
    <glyph glyph-name="u" unicode="u" horiz-adv-x="606" 
d="M545 507v-507h-147v74q-24 -40 -63 -61t-88 -21q-95 0 -142 53t-47 160v302h151v-305q0 -92 79 -92q47 0 76 32t29 84v281h152z" />
    <glyph glyph-name="v" unicode="v" horiz-adv-x="550" 
d="M412 506h149l-223 -506h-128l-220 506h158l130 -328z" />
    <glyph glyph-name="w" unicode="w" horiz-adv-x="891" 
d="M744 507h146l-205 -507h-127l-115 294l-110 -294h-128l-205 507h154l122 -327l121 327h103l122 -330z" />
    <glyph glyph-name="x" unicode="x" horiz-adv-x="557" 
d="M365 261l214 -261h-178l-123 155l-123 -155h-177l214 261l-201 246h178l109 -141l109 141h179z" />
    <glyph glyph-name="y" unicode="y" horiz-adv-x="550" 
d="M561 507l-234 -534q-43 -97 -108.5 -142.5t-160.5 -58.5l-35 116q70 15 105.5 38t55.5 67l15 33l-209 481h158l130 -329l134 329h149z" />
    <glyph glyph-name="z" unicode="z" horiz-adv-x="530" 
d="M225 113h270v-113h-447v106l256 288h-252v113h433v-102z" />
    <glyph glyph-name="braceleft" unicode="{" horiz-adv-x="413" 
d="M266 305q-25 -32 -59 -40q33 -8 58.5 -40.5t25.5 -78.5v-122q0 -44 20.5 -68.5t50.5 -24.5h37v-113h-64q-93 0 -143 44.5t-50 129.5v117q0 52 -13 74t-47 33l-42 14v70l42 13q34 11 47 33t13 74v118q0 85 50 129.5t143 44.5h64v-113h-37q-30 0 -50.5 -24t-20.5 -69v-123
q0 -46 -25 -78z" />
    <glyph glyph-name="bar" unicode="|" horiz-adv-x="293" 
d="M76 -182v894h140v-894h-140z" />
    <glyph glyph-name="braceright" unicode="}" horiz-adv-x="413" 
d="M373 300v-70l-42 -14q-34 -11 -47 -33t-13 -74v-117q0 -85 -50 -129.5t-143 -44.5h-64v113h38q29 0 49.5 24.5t20.5 68.5v122q0 46 25.5 78.5t58.5 40.5q-34 8 -59 40t-25 78v123q0 45 -20.5 69t-49.5 24h-38v113h64q93 0 143 -44.5t50 -129.5v-118q0 -52 13 -74t47 -33z
" />
    <glyph glyph-name="asciitilde" unicode="~" horiz-adv-x="600" 
d="M546 315q-16 -50 -54 -79.5t-84 -29.5q-30 0 -57 10t-68 31q-33 16 -49.5 22.5t-31.5 6.5q-50 0 -71 -62l-77 51q16 50 54 79.5t84 29.5q30 0 58 -10t67 -30q33 -16 49.5 -22.5t31.5 -6.5q51 0 71 60z" />
    <glyph glyph-name="uni00A0" unicode="&#xa0;" horiz-adv-x="281" 
 />
    <glyph glyph-name="exclamdown" unicode="&#xa1;" horiz-adv-x="262" 
d="M49 335v161h163v-161h-163zM85 266h92l47 -447l-187 -1z" />
    <glyph glyph-name="cent" unicode="&#xa2;" horiz-adv-x="600" 
d="M540 54q-44 -38 -119 -54v-119h-121v114q-102 12 -162 81t-60 177q0 106 60.5 177.5t161.5 85.5v114h121v-117q74 -16 119 -56l-41 -105q-34 28 -78 42v-277q44 13 78 42zM300 121v269q-33 -17 -50 -51t-17 -83q0 -103 67 -135z" />
    <glyph glyph-name="sterling" unicode="&#xa3;" horiz-adv-x="600" 
d="M258 174.5q-10 -29.5 -35 -49.5h349v-125h-533v105q43 22 58.5 48.5t15.5 76.5v80h-74v93h74v117q0 59 28.5 105t81 71t120.5 25q69 0 131 -20.5t108 -59.5l-51 -112q-46 34 -91.5 51.5t-83.5 17.5q-88 0 -88 -89v-106h162v-93h-162v-59q0 -47 -10 -76.5z" />
    <glyph glyph-name="currency" unicode="&#xa4;" horiz-adv-x="600" 
d="M496 100l54 -57l-54 -54l-55 56q-64 -48 -143 -48q-80 0 -143 47l-54 -55l-55 54l54 57q-47 64 -47 147q0 41 12 79t35 69l-54 56l56 56l54 -55q63 46 142 46q77 0 140 -45l55 56l60 -60l-55 -57q44 -64 44 -145q0 -80 -46 -147zM359.5 133q28.5 18 45.5 48.5t17 65.5
q0 36 -17 66.5t-46 48.5t-63 18q-33 0 -61.5 -18t-45 -49t-16.5 -66q0 -55 36 -93.5t89 -38.5q33 0 61.5 18z" />
    <glyph glyph-name="yen" unicode="&#xa5;" horiz-adv-x="600" 
d="M625 712l-207 -306h118v-92h-158v-62h158v-92h-158v-160h-157v160h-157v92h157v62h-157v92h118l-207 306h167l158 -245l158 245h167z" />
    <glyph glyph-name="brokenbar" unicode="&#xa6;" horiz-adv-x="293" 
d="M76 375v337h140v-337h-140zM76 -182v338h140v-338h-140z" />
    <glyph glyph-name="section" unicode="&#xa7;" horiz-adv-x="585" 
d="M487 86q26 -38 26 -82q0 -92 -61 -142.5t-172 -50.5q-140 0 -222 62l39 104q86 -55 173 -55q44 0 70 18.5t26 49.5q0 25 -14.5 41.5t-49.5 33.5l-132 59q-72 32 -105.5 75.5t-33.5 104.5q0 83 67 141q-26 38 -26 81q0 89 64.5 141t175.5 52q116 0 196 -59l-39 -101
q-35 24 -74 37t-77 13q-47 0 -73 -18t-26 -51q0 -23 15.5 -41t48.5 -33l131 -60q72 -32 106 -76t34 -103q0 -85 -67 -141zM381 174l28 -15q10 20 10 36q0 60 -81 99l-133 66l-28 15q-12 -24 -12 -40q0 -57 81 -98z" />
    <glyph glyph-name="dieresis" unicode="&#xa8;" horiz-adv-x="300" 
d="M-14 729h139v-132h-139v132zM178 729h139v-132h-139v132z" />
    <glyph glyph-name="copyright" unicode="&#xa9;" horiz-adv-x="823" 
d="M228.5 43q-82.5 48 -130 130.5t-47.5 183.5t47.5 183t130 129.5t183.5 47.5t183.5 -47.5t130 -130t47.5 -182.5q0 -101 -47.5 -183.5t-130.5 -130.5t-183 -48q-101 0 -183.5 48zM563.5 96q67.5 39 105.5 107.5t38 153.5q0 84 -38 152t-105.5 107t-151.5 39
q-85 0 -152.5 -39t-105.5 -107t-38 -152q0 -85 38 -153.5t105.5 -107.5t152.5 -39q84 0 151.5 39zM266 197.5q-59 59.5 -59 159.5q0 99 59 158t160 59q47 0 87.5 -12.5t69.5 -36.5l-34 -92q-20 14 -48 25t-54 11q-49 0 -76 -29.5t-27 -82.5q0 -55 27 -84.5t76 -29.5
q26 0 54 11t48 25l34 -92q-61 -49 -157 -49q-101 0 -160 59.5z" />
    <glyph glyph-name="ordfeminine" unicode="&#xaa;" horiz-adv-x="342" 
d="M284 683q36 -34 36 -106v-167h-116v51q-10 -27 -32.5 -41.5t-52.5 -14.5q-44 0 -73.5 29.5t-29.5 67.5q0 44 37 65t126 21h23v11q0 15 -10 21.5t-34 6.5q-50 0 -96 -23l-23 86q54 27 134 27q75 0 111 -34zM190 495.5q12 10.5 12 30.5v7h-9q-38 0 -51.5 -7t-13.5 -19
q0 -9 8.5 -15.5t22.5 -6.5q19 0 31 10.5z" />
    <glyph glyph-name="guillemotleft" unicode="&#xab;" horiz-adv-x="529" 
d="M157 85l-136 182l136 184h126l-131 -183l130 -183h-125zM381 85l-136 182l136 184h126l-131 -183l130 -183h-125z" />
    <glyph glyph-name="logicalnot" unicode="&#xac;" horiz-adv-x="600" 
d="M546 442v-306h-106v203h-386v103h492z" />
    <glyph glyph-name="uni00AD" unicode="&#xad;" horiz-adv-x="444" 
d="M67 211v119h311v-119h-311z" />
    <glyph glyph-name="registered" unicode="&#xae;" horiz-adv-x="823" 
d="M595.5 669.5q82.5 -47.5 130 -130t47.5 -182.5q0 -101 -47.5 -183.5t-130.5 -130.5t-183 -48q-101 0 -183.5 48t-130 130.5t-47.5 183.5t47.5 183t130 129.5t183.5 47.5t183.5 -47.5zM686.5 241.5q20.5 53.5 20.5 115.5q0 84 -38 152t-105.5 107t-151.5 39
q-85 0 -152.5 -39t-105.5 -107t-38 -152q0 -85 38 -153.5t105.5 -107.5t152.5 -39q63 0 117.5 22.5t94.5 63.5h-142l-68 138q-9 16 -21 16h-24v-154h-133v428h204q78 0 120 -37t42 -99q0 -47 -26.5 -81.5t-75.5 -47.5q22 -2 41.5 -15t31.5 -35l55 -108q38 40 58.5 93.5z
M462.5 398q12.5 9 12.5 30q0 23 -12.5 32.5t-39.5 9.5h-55v-81h55q27 0 39.5 9z" />
    <glyph glyph-name="macron" unicode="&#xaf;" horiz-adv-x="300" 
d="M-6 615v94h315v-94h-315z" />
    <glyph glyph-name="degree" unicode="&#xb0;" horiz-adv-x="372" 
d="M107.5 433q-35.5 20 -56 54.5t-20.5 77.5t20.5 77.5t56 54.5t78.5 20t78 -20t55.5 -54.5t20.5 -77.5t-20.5 -77.5t-55.5 -54.5t-78 -20t-78.5 20zM237 511q21 21 21 54t-21 54t-51 21q-31 0 -52 -21t-21 -54t21 -54t52 -21q30 0 51 21z" />
    <glyph glyph-name="plusminus" unicode="&#xb1;" horiz-adv-x="600" 
d="M352 392h194v-104h-194v-145h-104v145h-194v104h194v144h104v-144zM54 0v104h492v-104h-492z" />
    <glyph glyph-name="uni00B2" unicode="&#xb2;" horiz-adv-x="380" 
d="M351 386v-101h-308v95l134 140q34 39 34 64q0 34 -47 34q-54 0 -113 -35l-21 94q29 17 73 28t84 11q70 0 112 -33.5t42 -89.5q0 -36 -17.5 -68.5t-63.5 -74.5l-70 -64h161z" />
    <glyph glyph-name="uni00B3" unicode="&#xb3;" horiz-adv-x="380" 
d="M333 467.5q21 -26.5 21 -64.5q0 -53 -44.5 -88t-126.5 -35q-42 0 -86 11t-73 28l20 94q60 -35 128 -35q60 0 60 36q0 37 -55 37h-72v98h60q29 0 42 8.5t13 27.5q0 33 -50 33q-28 0 -59.5 -9t-59.5 -26l-21 94q29 17 71.5 28t78.5 11q77 0 119 -34t42 -85q0 -32 -17 -56.5
t-49 -35.5q37 -11 58 -37.5z" />
    <glyph glyph-name="acute" unicode="&#xb4;" horiz-adv-x="300" 
d="M198 561h-93l99 206h148z" />
    <glyph glyph-name="uni00B5" unicode="&#xb5;" horiz-adv-x="606" 
d="M545 507v-507h-147v74q-24 -40 -63 -61t-88 -21q-20 0 -38 3v-211h-151v723h151v-305q0 -92 79 -92q47 0 76 32t29 84v281h152z" />
    <glyph glyph-name="paragraph" unicode="&#xb6;" horiz-adv-x="637" 
d="M565 -182h-101v804h-108v-804h-101v451q-66 0 -116.5 27.5t-78.5 78t-28 116.5q0 65 28 115.5t79 78t119 27.5h307v-894z" />
    <glyph glyph-name="periodcentered" unicode="&#xb7;" horiz-adv-x="262" 
d="M49 351h163v-161h-163v161z" />
    <glyph glyph-name="cedilla" unicode="&#xb8;" horiz-adv-x="300" 
d="M250.5 -59q23.5 -19 23.5 -51q0 -40 -36 -64.5t-101 -24.5q-21 0 -47 4.5t-47 13.5l12 59q46 -14 79 -14q46 0 46 26q0 9 -8.5 14.5t-24.5 5.5q-13 0 -36 -7l-20 21l12 96h82l-9 -61q5 1 13 1q38 0 61.5 -19z" />
    <glyph glyph-name="uni00B9" unicode="&#xb9;" horiz-adv-x="380" 
d="M282 386h81v-101h-291v101h80v189l-75 -41v117l114 61h91v-326z" />
    <glyph glyph-name="ordmasculine" unicode="&#xba;" horiz-adv-x="377" 
d="M60 450q-44 45 -44 112q0 66 44 110.5t129 44.5t129 -44.5t44 -110.5q0 -67 -44 -112t-129 -45t-129 45zM226 518q14 16 14 44q0 29 -13.5 43.5t-37.5 14.5t-37.5 -14.5t-13.5 -43.5q0 -28 14 -44t37 -16t37 16z" />
    <glyph glyph-name="guillemotright" unicode="&#xbb;" horiz-adv-x="529" 
d="M149 85h-125l130 183l-132 183h127l135 -184zM373 85h-125l130 183l-132 183h127l135 -184z" />
    <glyph glyph-name="onequarter" unicode="&#xbc;" horiz-adv-x="962" 
d="M282 386h81v-101h-291v101h80v189l-75 -41v117l114 61h91v-326zM322 -30l-98 56l416 716l97 -56zM957 158v-93h-61v-65h-114v65h-188v89l201 273h101v-269h61zM699 158h83v112z" />
    <glyph glyph-name="onehalf" unicode="&#xbd;" horiz-adv-x="962" 
d="M282 386h81v-101h-291v101h80v189l-75 -41v117l114 61h91v-326zM322 -30l-98 56l416 716l97 -56zM933 101v-101h-308v95l134 140q34 39 34 64q0 34 -47 34q-54 0 -113 -35l-21 94q29 17 73 28t84 11q70 0 112 -33.5t42 -89.5q0 -36 -17.5 -68.5t-63.5 -74.5l-70 -64h161z
" />
    <glyph glyph-name="threequarters" unicode="&#xbe;" horiz-adv-x="962" 
d="M333 467.5q21 -26.5 21 -64.5q0 -53 -44.5 -88t-126.5 -35q-42 0 -86 11t-73 28l20 94q60 -35 128 -35q60 0 60 36q0 37 -55 37h-72v98h60q29 0 42 8.5t13 27.5q0 33 -50 33q-28 0 -59.5 -9t-59.5 -26l-21 94q29 17 71.5 28t78.5 11q77 0 119 -34t42 -85q0 -32 -17 -56.5
t-49 -35.5q37 -11 58 -37.5zM322 -30l-98 56l416 716l97 -56zM957 158v-93h-61v-65h-114v65h-188v89l201 273h101v-269h61zM699 158h83v112z" />
    <glyph glyph-name="questiondown" unicode="&#xbf;" horiz-adv-x="473" 
d="M161 335v161h162v-161h-162zM120 -170q-50 20 -80 59t-30 92q0 34 14 61t34 46.5t53 45.5q37 29 57.5 51.5t25.5 51.5l6 34h89v-51q0 -51 -19.5 -82t-55.5 -63q-26 -24 -38 -40.5t-12 -39.5q0 -28 19.5 -45t58.5 -17q69 0 142 43v-124q-67 -42 -154 -42q-60 0 -110 20z
" />
    <glyph glyph-name="Agrave" unicode="&#xc0;" horiz-adv-x="759" 
d="M615 0l-68 158h-333l-68 -158h-157l327 712h126l327 -712h-154zM266 277h230l-115 267zM332 773l-150 157h140l103 -157h-93z" />
    <glyph glyph-name="Aacute" unicode="&#xc1;" horiz-adv-x="759" 
d="M615 0l-68 158h-333l-68 -158h-157l327 712h126l327 -712h-154zM266 277h230l-115 267zM425 773h-93l103 157h140z" />
    <glyph glyph-name="Acircumflex" unicode="&#xc2;" horiz-adv-x="759" 
d="M615 0l-68 158h-333l-68 -158h-157l327 712h126l327 -712h-154zM266 277h230l-115 267zM316 773h-114l133 157h87l133 -157h-114l-62 86z" />
    <glyph glyph-name="Atilde" unicode="&#xc3;" horiz-adv-x="759" 
d="M615 0l-68 158h-333l-68 -158h-157l327 712h126l327 -712h-154zM266 277h230l-115 267zM233.5 890q30.5 37 78.5 37q19 0 37.5 -8t39.5 -22q22 -12 33.5 -17.5t23.5 -5.5q19 0 30.5 13.5t13.5 36.5h64q0 -73 -30.5 -110t-78.5 -37q-19 0 -37.5 8t-39.5 22
q-22 12 -33.5 17.5t-23.5 5.5q-19 0 -30.5 -13.5t-13.5 -36.5h-64q0 73 30.5 110z" />
    <glyph glyph-name="Adieresis" unicode="&#xc4;" horiz-adv-x="759" 
d="M615 0l-68 158h-333l-68 -158h-157l327 712h126l327 -712h-154zM266 277h230l-115 267zM213 918h139v-132h-139v132zM405 918h139v-132h-139v132z" />
    <glyph glyph-name="Aring" unicode="&#xc5;" horiz-adv-x="759" 
d="M547 158h-333l-68 -158h-157l322 700q-19 15 -30 37.5t-11 48.5q0 45 32 76.5t78 31.5t78 -31.5t32 -76.5q0 -27 -11 -49.5t-31 -37.5l321 -699h-154zM348.5 818q-12.5 -13 -12.5 -32q0 -20 12.5 -33.5t31.5 -13.5t31 13.5t12 33.5q0 19 -12 32t-31 13t-31.5 -13z
M266 277h230l-115 267z" />
    <glyph glyph-name="AE" unicode="&#xc6;" horiz-adv-x="1010" 
d="M973 590h-324l12 -167h291v-122h-283l13 -179h291v-122h-424l-11 158h-305l-94 -158h-170l448 712h556v-122zM530 277l-21 313h-20l-186 -313h227z" />
    <glyph glyph-name="Ccedilla" unicode="&#xc7;" horiz-adv-x="685" 
d="M550 16q-58 -21 -123 -24l-5 -33q5 1 13 1q38 0 61.5 -19t23.5 -51q0 -40 -36 -64.5t-101 -24.5q-22 0 -47.5 4.5t-46.5 13.5l12 59q46 -14 79 -14q46 0 46 26q0 9 -8.5 14.5t-24.5 5.5q-13 0 -36 -7l-20 21l9 71q-91 12 -158 60t-102.5 125.5t-35.5 176.5
q0 109 43 191.5t123.5 127.5t188.5 45q71 0 135.5 -21.5t105.5 -60.5l-49 -112q-48 36 -93.5 52.5t-95.5 16.5q-96 0 -147 -61t-51 -178q0 -118 51 -179.5t147 -61.5q50 0 95.5 16.5t93.5 52.5l49 -112q-38 -36 -96 -57z" />
    <glyph glyph-name="Egrave" unicode="&#xc8;" horiz-adv-x="599" 
d="M71 0v712h491v-121h-339v-168h318v-122h-318v-180h339v-121h-491zM286 773l-150 157h140l103 -157h-93z" />
    <glyph glyph-name="Eacute" unicode="&#xc9;" horiz-adv-x="599" 
d="M71 0v712h491v-121h-339v-168h318v-122h-318v-180h339v-121h-491zM379 773h-93l103 157h140z" />
    <glyph glyph-name="Ecircumflex" unicode="&#xca;" horiz-adv-x="599" 
d="M71 0v712h491v-121h-339v-168h318v-122h-318v-180h339v-121h-491zM270 773h-114l133 157h87l133 -157h-114l-62 86z" />
    <glyph glyph-name="Edieresis" unicode="&#xcb;" horiz-adv-x="599" 
d="M71 0v712h491v-121h-339v-168h318v-122h-318v-180h339v-121h-491zM167 918h139v-132h-139v132zM359 918h139v-132h-139v132z" />
    <glyph glyph-name="Igrave" unicode="&#xcc;" horiz-adv-x="299" 
d="M71 0v712h156v-712h-156zM101 773l-150 157h140l103 -157h-93z" />
    <glyph glyph-name="Iacute" unicode="&#xcd;" horiz-adv-x="299" 
d="M71 0v712h156v-712h-156zM194 773h-93l103 157h140z" />
    <glyph glyph-name="Icircumflex" unicode="&#xce;" horiz-adv-x="299" 
d="M71 0v712h156v-712h-156zM85 773h-114l133 157h87l133 -157h-114l-62 86z" />
    <glyph glyph-name="Idieresis" unicode="&#xcf;" horiz-adv-x="299" 
d="M71 0v712h156v-712h-156zM-18 918h139v-132h-139v132zM174 918h139v-132h-139v132z" />
    <glyph glyph-name="Eth" unicode="&#xd0;" horiz-adv-x="801" 
d="M577 670q84 -42 128.5 -122t44.5 -191q0 -112 -44 -192t-128 -122.5t-201 -42.5h-276v300h-87v119h87v293h276q116 0 200 -42zM594 357q0 229 -228 229h-108v-167h186v-119h-186v-174h108q228 0 228 231z" />
    <glyph glyph-name="Ntilde" unicode="&#xd1;" horiz-adv-x="760" 
d="M541 712h147v-712h-116l-355 454v-454h-146v712h115l355 -453v453zM233.5 890q30.5 37 78.5 37q19 0 37.5 -8t39.5 -22q22 -12 33.5 -17.5t23.5 -5.5q19 0 30.5 13.5t13.5 36.5h64q0 -73 -30.5 -110t-78.5 -37q-19 0 -37.5 8t-39.5 22q-22 12 -33.5 17.5t-23.5 5.5
q-19 0 -30.5 -13.5t-13.5 -36.5h-64q0 73 30.5 110z" />
    <glyph glyph-name="Ograve" unicode="&#xd2;" horiz-adv-x="795" 
d="M213.5 35.5q-78.5 44.5 -121 127.5t-42.5 194t42.5 193t121 126.5t184.5 44.5t184 -44.5t120 -126.5t42 -193t-42 -194t-120 -127.5t-184 -44.5t-184.5 44.5zM538.5 176q50.5 63 50.5 181t-50.5 180t-140.5 62t-140.5 -62t-50.5 -180q0 -119 50.5 -181.5t140.5 -62.5
t140.5 63zM350 773l-150 157h140l103 -157h-93z" />
    <glyph glyph-name="Oacute" unicode="&#xd3;" horiz-adv-x="795" 
d="M213.5 35.5q-78.5 44.5 -121 127.5t-42.5 194t42.5 193t121 126.5t184.5 44.5t184 -44.5t120 -126.5t42 -193t-42 -194t-120 -127.5t-184 -44.5t-184.5 44.5zM538.5 176q50.5 63 50.5 181t-50.5 180t-140.5 62t-140.5 -62t-50.5 -180q0 -119 50.5 -181.5t140.5 -62.5
t140.5 63zM443 773h-93l103 157h140z" />
    <glyph glyph-name="Ocircumflex" unicode="&#xd4;" horiz-adv-x="795" 
d="M213.5 35.5q-78.5 44.5 -121 127.5t-42.5 194t42.5 193t121 126.5t184.5 44.5t184 -44.5t120 -126.5t42 -193t-42 -194t-120 -127.5t-184 -44.5t-184.5 44.5zM538.5 176q50.5 63 50.5 181t-50.5 180t-140.5 62t-140.5 -62t-50.5 -180q0 -119 50.5 -181.5t140.5 -62.5
t140.5 63zM334 773h-114l133 157h87l133 -157h-114l-62 86z" />
    <glyph glyph-name="Otilde" unicode="&#xd5;" horiz-adv-x="795" 
d="M213.5 35.5q-78.5 44.5 -121 127.5t-42.5 194t42.5 193t121 126.5t184.5 44.5t184 -44.5t120 -126.5t42 -193t-42 -194t-120 -127.5t-184 -44.5t-184.5 44.5zM538.5 176q50.5 63 50.5 181t-50.5 180t-140.5 62t-140.5 -62t-50.5 -180q0 -119 50.5 -181.5t140.5 -62.5
t140.5 63zM251.5 890q30.5 37 78.5 37q19 0 37.5 -8t39.5 -22q22 -12 33.5 -17.5t23.5 -5.5q19 0 30.5 13.5t13.5 36.5h64q0 -73 -30.5 -110t-78.5 -37q-19 0 -37.5 8t-39.5 22q-22 12 -33.5 17.5t-23.5 5.5q-19 0 -30.5 -13.5t-13.5 -36.5h-64q0 73 30.5 110z" />
    <glyph glyph-name="Odieresis" unicode="&#xd6;" horiz-adv-x="795" 
d="M213.5 35.5q-78.5 44.5 -121 127.5t-42.5 194t42.5 193t121 126.5t184.5 44.5t184 -44.5t120 -126.5t42 -193t-42 -194t-120 -127.5t-184 -44.5t-184.5 44.5zM538.5 176q50.5 63 50.5 181t-50.5 180t-140.5 62t-140.5 -62t-50.5 -180q0 -119 50.5 -181.5t140.5 -62.5
t140.5 63zM231 918h139v-132h-139v132zM423 918h139v-132h-139v132z" />
    <glyph glyph-name="multiply" unicode="&#xd7;" horiz-adv-x="600" 
d="M536 452l-163 -163l163 -163l-73 -72l-163 163l-163 -163l-73 72l163 163l-163 163l73 74l163 -163l163 163z" />
    <glyph glyph-name="Oslash" unicode="&#xd8;" horiz-adv-x="795" 
d="M715 522q29 -73 29 -165q0 -111 -42 -194t-120 -127.5t-184 -44.5q-73 0 -133 21l-47 -80l-100 60l46 79q-55 48 -84.5 121t-29.5 165q0 111 42.5 193t121 126.5t184.5 44.5q74 0 132 -21l47 80l100 -60l-46 -78q55 -47 84 -120zM240 202l225 386q-31 11 -67 11
q-90 0 -140.5 -62t-50.5 -180q0 -94 33 -155zM538.5 176q50.5 63 50.5 181q0 94 -33 155l-226 -388q31 -11 68 -11q90 0 140.5 63z" />
    <glyph glyph-name="Ugrave" unicode="&#xd9;" horiz-adv-x="746" 
d="M145 68q-78 77 -78 226v418h153v-425q0 -85 39.5 -129.5t113.5 -44.5t113 44.5t39 129.5v425h154v-418q0 -148 -78.5 -225.5t-227.5 -77.5q-150 0 -228 77zM326 773l-150 157h140l103 -157h-93z" />
    <glyph glyph-name="Uacute" unicode="&#xda;" horiz-adv-x="746" 
d="M145 68q-78 77 -78 226v418h153v-425q0 -85 39.5 -129.5t113.5 -44.5t113 44.5t39 129.5v425h154v-418q0 -148 -78.5 -225.5t-227.5 -77.5q-150 0 -228 77zM419 773h-93l103 157h140z" />
    <glyph glyph-name="Ucircumflex" unicode="&#xdb;" horiz-adv-x="746" 
d="M145 68q-78 77 -78 226v418h153v-425q0 -85 39.5 -129.5t113.5 -44.5t113 44.5t39 129.5v425h154v-418q0 -148 -78.5 -225.5t-227.5 -77.5q-150 0 -228 77zM310 773h-114l133 157h87l133 -157h-114l-62 86z" />
    <glyph glyph-name="Udieresis" unicode="&#xdc;" horiz-adv-x="746" 
d="M145 68q-78 77 -78 226v418h153v-425q0 -85 39.5 -129.5t113.5 -44.5t113 44.5t39 129.5v425h154v-418q0 -148 -78.5 -225.5t-227.5 -77.5q-150 0 -228 77zM207 918h139v-132h-139v132zM399 918h139v-132h-139v132z" />
    <glyph glyph-name="Yacute" unicode="&#xdd;" horiz-adv-x="642" 
d="M694 712l-295 -436v-276h-156v277l-294 435h177l194 -304l196 304h178zM366 773h-93l103 157h140z" />
    <glyph glyph-name="Thorn" unicode="&#xde;" horiz-adv-x="676" 
d="M578.5 514q64.5 -55 64.5 -152t-65.5 -152t-178.5 -55h-175v-155h-153v712h153v-143h175q115 0 179.5 -55zM466.5 295.5q29.5 20.5 29.5 66.5q0 45 -29.5 65.5t-92.5 20.5h-150v-173h150q63 0 92.5 20.5z" />
    <glyph glyph-name="germandbls" unicode="&#xdf;" horiz-adv-x="697" 
d="M620.5 295q54.5 -51 54.5 -131q0 -78 -58.5 -125t-155.5 -47q-62 0 -114.5 16t-88.5 46l41 108q74 -59 163 -59q38 0 56.5 19t18.5 49q0 42 -53 75.5t-176 63.5v111q77 24 107.5 54.5t30.5 74.5q0 85 -99 85q-66 0 -100.5 -37.5t-34.5 -113.5v-484h-151v462
q0 139 73.5 211t212.5 72q112 0 176.5 -49.5t64.5 -138.5q0 -58 -30.5 -102.5t-107.5 -78.5q116 -30 170.5 -81z" />
    <glyph glyph-name="agrave" unicode="&#xe0;" horiz-adv-x="630" 
d="M569 507v-507h-149v75q-23 -39 -65 -61t-95 -22q-66 0 -116.5 32t-79 91.5t-28.5 137.5t28.5 139t79.5 94.5t116 33.5q53 0 95 -23t65 -62v72h149zM390 145q30 38 30 110t-30 110.5t-86 38.5t-87 -40t-31 -111t30.5 -108.5t87.5 -37.5q56 0 86 38zM268 572l-154 206h148
l99 -206h-93z" />
    <glyph glyph-name="aacute" unicode="&#xe1;" horiz-adv-x="630" 
d="M569 507v-507h-149v75q-23 -39 -65 -61t-95 -22q-66 0 -116.5 32t-79 91.5t-28.5 137.5t28.5 139t79.5 94.5t116 33.5q53 0 95 -23t65 -62v72h149zM390 145q30 38 30 110t-30 110.5t-86 38.5t-87 -40t-31 -111t30.5 -108.5t87.5 -37.5q56 0 86 38zM361 572h-93l99 206
h148z" />
    <glyph glyph-name="acircumflex" unicode="&#xe2;" horiz-adv-x="630" 
d="M569 507v-507h-149v75q-23 -39 -65 -61t-95 -22q-66 0 -116.5 32t-79 91.5t-28.5 137.5t28.5 139t79.5 94.5t116 33.5q53 0 95 -23t65 -62v72h149zM390 145q30 38 30 110t-30 110.5t-86 38.5t-87 -40t-31 -111t30.5 -108.5t87.5 -37.5q56 0 86 38zM256 572h-118l131 206
h91l131 -206h-118l-58 117z" />
    <glyph glyph-name="atilde" unicode="&#xe3;" horiz-adv-x="630" 
d="M569 507v-507h-149v75q-23 -39 -65 -61t-95 -22q-66 0 -116.5 32t-79 91.5t-28.5 137.5t28.5 139t79.5 94.5t116 33.5q53 0 95 -23t65 -62v72h149zM390 145q30 38 30 110t-30 110.5t-86 38.5t-87 -40t-31 -111t30.5 -108.5t87.5 -37.5q56 0 86 38zM169.5 713.5
q30.5 36.5 78.5 36.5q19 0 36.5 -7.5t40.5 -21.5q22 -12 33.5 -17.5t23.5 -5.5q19 0 30.5 13t13.5 36h64q0 -72 -30.5 -109t-78.5 -37q-19 0 -36.5 7.5t-40.5 21.5q-22 12 -33.5 17.5t-23.5 5.5q-19 0 -30.5 -13t-13.5 -36h-64q0 73 30.5 109.5z" />
    <glyph glyph-name="adieresis" unicode="&#xe4;" horiz-adv-x="630" 
d="M569 507v-507h-149v75q-23 -39 -65 -61t-95 -22q-66 0 -116.5 32t-79 91.5t-28.5 137.5t28.5 139t79.5 94.5t116 33.5q53 0 95 -23t65 -62v72h149zM390 145q30 38 30 110t-30 110.5t-86 38.5t-87 -40t-31 -111t30.5 -108.5t87.5 -37.5q56 0 86 38zM149 740h139v-132h-139
v132zM341 740h139v-132h-139v132z" />
    <glyph glyph-name="aring" unicode="&#xe5;" horiz-adv-x="630" 
d="M569 507v-507h-149v75q-23 -39 -65 -61t-95 -22q-66 0 -116.5 32t-79 91.5t-28.5 137.5t28.5 139t79.5 94.5t116 33.5q53 0 95 -23t65 -62v72h149zM390 145q30 38 30 110t-30 110.5t-86 38.5t-87 -40t-31 -111t30.5 -108.5t87.5 -37.5q56 0 86 38zM236 598.5
q-32 31.5 -32 77.5q0 45 32.5 76.5t78.5 31.5t78 -31.5t32 -76.5q0 -46 -32 -77.5t-78 -31.5q-47 0 -79 31.5zM346 642.5q12 13.5 12 33.5q0 19 -12 32t-31 13t-31.5 -13t-12.5 -32q0 -20 12.5 -33.5t31.5 -13.5t31 13.5z" />
    <glyph glyph-name="ae" unicode="&#xe6;" horiz-adv-x="866" 
d="M831 241h-328q2 -64 35 -100t99 -36q36 0 74 13t72 38l39 -102q-35 -29 -88 -45.5t-107 -16.5q-72 0 -125 26t-84 76q-23 -49 -68.5 -75.5t-107.5 -26.5q-58 0 -103.5 21t-71.5 58.5t-26 86.5q0 83 65 120.5t216 37.5h37v4q0 46 -19.5 66t-63.5 20q-42 0 -87.5 -13.5
t-86.5 -38.5l-40 103q42 27 105 45t117 18q116 0 165 -67q31 33 73 50t92 17q64 0 113.5 -32.5t76.5 -91t27 -134.5v-21zM508 316h194q-5 48 -28.5 73t-63.5 25q-83 0 -102 -98zM333.5 128.5q25.5 31.5 25.5 80.5v34h-29q-76 0 -109.5 -19.5t-33.5 -59.5q0 -30 21 -48.5
t54 -18.5q46 0 71.5 31.5z" />
    <glyph glyph-name="ccedilla" unicode="&#xe7;" horiz-adv-x="509" 
d="M421.5 12q-46.5 -16 -98.5 -19l-5 -34q5 1 13 1q38 0 61.5 -19t23.5 -51q0 -40 -36 -64.5t-101 -24.5q-22 0 -47.5 4.5t-46.5 13.5l12 59q46 -14 79 -14q46 0 46 26q0 9 -8.5 14.5t-24.5 5.5q-13 0 -36 -7l-20 21l9 73q-97 16 -151.5 83.5t-54.5 172.5q0 79 34 139.5
t95.5 94t142.5 33.5q55 0 107 -17t83 -46l-40 -105q-30 24 -66 37.5t-70 13.5q-62 0 -96.5 -37.5t-34.5 -109.5q0 -73 34 -110.5t97 -37.5q34 0 70 13.5t66 37.5l40 -105q-30 -26 -76.5 -42z" />
    <glyph glyph-name="egrave" unicode="&#xe8;" horiz-adv-x="550" 
d="M516 241h-334q4 -71 37 -103.5t98 -32.5q39 0 78 13t72 38l40 -102q-36 -29 -89.5 -45.5t-107.5 -16.5q-128 0 -201 70.5t-73 192.5q0 77 31.5 137.5t88.5 94t129 33.5q107 0 169 -69.5t62 -187.5v-22zM219.5 389q-26.5 -25 -34.5 -73h201q-12 98 -97 98q-43 0 -69.5 -25
zM238 572l-154 206h148l99 -206h-93z" />
    <glyph glyph-name="eacute" unicode="&#xe9;" horiz-adv-x="550" 
d="M516 241h-334q4 -71 37 -103.5t98 -32.5q39 0 78 13t72 38l40 -102q-36 -29 -89.5 -45.5t-107.5 -16.5q-128 0 -201 70.5t-73 192.5q0 77 31.5 137.5t88.5 94t129 33.5q107 0 169 -69.5t62 -187.5v-22zM219.5 389q-26.5 -25 -34.5 -73h201q-12 98 -97 98q-43 0 -69.5 -25
zM331 572h-93l99 206h148z" />
    <glyph glyph-name="ecircumflex" unicode="&#xea;" horiz-adv-x="550" 
d="M516 241h-334q4 -71 37 -103.5t98 -32.5q39 0 78 13t72 38l40 -102q-36 -29 -89.5 -45.5t-107.5 -16.5q-128 0 -201 70.5t-73 192.5q0 77 31.5 137.5t88.5 94t129 33.5q107 0 169 -69.5t62 -187.5v-22zM219.5 389q-26.5 -25 -34.5 -73h201q-12 98 -97 98q-43 0 -69.5 -25
zM226 572h-118l131 206h91l131 -206h-118l-58 117z" />
    <glyph glyph-name="edieresis" unicode="&#xeb;" horiz-adv-x="550" 
d="M516 241h-334q4 -71 37 -103.5t98 -32.5q39 0 78 13t72 38l40 -102q-36 -29 -89.5 -45.5t-107.5 -16.5q-128 0 -201 70.5t-73 192.5q0 77 31.5 137.5t88.5 94t129 33.5q107 0 169 -69.5t62 -187.5v-22zM219.5 389q-26.5 -25 -34.5 -73h201q-12 98 -97 98q-43 0 -69.5 -25
zM119 740h139v-132h-139v132zM311 740h139v-132h-139v132z" />
    <glyph glyph-name="igrave" unicode="&#xec;" horiz-adv-x="274" 
d="M61 0v507h151v-507h-151zM90 572l-154 206h148l99 -206h-93z" />
    <glyph glyph-name="iacute" unicode="&#xed;" horiz-adv-x="274" 
d="M61 0v507h151v-507h-151zM183 572h-93l99 206h148z" />
    <glyph glyph-name="icircumflex" unicode="&#xee;" horiz-adv-x="274" 
d="M61 0v507h151v-507h-151zM78 572h-118l131 206h91l131 -206h-118l-58 117z" />
    <glyph glyph-name="idieresis" unicode="&#xef;" horiz-adv-x="274" 
d="M61 0v507h151v-507h-151zM-29 740h139v-132h-139v132zM163 740h139v-132h-139v132z" />
    <glyph glyph-name="eth" unicode="&#xf0;" horiz-adv-x="612" 
d="M552.5 450.5q23.5 -70.5 23.5 -144.5q0 -151 -72.5 -232.5t-206.5 -81.5q-77 0 -136 30t-92 84.5t-33 125.5q0 69 31.5 123.5t87.5 84.5t128 30q89 0 140 -48q-21 72 -69 121l-179 -50l-22 78l120 33q-53 28 -120 39l34 105q137 -20 234 -103l129 36l20 -77l-86 -24
q45 -59 68.5 -129.5zM388 139.5q30 32.5 30 92.5q0 62 -29.5 94t-85.5 32q-57 0 -87 -32.5t-30 -93.5t30 -93t87 -32q55 0 85 32.5z" />
    <glyph glyph-name="ntilde" unicode="&#xf1;" horiz-adv-x="613" 
d="M554 307v-307h-151v300q0 53 -19.5 77.5t-61.5 24.5q-50 0 -80 -32t-30 -86v-284h-151v362q0 81 -8 145h142l10 -80q27 45 70.5 69t98.5 24q180 0 180 -213zM162.5 713.5q30.5 36.5 78.5 36.5q19 0 36.5 -7.5t40.5 -21.5q22 -12 33.5 -17.5t23.5 -5.5q19 0 30.5 13
t13.5 36h64q0 -72 -30.5 -109t-78.5 -37q-19 0 -36.5 7.5t-40.5 21.5q-22 12 -33.5 17.5t-23.5 5.5q-19 0 -30.5 -13t-13.5 -36h-64q0 73 30.5 109.5z" />
    <glyph glyph-name="ograve" unicode="&#xf2;" horiz-adv-x="604" 
d="M161.5 24q-60.5 32 -93 92t-32.5 140t32.5 140t93 92t141.5 32q80 0 140 -32t92.5 -92t32.5 -140t-32.5 -140t-92.5 -92t-140 -32q-81 0 -141.5 32zM388.5 144q29.5 37 29.5 112q0 74 -29.5 111.5t-85.5 37.5q-57 0 -87 -37.5t-30 -111.5q0 -149 117 -149q56 0 85.5 37z
M256 572l-154 206h148l99 -206h-93z" />
    <glyph glyph-name="oacute" unicode="&#xf3;" horiz-adv-x="604" 
d="M161.5 24q-60.5 32 -93 92t-32.5 140t32.5 140t93 92t141.5 32q80 0 140 -32t92.5 -92t32.5 -140t-32.5 -140t-92.5 -92t-140 -32q-81 0 -141.5 32zM388.5 144q29.5 37 29.5 112q0 74 -29.5 111.5t-85.5 37.5q-57 0 -87 -37.5t-30 -111.5q0 -149 117 -149q56 0 85.5 37z
M349 572h-93l99 206h148z" />
    <glyph glyph-name="ocircumflex" unicode="&#xf4;" horiz-adv-x="604" 
d="M161.5 24q-60.5 32 -93 92t-32.5 140t32.5 140t93 92t141.5 32q80 0 140 -32t92.5 -92t32.5 -140t-32.5 -140t-92.5 -92t-140 -32q-81 0 -141.5 32zM388.5 144q29.5 37 29.5 112q0 74 -29.5 111.5t-85.5 37.5q-57 0 -87 -37.5t-30 -111.5q0 -149 117 -149q56 0 85.5 37z
M244 572h-118l131 206h91l131 -206h-118l-58 117z" />
    <glyph glyph-name="otilde" unicode="&#xf5;" horiz-adv-x="604" 
d="M161.5 24q-60.5 32 -93 92t-32.5 140t32.5 140t93 92t141.5 32q80 0 140 -32t92.5 -92t32.5 -140t-32.5 -140t-92.5 -92t-140 -32q-81 0 -141.5 32zM388.5 144q29.5 37 29.5 112q0 74 -29.5 111.5t-85.5 37.5q-57 0 -87 -37.5t-30 -111.5q0 -149 117 -149q56 0 85.5 37z
M157.5 713.5q30.5 36.5 78.5 36.5q19 0 36.5 -7.5t40.5 -21.5q22 -12 33.5 -17.5t23.5 -5.5q19 0 30.5 13t13.5 36h64q0 -72 -30.5 -109t-78.5 -37q-19 0 -36.5 7.5t-40.5 21.5q-22 12 -33.5 17.5t-23.5 5.5q-19 0 -30.5 -13t-13.5 -36h-64q0 73 30.5 109.5z" />
    <glyph glyph-name="odieresis" unicode="&#xf6;" horiz-adv-x="604" 
d="M161.5 24q-60.5 32 -93 92t-32.5 140t32.5 140t93 92t141.5 32q80 0 140 -32t92.5 -92t32.5 -140t-32.5 -140t-92.5 -92t-140 -32q-81 0 -141.5 32zM388.5 144q29.5 37 29.5 112q0 74 -29.5 111.5t-85.5 37.5q-57 0 -87 -37.5t-30 -111.5q0 -149 117 -149q56 0 85.5 37z
M137 740h139v-132h-139v132zM329 740h139v-132h-139v132z" />
    <glyph glyph-name="divide" unicode="&#xf7;" horiz-adv-x="600" 
d="M234 422v119h120v-119h-120zM546 341v-103h-492v103h492zM234 32v120h120v-120h-120z" />
    <glyph glyph-name="oslash" unicode="&#xf8;" horiz-adv-x="604" 
d="M543.5 379q24.5 -54 24.5 -123q0 -80 -32.5 -140t-92.5 -92t-140 -32q-51 0 -98 14l-41 -70l-71 42l38 66q-46 34 -70.5 88.5t-24.5 123.5q0 80 32.5 140t93 92t141.5 32q52 0 97 -14l40 68l72 -42l-38 -64q45 -35 69.5 -89zM201 163l139 239q-16 4 -37 4
q-120 0 -120 -150q0 -57 18 -93zM421 256q0 55 -17 91l-138 -237q15 -4 37 -4q118 0 118 150z" />
    <glyph glyph-name="ugrave" unicode="&#xf9;" horiz-adv-x="606" 
d="M545 507v-507h-147v74q-24 -40 -63 -61t-88 -21q-95 0 -142 53t-47 160v302h151v-305q0 -92 79 -92q47 0 76 32t29 84v281h152zM256 572l-154 206h148l99 -206h-93z" />
    <glyph glyph-name="uacute" unicode="&#xfa;" horiz-adv-x="606" 
d="M545 507v-507h-147v74q-24 -40 -63 -61t-88 -21q-95 0 -142 53t-47 160v302h151v-305q0 -92 79 -92q47 0 76 32t29 84v281h152zM349 572h-93l99 206h148z" />
    <glyph glyph-name="ucircumflex" unicode="&#xfb;" horiz-adv-x="606" 
d="M545 507v-507h-147v74q-24 -40 -63 -61t-88 -21q-95 0 -142 53t-47 160v302h151v-305q0 -92 79 -92q47 0 76 32t29 84v281h152zM244 572h-118l131 206h91l131 -206h-118l-58 117z" />
    <glyph glyph-name="udieresis" unicode="&#xfc;" horiz-adv-x="606" 
d="M545 507v-507h-147v74q-24 -40 -63 -61t-88 -21q-95 0 -142 53t-47 160v302h151v-305q0 -92 79 -92q47 0 76 32t29 84v281h152zM137 740h139v-132h-139v132zM329 740h139v-132h-139v132z" />
    <glyph glyph-name="yacute" unicode="&#xfd;" horiz-adv-x="550" 
d="M561 507l-234 -534q-43 -97 -108.5 -142.5t-160.5 -58.5l-35 116q70 15 105.5 38t55.5 67l15 33l-209 481h158l130 -329l134 329h149zM321 572h-93l99 206h148z" />
    <glyph glyph-name="thorn" unicode="&#xfe;" horiz-adv-x="631" 
d="M487 486.5q51 -33.5 79.5 -94.5t28.5 -139t-28.5 -137.5t-79.5 -91.5t-116 -32q-53 0 -95 22t-64 61v-291h-151v952h151v-300q22 39 64.5 61.5t94.5 22.5q65 0 116 -33.5zM414 144.5q30 37.5 30 108.5t-30.5 111t-85.5 40q-56 0 -86.5 -38.5t-30.5 -110.5t30.5 -110
t86.5 -38t86 37.5z" />
    <glyph glyph-name="ydieresis" unicode="&#xff;" horiz-adv-x="550" 
d="M561 507l-234 -534q-43 -97 -108.5 -142.5t-160.5 -58.5l-35 116q70 15 105.5 38t55.5 67l15 33l-209 481h158l130 -329l134 329h149zM109 740h139v-132h-139v132zM301 740h139v-132h-139v132z" />
    <glyph glyph-name="Amacron" unicode="&#x100;" horiz-adv-x="759" 
d="M615 0l-68 158h-333l-68 -158h-157l327 712h126l327 -712h-154zM266 277h230l-115 267zM221 804v94h315v-94h-315z" />
    <glyph glyph-name="amacron" unicode="&#x101;" horiz-adv-x="630" 
d="M569 507v-507h-149v75q-23 -39 -65 -61t-95 -22q-66 0 -116.5 32t-79 91.5t-28.5 137.5t28.5 139t79.5 94.5t116 33.5q53 0 95 -23t65 -62v72h149zM390 145q30 38 30 110t-30 110.5t-86 38.5t-87 -40t-31 -111t30.5 -108.5t87.5 -37.5q56 0 86 38zM157 626v94h315v-94
h-315z" />
    <glyph glyph-name="Abreve" unicode="&#x102;" horiz-adv-x="759" 
d="M615 0l-68 158h-333l-68 -158h-157l327 712h126l327 -712h-154zM266 277h230l-115 267zM266 810q-47 28 -67 82l70 29q32 -49 110 -49q77 0 109 49l70 -29q-20 -54 -67 -82t-112 -28q-66 0 -113 28z" />
    <glyph glyph-name="abreve" unicode="&#x103;" horiz-adv-x="630" 
d="M569 507v-507h-149v75q-23 -39 -65 -61t-95 -22q-66 0 -116.5 32t-79 91.5t-28.5 137.5t28.5 139t79.5 94.5t116 33.5q53 0 95 -23t65 -62v72h149zM390 145q30 38 30 110t-30 110.5t-86 38.5t-87 -40t-31 -111t30.5 -108.5t87.5 -37.5q56 0 86 38zM197 631
q-52 37 -69 109l69 30q44 -81 118 -81q73 0 117 81l69 -30q-17 -71 -68.5 -108.5t-117.5 -37.5t-118 37z" />
    <glyph glyph-name="Aogonek" unicode="&#x104;" horiz-adv-x="759" 
d="M775 -178q-48 -21 -101 -21q-56 0 -92.5 30.5t-36.5 80.5q0 33 16 61t46 46l-60 139h-333l-68 -158h-157l327 712h126l327 -712h-51q-34 0 -55 -18.5t-21 -47.5q0 -27 15.5 -40.5t45.5 -13.5q26 0 55 13zM266 277h230l-115 267z" />
    <glyph glyph-name="aogonek" unicode="&#x105;" horiz-adv-x="630" 
d="M609 -182q-47 -22 -103 -22q-57 0 -93.5 32.5t-36.5 83.5q0 56 44 94v69q-23 -39 -65 -61t-95 -22q-66 0 -117 32.5t-79 91.5t-28 137t28.5 138.5t79.5 94.5t116 34q53 0 95 -23t65 -62v72h149v-507h-9q-39 0 -63 -18.5t-24 -49.5q0 -27 16 -41.5t46 -14.5q28 0 57 14z
M390 145q30 38 30 110t-30 110.5t-86 38.5t-87 -40t-31 -111t30.5 -108.5t87.5 -37.5q56 0 86 38z" />
    <glyph glyph-name="Cacute" unicode="&#x106;" horiz-adv-x="685" 
d="M216.5 36.5q-80.5 45.5 -123.5 128t-43 192.5q0 109 43 191.5t123.5 127.5t188.5 45q71 0 135.5 -21.5t105.5 -60.5l-49 -112q-48 36 -93.5 52.5t-95.5 16.5q-96 0 -147 -61t-51 -178q0 -118 51 -179.5t147 -61.5q50 0 95.5 16.5t93.5 52.5l49 -112q-41 -39 -105.5 -60.5
t-135.5 -21.5q-108 0 -188.5 45.5zM444 773h-93l103 157h140z" />
    <glyph glyph-name="cacute" unicode="&#x107;" horiz-adv-x="509" 
d="M106.5 62q-70.5 70 -70.5 191q0 79 34 139.5t95.5 94t142.5 33.5q55 0 107 -17t83 -46l-40 -105q-30 24 -66 37.5t-70 13.5q-62 0 -96.5 -37.5t-34.5 -109.5q0 -73 34 -110.5t97 -37.5q34 0 70 13.5t66 37.5l40 -105q-33 -29 -86 -45.5t-111 -16.5q-124 0 -194.5 70z
M349 572h-93l99 206h148z" />
    <glyph glyph-name="Ccircumflex" unicode="&#x108;" horiz-adv-x="685" 
d="M216.5 36.5q-80.5 45.5 -123.5 128t-43 192.5q0 109 43 191.5t123.5 127.5t188.5 45q71 0 135.5 -21.5t105.5 -60.5l-49 -112q-48 36 -93.5 52.5t-95.5 16.5q-96 0 -147 -61t-51 -178q0 -118 51 -179.5t147 -61.5q50 0 95.5 16.5t93.5 52.5l49 -112q-41 -39 -105.5 -60.5
t-135.5 -21.5q-108 0 -188.5 45.5zM335 773h-114l133 157h87l133 -157h-114l-62 86z" />
    <glyph glyph-name="ccircumflex" unicode="&#x109;" horiz-adv-x="509" 
d="M106.5 62q-70.5 70 -70.5 191q0 79 34 139.5t95.5 94t142.5 33.5q55 0 107 -17t83 -46l-40 -105q-30 24 -66 37.5t-70 13.5q-62 0 -96.5 -37.5t-34.5 -109.5q0 -73 34 -110.5t97 -37.5q34 0 70 13.5t66 37.5l40 -105q-33 -29 -86 -45.5t-111 -16.5q-124 0 -194.5 70z
M244 572h-118l131 206h91l131 -206h-118l-58 117z" />
    <glyph glyph-name="Cdotaccent" unicode="&#x10a;" horiz-adv-x="685" 
d="M216.5 36.5q-80.5 45.5 -123.5 128t-43 192.5q0 109 43 191.5t123.5 127.5t188.5 45q71 0 135.5 -21.5t105.5 -60.5l-49 -112q-48 36 -93.5 52.5t-95.5 16.5q-96 0 -147 -61t-51 -178q0 -118 51 -179.5t147 -61.5q50 0 95.5 16.5t93.5 52.5l49 -112q-41 -39 -105.5 -60.5
t-135.5 -21.5q-108 0 -188.5 45.5zM317 923h161v-142h-161v142z" />
    <glyph glyph-name="cdotaccent" unicode="&#x10b;" horiz-adv-x="509" 
d="M106.5 62q-70.5 70 -70.5 191q0 79 34 139.5t95.5 94t142.5 33.5q55 0 107 -17t83 -46l-40 -105q-30 24 -66 37.5t-70 13.5q-62 0 -96.5 -37.5t-34.5 -109.5q0 -73 34 -110.5t97 -37.5q34 0 70 13.5t66 37.5l40 -105q-33 -29 -86 -45.5t-111 -16.5q-124 0 -194.5 70z
M222 745h161v-142h-161v142z" />
    <glyph glyph-name="Ccaron" unicode="&#x10c;" horiz-adv-x="685" 
d="M216.5 36.5q-80.5 45.5 -123.5 128t-43 192.5q0 109 43 191.5t123.5 127.5t188.5 45q71 0 135.5 -21.5t105.5 -60.5l-49 -112q-48 36 -93.5 52.5t-95.5 16.5q-96 0 -147 -61t-51 -178q0 -118 51 -179.5t147 -61.5q50 0 95.5 16.5t93.5 52.5l49 -112q-41 -39 -105.5 -60.5
t-135.5 -21.5q-108 0 -188.5 45.5zM460 930h114l-133 -157h-87l-133 157h114l63 -87z" />
    <glyph glyph-name="ccaron" unicode="&#x10d;" horiz-adv-x="509" 
d="M106.5 62q-70.5 70 -70.5 191q0 79 34 139.5t95.5 94t142.5 33.5q55 0 107 -17t83 -46l-40 -105q-30 24 -66 37.5t-70 13.5q-62 0 -96.5 -37.5t-34.5 -109.5q0 -73 34 -110.5t97 -37.5q34 0 70 13.5t66 37.5l40 -105q-33 -29 -86 -45.5t-111 -16.5q-124 0 -194.5 70z
M361 778h118l-131 -206h-91l-131 206h118l59 -118z" />
    <glyph glyph-name="Dcaron" unicode="&#x10e;" horiz-adv-x="771" 
d="M71 712h275q117 0 201 -42t128.5 -122t44.5 -191q0 -112 -44 -192t-128 -122.5t-202 -42.5h-275v712zM336 126q228 0 228 231q0 229 -228 229h-109v-460h109zM447 930h114l-133 -157h-87l-133 157h114l63 -87z" />
    <glyph glyph-name="dcaron" unicode="&#x10f;" horiz-adv-x="630" 
d="M418 736h151v-736h-149v75q-23 -39 -65 -61t-95 -22q-65 0 -116 33.5t-79.5 94t-28.5 138.5t28.5 137.5t79 92t116.5 32.5q51 0 93 -21.5t65 -59.5v297zM597 736h79l-27 -200h-52v200zM390 145.5q30 38.5 30 110.5q0 71 -30.5 109.5t-85.5 38.5q-56 0 -87 -38t-31 -108
q0 -72 31 -111.5t87 -39.5t86 38.5z" />
    <glyph glyph-name="Dcroat" unicode="&#x110;" horiz-adv-x="801" 
d="M577 670q84 -42 128.5 -122t44.5 -191q0 -112 -44 -192t-128 -122.5t-201 -42.5h-276v300h-87v119h87v293h276q116 0 200 -42zM594 357q0 229 -228 229h-108v-167h186v-119h-186v-174h108q228 0 228 231z" />
    <glyph glyph-name="dcroat" unicode="&#x111;" horiz-adv-x="630" 
d="M658 560h-89v-560h-149v75q-23 -39 -65 -61t-95 -22q-65 0 -116 33.5t-79.5 94t-28.5 138.5t28.5 137.5t79 92t116.5 32.5q51 0 93 -21.5t65 -59.5v121h-192v105h192v71h151v-71h89v-105zM390 145.5q30 38.5 30 110.5q0 71 -30.5 109.5t-85.5 38.5q-56 0 -87 -38
t-31 -108q0 -72 31 -111.5t87 -39.5t86 38.5z" />
    <glyph glyph-name="Emacron" unicode="&#x112;" horiz-adv-x="599" 
d="M71 0v712h491v-121h-339v-168h318v-122h-318v-180h339v-121h-491zM175 804v94h315v-94h-315z" />
    <glyph glyph-name="emacron" unicode="&#x113;" horiz-adv-x="550" 
d="M516 241h-334q4 -71 37 -103.5t98 -32.5q39 0 78 13t72 38l40 -102q-36 -29 -89.5 -45.5t-107.5 -16.5q-128 0 -201 70.5t-73 192.5q0 77 31.5 137.5t88.5 94t129 33.5q107 0 169 -69.5t62 -187.5v-22zM219.5 389q-26.5 -25 -34.5 -73h201q-12 98 -97 98q-43 0 -69.5 -25
zM127 626v94h315v-94h-315z" />
    <glyph glyph-name="Ebreve" unicode="&#x114;" horiz-adv-x="599" 
d="M71 0v712h491v-121h-339v-168h318v-122h-318v-180h339v-121h-491zM220 810q-47 28 -67 82l70 29q32 -49 110 -49q77 0 109 49l70 -29q-20 -54 -67 -82t-112 -28q-66 0 -113 28z" />
    <glyph glyph-name="ebreve" unicode="&#x115;" horiz-adv-x="550" 
d="M516 241h-334q4 -71 37 -103.5t98 -32.5q39 0 78 13t72 38l40 -102q-36 -29 -89.5 -45.5t-107.5 -16.5q-128 0 -201 70.5t-73 192.5q0 77 31.5 137.5t88.5 94t129 33.5q107 0 169 -69.5t62 -187.5v-22zM219.5 389q-26.5 -25 -34.5 -73h201q-12 98 -97 98q-43 0 -69.5 -25
zM167 631q-52 37 -69 109l69 30q44 -81 118 -81q73 0 117 81l69 -30q-17 -71 -68.5 -108.5t-117.5 -37.5t-118 37z" />
    <glyph glyph-name="Edotaccent" unicode="&#x116;" horiz-adv-x="599" 
d="M71 0v712h491v-121h-339v-168h318v-122h-318v-180h339v-121h-491zM252 923h161v-142h-161v142z" />
    <glyph glyph-name="edotaccent" unicode="&#x117;" horiz-adv-x="550" 
d="M516 241h-334q4 -71 37 -103.5t98 -32.5q39 0 78 13t72 38l40 -102q-36 -29 -89.5 -45.5t-107.5 -16.5q-128 0 -201 70.5t-73 192.5q0 77 31.5 137.5t88.5 94t129 33.5q107 0 169 -69.5t62 -187.5v-22zM219.5 389q-26.5 -25 -34.5 -73h201q-12 98 -97 98q-43 0 -69.5 -25
zM204 745h161v-142h-161v142z" />
    <glyph glyph-name="Eogonek" unicode="&#x118;" horiz-adv-x="599" 
d="M601 -178q-48 -21 -101 -21q-57 0 -92.5 31t-35.5 80q0 53 38 88h-339v712h491v-121h-339v-168h318v-122h-318v-180h339v-121h-22q-33 0 -52 -18t-19 -48q0 -54 59 -54q27 0 56 13z" />
    <glyph glyph-name="eogonek" unicode="&#x119;" horiz-adv-x="550" 
d="M516 241h-334q4 -71 37 -103.5t98 -32.5q39 0 78 13t72 38l40 -101q-8 -8 -19.5 -14.5t-39.5 -19.5q-42 -21 -59.5 -41.5t-17.5 -47.5t16 -41.5t45 -14.5t57 14l17 -72q-49 -22 -102 -22q-58 0 -94.5 32t-36.5 82q0 49 35 82q-127 1 -199.5 71.5t-72.5 191.5
q0 77 31.5 137.5t88.5 94t129 33.5q107 0 169 -69.5t62 -187.5v-22zM220.5 389q-26.5 -25 -35.5 -73h201q-12 98 -97 98q-42 0 -68.5 -25z" />
    <glyph glyph-name="Ecaron" unicode="&#x11a;" horiz-adv-x="599" 
d="M71 0v712h491v-121h-339v-168h318v-122h-318v-180h339v-121h-491zM395 930h114l-133 -157h-87l-133 157h114l63 -87z" />
    <glyph glyph-name="ecaron" unicode="&#x11b;" horiz-adv-x="550" 
d="M516 241h-334q4 -71 37 -103.5t98 -32.5q39 0 78 13t72 38l40 -102q-36 -29 -89.5 -45.5t-107.5 -16.5q-128 0 -201 70.5t-73 192.5q0 77 31.5 137.5t88.5 94t129 33.5q107 0 169 -69.5t62 -187.5v-22zM219.5 389q-26.5 -25 -34.5 -73h201q-12 98 -97 98q-43 0 -69.5 -25
zM343 778h118l-131 -206h-91l-131 206h118l59 -118z" />
    <glyph glyph-name="Gcircumflex" unicode="&#x11c;" horiz-adv-x="745" 
d="M682 393v-349q-52 -25 -121.5 -39t-142.5 -14q-113 0 -196 44t-127.5 126t-44.5 196q0 111 44.5 193t126 126.5t190.5 44.5q77 0 143.5 -21t109.5 -59l-50 -112q-50 36 -97 52t-102 16q-206 0 -206 -240q0 -245 215 -245q59 0 118 15v157h-140v109h280zM348 773h-114
l133 157h87l133 -157h-114l-62 86z" />
    <glyph glyph-name="gcircumflex" unicode="&#x11d;" horiz-adv-x="634" 
d="M574 507v-484q0 -121 -70 -184t-204 -63q-121 0 -210 47l23 112q92 -46 182 -46q65 0 97 30.5t32 92.5v88q-24 -37 -67 -61.5t-95 -24.5q-66 0 -117 31.5t-80 89t-29 132.5t29 132.5t80 89t117 31.5q53 0 96 -23t66 -62v72h150zM392.5 165.5q31.5 36.5 31.5 101.5
q0 64 -31 100.5t-87 36.5t-88 -36.5t-32 -100.5t32 -101t88 -37q55 0 86.5 36.5zM259 572h-118l131 206h91l131 -206h-118l-58 117z" />
    <glyph glyph-name="Gbreve" unicode="&#x11e;" horiz-adv-x="745" 
d="M682 393v-349q-52 -25 -121.5 -39t-142.5 -14q-113 0 -196 44t-127.5 126t-44.5 196q0 111 44.5 193t126 126.5t190.5 44.5q77 0 143.5 -21t109.5 -59l-50 -112q-50 36 -97 52t-102 16q-206 0 -206 -240q0 -245 215 -245q59 0 118 15v157h-140v109h280zM298 810
q-47 28 -67 82l70 29q32 -49 110 -49q77 0 109 49l70 -29q-20 -54 -67 -82t-112 -28q-66 0 -113 28z" />
    <glyph glyph-name="gbreve" unicode="&#x11f;" horiz-adv-x="634" 
d="M574 507v-484q0 -121 -70 -184t-204 -63q-121 0 -210 47l23 112q92 -46 182 -46q65 0 97 30.5t32 92.5v88q-24 -37 -67 -61.5t-95 -24.5q-66 0 -117 31.5t-80 89t-29 132.5t29 132.5t80 89t117 31.5q53 0 96 -23t66 -62v72h150zM392.5 165.5q31.5 36.5 31.5 101.5
q0 64 -31 100.5t-87 36.5t-88 -36.5t-32 -100.5t32 -101t88 -37q55 0 86.5 36.5zM200 631q-52 37 -69 109l69 30q44 -81 118 -81q73 0 117 81l69 -30q-17 -71 -68.5 -108.5t-117.5 -37.5t-118 37z" />
    <glyph glyph-name="Gdotaccent" unicode="&#x120;" horiz-adv-x="745" 
d="M682 393v-349q-52 -25 -121.5 -39t-142.5 -14q-113 0 -196 44t-127.5 126t-44.5 196q0 111 44.5 193t126 126.5t190.5 44.5q77 0 143.5 -21t109.5 -59l-50 -112q-50 36 -97 52t-102 16q-206 0 -206 -240q0 -245 215 -245q59 0 118 15v157h-140v109h280zM330 923h161v-142
h-161v142z" />
    <glyph glyph-name="gdotaccent" unicode="&#x121;" horiz-adv-x="634" 
d="M574 507v-484q0 -121 -70 -184t-204 -63q-121 0 -210 47l23 112q92 -46 182 -46q65 0 97 30.5t32 92.5v88q-24 -37 -67 -61.5t-95 -24.5q-66 0 -117 31.5t-80 89t-29 132.5t29 132.5t80 89t117 31.5q53 0 96 -23t66 -62v72h150zM392.5 165.5q31.5 36.5 31.5 101.5
q0 64 -31 100.5t-87 36.5t-88 -36.5t-32 -100.5t32 -101t88 -37q55 0 86.5 36.5zM237 745h161v-142h-161v142z" />
    <glyph glyph-name="Gcommaaccent" unicode="&#x122;" horiz-adv-x="745" 
d="M682 393v-349q-52 -25 -121.5 -39t-142.5 -14q-113 0 -196 44t-127.5 126t-44.5 196q0 111 44.5 193t126 126.5t190.5 44.5q77 0 143.5 -21t109.5 -59l-50 -112q-50 36 -97 52t-102 16q-206 0 -206 -240q0 -245 215 -245q59 0 118 15v157h-140v109h280zM492 -67v-64
q0 -47 -13.5 -82t-46.5 -65l-55 38q29 27 35 59h-70v114h150z" />
    <glyph glyph-name="gcommaaccent" unicode="&#x123;" horiz-adv-x="634" 
d="M574 507v-484q0 -121 -70 -184t-204 -63q-121 0 -210 47l23 112q92 -46 182 -46q65 0 97 30.5t32 92.5v88q-24 -37 -67 -61.5t-95 -24.5q-66 0 -117 31.5t-80 89t-29 132.5t29 132.5t80 89t117 31.5q53 0 96 -23t66 -62v72h150zM392.5 165.5q31.5 36.5 31.5 101.5
q0 64 -31 100.5t-87 36.5t-88 -36.5t-32 -100.5t32 -101t88 -37q55 0 86.5 36.5zM392 715v-114h-150v64q0 47 13.5 82.5t46.5 64.5l55 -37q-28 -27 -35 -60h70z" />
    <glyph glyph-name="Hcircumflex" unicode="&#x124;" horiz-adv-x="779" 
d="M554 712h153v-712h-153v299h-330v-299h-153v712h153v-288h330v288zM326 773h-114l133 157h87l133 -157h-114l-62 86z" />
    <glyph glyph-name="hcircumflex" unicode="&#x125;" horiz-adv-x="613" 
d="M554 307v-307h-151v300q0 53 -19.5 77.5t-61.5 24.5q-50 0 -80 -32t-30 -86v-284h-151v736h151v-298q27 40 69 61t93 21q180 0 180 -213zM76 797h-114l133 157h87l133 -157h-114l-62 86z" />
    <glyph glyph-name="Hbar" unicode="&#x126;" horiz-adv-x="838" 
d="M824 628v-115h-87v-513h-153v299h-329v-299h-154v513h-87v115h87v84h154v-84h329v84h153v-84h87zM584 424v89h-329v-89h329z" />
    <glyph glyph-name="hbar" unicode="&#x127;" horiz-adv-x="613" 
d="M554 307v-307h-151v300q0 53 -19.5 77.5t-61.5 24.5q-50 0 -80 -32t-30 -86v-284h-151v560h-88v105h88v71h151v-71h192v-105h-192v-122q27 40 69 61t93 21q180 0 180 -213z" />
    <glyph glyph-name="Itilde" unicode="&#x128;" horiz-adv-x="299" 
d="M71 0v712h156v-712h-156zM2.5 890q30.5 37 78.5 37q19 0 37.5 -8t39.5 -22q22 -12 33.5 -17.5t23.5 -5.5q19 0 30.5 13.5t13.5 36.5h64q0 -73 -30.5 -110t-78.5 -37q-19 0 -37.5 8t-39.5 22q-22 12 -33.5 17.5t-23.5 5.5q-19 0 -30.5 -13.5t-13.5 -36.5h-64
q0 73 30.5 110z" />
    <glyph glyph-name="itilde" unicode="&#x129;" horiz-adv-x="274" 
d="M61 0v507h151v-507h-151zM-8.5 713.5q30.5 36.5 78.5 36.5q19 0 36.5 -7.5t40.5 -21.5q22 -12 33.5 -17.5t23.5 -5.5q19 0 30.5 13t13.5 36h64q0 -72 -30.5 -109t-78.5 -37q-19 0 -36.5 7.5t-40.5 21.5q-22 12 -33.5 17.5t-23.5 5.5q-19 0 -30.5 -13t-13.5 -36h-64
q0 73 30.5 109.5z" />
    <glyph glyph-name="Imacron" unicode="&#x12a;" horiz-adv-x="299" 
d="M71 0v712h156v-712h-156zM-10 804v94h315v-94h-315z" />
    <glyph glyph-name="imacron" unicode="&#x12b;" horiz-adv-x="274" 
d="M61 0v507h151v-507h-151zM-21 626v94h315v-94h-315z" />
    <glyph glyph-name="Ibreve" unicode="&#x12c;" horiz-adv-x="299" 
d="M71 0v712h156v-712h-156zM35 810q-47 28 -67 82l70 29q32 -49 110 -49q77 0 109 49l70 -29q-20 -54 -67 -82t-112 -28q-66 0 -113 28z" />
    <glyph glyph-name="ibreve" unicode="&#x12d;" horiz-adv-x="274" 
d="M61 0v507h151v-507h-151zM19 631q-52 37 -69 109l69 30q44 -81 118 -81q73 0 117 81l69 -30q-17 -71 -68.5 -108.5t-117.5 -37.5t-118 37z" />
    <glyph glyph-name="Iogonek" unicode="&#x12e;" horiz-adv-x="299" 
d="M261 -178q-48 -21 -101 -21q-56 0 -92.5 31t-36.5 82q0 52 40 89v709h156v-712h-14q-38 0 -61.5 -18.5t-23.5 -47.5q0 -27 16 -40.5t45 -13.5q27 0 54 13z" />
    <glyph glyph-name="iogonek" unicode="&#x12f;" horiz-adv-x="274" 
d="M218 749v-143h-162v143h162zM251 -182q-49 -22 -102 -22q-57 0 -93.5 32t-36.5 84q0 54 42 92v503h151v-507h-9q-40 0 -63.5 -19t-23.5 -49q0 -27 16 -41.5t46 -14.5q28 0 56 14z" />
    <glyph glyph-name="Idotaccent" unicode="&#x130;" horiz-adv-x="299" 
d="M71 0v712h156v-712h-156zM67 923h161v-142h-161v142z" />
    <glyph glyph-name="dotlessi" unicode="&#x131;" horiz-adv-x="274" 
d="M61 0v507h151v-507h-151z" />
    <glyph glyph-name="Jcircumflex" unicode="&#x134;" horiz-adv-x="381" 
d="M0 -53q42 -6 71 -6q48 0 65 21.5t17 77.5v672h156v-670q0 -119 -47 -174.5t-160 -55.5q-45 0 -102 9v126zM167 773h-114l133 157h87l133 -157h-114l-62 86z" />
    <glyph glyph-name="jcircumflex" unicode="&#x135;" horiz-adv-x="274" 
d="M-16 -100q34 0 55.5 20t21.5 62v525h151v-529q0 -96 -49 -149t-142 -53q-52 0 -86 13v118q29 -7 49 -7zM77 572h-118l131 206h91l131 -206h-118l-58 117z" />
    <glyph glyph-name="Kcommaaccent" unicode="&#x136;" horiz-adv-x="685" 
d="M725 0h-188l-310 329v-329h-156v712h156v-313l299 313h186l-331 -340zM418 -67v-64q0 -47 -13.5 -82t-46.5 -65l-55 38q29 27 35 59h-70v114h150z" />
    <glyph glyph-name="kcommaaccent" unicode="&#x137;" horiz-adv-x="573" 
d="M596 0h-185l-199 227v-227h-151v736h151v-447l190 217h181l-215 -243zM360 -67v-64q0 -47 -13.5 -82t-46.5 -65l-55 38q29 27 35 59h-70v114h150z" />
    <glyph glyph-name="kgreenlandic" unicode="&#x138;" horiz-adv-x="573" 
d="M596 0h-185l-199 227v-227h-151v507h151v-218l190 217h181l-215 -243z" />
    <glyph glyph-name="Lacute" unicode="&#x139;" horiz-adv-x="569" 
d="M71 0v712h156v-585h318v-127h-474zM194 773h-93l103 157h140z" />
    <glyph glyph-name="lacute" unicode="&#x13a;" horiz-adv-x="274" 
d="M61 0v736h151v-736h-151zM183 797h-93l103 157h140z" />
    <glyph glyph-name="Lcommaaccent" unicode="&#x13b;" horiz-adv-x="569" 
d="M71 0v712h156v-585h318v-127h-474zM390 -67v-64q0 -47 -13.5 -82t-46.5 -65l-55 38q29 27 35 59h-70v114h150z" />
    <glyph glyph-name="lcommaaccent" unicode="&#x13c;" horiz-adv-x="274" 
d="M61 0v736h151v-736h-151zM211 -67v-64q0 -47 -13.5 -82t-46.5 -65l-55 38q29 27 35 59h-70v114h150z" />
    <glyph glyph-name="Lcaron" unicode="&#x13d;" horiz-adv-x="569" 
d="M71 0v712h156v-585h318v-127h-474zM387 516h-71v196h97z" />
    <glyph glyph-name="lcaron" unicode="&#x13e;" horiz-adv-x="274" 
d="M61 0v736h151v-736h-151zM293 536h-53v200h79z" />
    <glyph glyph-name="Ldot" unicode="&#x13f;" horiz-adv-x="569" 
d="M71 0v712h156v-585h318v-127h-474zM313 427h161v-141h-161v141z" />
    <glyph glyph-name="ldot" unicode="&#x140;" horiz-adv-x="379" 
d="M61 0v736h151v-736h-151zM242 428h161v-141h-161v141z" />
    <glyph glyph-name="Lslash" unicode="&#x141;" horiz-adv-x="600" 
d="M258 127h318v-127h-475v247l-91 -52v133l91 53v331h157v-240l184 106v-134l-184 -106v-211z" />
    <glyph glyph-name="lslash" unicode="&#x142;" horiz-adv-x="358" 
d="M374 411l-120 -69v-342h-151v255l-63 -36l-56 101l119 69v347h151v-259l63 37z" />
    <glyph glyph-name="Nacute" unicode="&#x143;" horiz-adv-x="760" 
d="M541 712h147v-712h-116l-355 454v-454h-146v712h115l355 -453v453zM425 773h-93l103 157h140z" />
    <glyph glyph-name="nacute" unicode="&#x144;" horiz-adv-x="613" 
d="M554 307v-307h-151v300q0 53 -19.5 77.5t-61.5 24.5q-50 0 -80 -32t-30 -86v-284h-151v362q0 81 -8 145h142l10 -80q27 45 70.5 69t98.5 24q180 0 180 -213zM354 572h-93l99 206h148z" />
    <glyph glyph-name="Ncommaaccent" unicode="&#x145;" horiz-adv-x="760" 
d="M541 712h147v-712h-116l-355 454v-454h-146v712h115l355 -453v453zM454 -67v-64q0 -47 -13.5 -82t-46.5 -65l-55 38q29 27 35 59h-70v114h150z" />
    <glyph glyph-name="ncommaaccent" unicode="&#x146;" horiz-adv-x="613" 
d="M554 307v-307h-151v300q0 53 -19.5 77.5t-61.5 24.5q-50 0 -80 -32t-30 -86v-284h-151v362q0 81 -8 145h142l10 -80q27 45 70.5 69t98.5 24q180 0 180 -213zM382 -67v-64q0 -47 -13.5 -82t-46.5 -65l-55 38q29 27 35 59h-70v114h150z" />
    <glyph glyph-name="Ncaron" unicode="&#x147;" horiz-adv-x="760" 
d="M541 712h147v-712h-116l-355 454v-454h-146v712h115l355 -453v453zM441 930h114l-133 -157h-87l-133 157h114l63 -87z" />
    <glyph glyph-name="ncaron" unicode="&#x148;" horiz-adv-x="613" 
d="M554 307v-307h-151v300q0 53 -19.5 77.5t-61.5 24.5q-50 0 -80 -32t-30 -86v-284h-151v362q0 81 -8 145h142l10 -80q27 45 70.5 69t98.5 24q180 0 180 -213zM366 778h118l-131 -206h-91l-131 206h118l59 -118z" />
    <glyph glyph-name="napostrophe" unicode="&#x149;" horiz-adv-x="613" 
d="M224 767v-65q0 -47 -13.5 -82t-46.5 -65l-55 39q29 26 35 58h-70v115h150zM554 307v-307h-151v300q0 53 -19.5 77.5t-61.5 24.5q-50 0 -80 -32t-30 -86v-284h-151v362q0 81 -8 145h142l10 -80q27 45 70.5 69t98.5 24q180 0 180 -213z" />
    <glyph glyph-name="Eng" unicode="&#x14a;" horiz-adv-x="760" 
d="M688 712v-684q0 -201 -211 -213l-92 -5l-10 118l76 5q43 2 66 25.5t23 63.5v20l-323 412v-454h-146v712h115l355 -453v453h147z" />
    <glyph glyph-name="eng" unicode="&#x14b;" horiz-adv-x="613" 
d="M554 307v-308q0 -111 -48 -167t-142 -56q-48 0 -87 10v121q28 -7 49 -7q77 0 77 102v298q0 53 -19.5 77.5t-61.5 24.5q-50 0 -80 -32t-30 -86v-284h-151v362q0 81 -8 145h142l10 -80q27 45 70.5 69t98.5 24q180 0 180 -213z" />
    <glyph glyph-name="Omacron" unicode="&#x14c;" horiz-adv-x="795" 
d="M213.5 35.5q-78.5 44.5 -121 127.5t-42.5 194t42.5 193t121 126.5t184.5 44.5t184 -44.5t120 -126.5t42 -193t-42 -194t-120 -127.5t-184 -44.5t-184.5 44.5zM538.5 176q50.5 63 50.5 181t-50.5 180t-140.5 62t-140.5 -62t-50.5 -180q0 -119 50.5 -181.5t140.5 -62.5
t140.5 63zM239 804v94h315v-94h-315z" />
    <glyph glyph-name="omacron" unicode="&#x14d;" horiz-adv-x="604" 
d="M161.5 24q-60.5 32 -93 92t-32.5 140t32.5 140t93 92t141.5 32q80 0 140 -32t92.5 -92t32.5 -140t-32.5 -140t-92.5 -92t-140 -32q-81 0 -141.5 32zM388.5 144q29.5 37 29.5 112q0 74 -29.5 111.5t-85.5 37.5q-57 0 -87 -37.5t-30 -111.5q0 -149 117 -149q56 0 85.5 37z
M145 626v94h315v-94h-315z" />
    <glyph glyph-name="Obreve" unicode="&#x14e;" horiz-adv-x="795" 
d="M213.5 35.5q-78.5 44.5 -121 127.5t-42.5 194t42.5 193t121 126.5t184.5 44.5t184 -44.5t120 -126.5t42 -193t-42 -194t-120 -127.5t-184 -44.5t-184.5 44.5zM538.5 176q50.5 63 50.5 181t-50.5 180t-140.5 62t-140.5 -62t-50.5 -180q0 -119 50.5 -181.5t140.5 -62.5
t140.5 63zM284 810q-47 28 -67 82l70 29q32 -49 110 -49q77 0 109 49l70 -29q-20 -54 -67 -82t-112 -28q-66 0 -113 28z" />
    <glyph glyph-name="obreve" unicode="&#x14f;" horiz-adv-x="604" 
d="M161.5 24q-60.5 32 -93 92t-32.5 140t32.5 140t93 92t141.5 32q80 0 140 -32t92.5 -92t32.5 -140t-32.5 -140t-92.5 -92t-140 -32q-81 0 -141.5 32zM388.5 144q29.5 37 29.5 112q0 74 -29.5 111.5t-85.5 37.5q-57 0 -87 -37.5t-30 -111.5q0 -149 117 -149q56 0 85.5 37z
M185 631q-52 37 -69 109l69 30q44 -81 118 -81q73 0 117 81l69 -30q-17 -71 -68.5 -108.5t-117.5 -37.5t-118 37z" />
    <glyph glyph-name="Ohungarumlaut" unicode="&#x150;" horiz-adv-x="795" 
d="M213.5 35.5q-78.5 44.5 -121 127.5t-42.5 194t42.5 193t121 126.5t184.5 44.5t184 -44.5t120 -126.5t42 -193t-42 -194t-120 -127.5t-184 -44.5t-184.5 44.5zM538.5 176q50.5 63 50.5 181t-50.5 180t-140.5 62t-140.5 -62t-50.5 -180q0 -119 50.5 -181.5t140.5 -62.5
t140.5 63zM289 773l74 157h101l-100 -157h-75zM429 773l74 157h102l-101 -157h-75z" />
    <glyph glyph-name="ohungarumlaut" unicode="&#x151;" horiz-adv-x="604" 
d="M161.5 24q-60.5 32 -93 92t-32.5 140t32.5 140t93 92t141.5 32q80 0 140 -32t92.5 -92t32.5 -140t-32.5 -140t-92.5 -92t-140 -32q-81 0 -141.5 32zM388.5 144q29.5 37 29.5 112q0 74 -29.5 111.5t-85.5 37.5q-57 0 -87 -37.5t-30 -111.5q0 -149 117 -149q56 0 85.5 37z
M265 572h-65l35 206h109zM405 572h-65l34 206h109z" />
    <glyph glyph-name="OE" unicode="&#x152;" horiz-adv-x="1054" 
d="M679 591v-168h318v-122h-318v-180h338v-121h-481v37q-57 -46 -157 -46q-96 0 -171 46t-116.5 129.5t-41.5 190.5q0 106 41.5 189t116.5 129t171 46q99 0 157 -44v35h481v-121h-338zM256.5 176q49.5 -63 141.5 -63q80 0 129 35v416q-49 35 -129 35q-92 0 -141.5 -63
t-49.5 -179q0 -118 49.5 -181z" />
    <glyph glyph-name="oe" unicode="&#x153;" horiz-adv-x="929" 
d="M894 225h-327q7 -63 37 -91.5t86 -28.5q85 0 155 51l41 -102q-36 -29 -89.5 -45.5t-107.5 -16.5q-132 0 -197 86q-32 -42 -81 -64t-112 -22q-80 0 -139.5 32.5t-91.5 92t-32 139.5t32 139.5t91.5 92t139.5 32.5q64 0 113 -22.5t81 -65.5q31 42 78 65t105 23
q64 0 113.5 -32.5t77 -90.5t27.5 -134v-38zM600 385q-27 -29 -33 -84h199q-3 55 -27 84t-66 29q-46 0 -73 -29zM414 256q0 74 -29 111.5t-84 37.5q-56 0 -85.5 -37.5t-29.5 -111.5q0 -75 29.5 -112t85.5 -37q113 0 113 149z" />
    <glyph glyph-name="Racute" unicode="&#x154;" horiz-adv-x="708" 
d="M672 0h-165l-91 237q-11 28 -33.5 39t-56.5 11h-101v-287h-154v712h317q124 0 188 -54t64 -155q0 -71 -37.5 -122t-107.5 -73q63 -13 91 -87zM365 406q67 0 98 22.5t31 70.5t-31 70.5t-98 22.5h-142v-186h142zM402 773h-93l103 157h140z" />
    <glyph glyph-name="racute" unicode="&#x155;" horiz-adv-x="410" 
d="M410 509l-1 -138q-37 17 -74 17q-60 0 -91.5 -32.5t-31.5 -90.5v-265h-151v362q0 81 -8 145h142l10 -87q19 48 59.5 73.5t91.5 25.5q32 0 54 -10zM286 572h-93l99 206h148z" />
    <glyph glyph-name="Rcommaaccent" unicode="&#x156;" horiz-adv-x="708" 
d="M672 0h-165l-91 237q-11 28 -33.5 39t-56.5 11h-101v-287h-154v712h317q124 0 188 -54t64 -155q0 -71 -37.5 -122t-107.5 -73q63 -13 91 -87zM365 406q67 0 98 22.5t31 70.5t-31 70.5t-98 22.5h-142v-186h142zM431 -67v-64q0 -47 -13.5 -82t-46.5 -65l-55 38q29 27 35 59
h-70v114h150z" />
    <glyph glyph-name="rcommaaccent" unicode="&#x157;" horiz-adv-x="410" 
d="M410 509l-1 -138q-37 17 -74 17q-60 0 -91.5 -32.5t-31.5 -90.5v-265h-151v362q0 81 -8 145h142l10 -87q19 48 59.5 73.5t91.5 25.5q32 0 54 -10zM211 -67v-64q0 -47 -13.5 -82t-46.5 -65l-55 38q29 27 35 59h-70v114h150z" />
    <glyph glyph-name="Rcaron" unicode="&#x158;" horiz-adv-x="708" 
d="M672 0h-165l-91 237q-11 28 -33.5 39t-56.5 11h-101v-287h-154v712h317q124 0 188 -54t64 -155q0 -71 -37.5 -122t-107.5 -73q63 -13 91 -87zM365 406q67 0 98 22.5t31 70.5t-31 70.5t-98 22.5h-142v-186h142zM418 930h114l-133 -157h-87l-133 157h114l63 -87z" />
    <glyph glyph-name="rcaron" unicode="&#x159;" horiz-adv-x="410" 
d="M410 509l-1 -138q-37 17 -74 17q-60 0 -91.5 -32.5t-31.5 -90.5v-265h-151v362q0 81 -8 145h142l10 -87q19 48 59.5 73.5t91.5 25.5q32 0 54 -10zM298 778h118l-131 -206h-91l-131 206h118l59 -118z" />
    <glyph glyph-name="Sacute" unicode="&#x15a;" horiz-adv-x="657" 
d="M164.5 12.5q-74.5 21.5 -123.5 60.5l50 112q103 -72 230 -72q68 0 104.5 21.5t36.5 60.5q0 34 -33.5 53.5t-117.5 37.5q-94 19 -149.5 46.5t-81 67t-25.5 98.5q0 64 35.5 115t99.5 79.5t148 28.5q76 0 146 -22t112 -60l-50 -112q-94 72 -207 72q-60 0 -96 -24t-36 -65
q0 -24 13.5 -40t45.5 -28.5t91 -24.5q137 -30 197.5 -78t60.5 -131q0 -100 -78 -158.5t-217 -58.5q-81 0 -155.5 21.5zM377 773h-93l103 157h140z" />
    <glyph glyph-name="sacute" unicode="&#x15b;" horiz-adv-x="503" 
d="M28 54l40 105q40 -29 89 -44.5t100 -15.5q39 0 60 12t21 35q0 19 -15 30t-53 19l-83 19q-73 16 -107.5 51t-34.5 93q0 47 27.5 84t76.5 57.5t113 20.5q54 0 106 -16.5t93 -46.5l-42 -101q-39 27 -79.5 41t-78.5 14q-37 0 -58 -13t-21 -36q0 -17 12.5 -27.5t44.5 -17.5
l85 -19q78 -18 113 -54t35 -96q0 -72 -58 -114t-159 -42q-144 0 -227 62zM307 572h-93l99 206h148z" />
    <glyph glyph-name="Scircumflex" unicode="&#x15c;" horiz-adv-x="657" 
d="M164.5 12.5q-74.5 21.5 -123.5 60.5l50 112q103 -72 230 -72q68 0 104.5 21.5t36.5 60.5q0 34 -33.5 53.5t-117.5 37.5q-94 19 -149.5 46.5t-81 67t-25.5 98.5q0 64 35.5 115t99.5 79.5t148 28.5q76 0 146 -22t112 -60l-50 -112q-94 72 -207 72q-60 0 -96 -24t-36 -65
q0 -24 13.5 -40t45.5 -28.5t91 -24.5q137 -30 197.5 -78t60.5 -131q0 -100 -78 -158.5t-217 -58.5q-81 0 -155.5 21.5zM268 773h-114l133 157h87l133 -157h-114l-62 86z" />
    <glyph glyph-name="scircumflex" unicode="&#x15d;" horiz-adv-x="503" 
d="M28 54l40 105q40 -29 89 -44.5t100 -15.5q39 0 60 12t21 35q0 19 -15 30t-53 19l-83 19q-73 16 -107.5 51t-34.5 93q0 47 27.5 84t76.5 57.5t113 20.5q54 0 106 -16.5t93 -46.5l-42 -101q-39 27 -79.5 41t-78.5 14q-37 0 -58 -13t-21 -36q0 -17 12.5 -27.5t44.5 -17.5
l85 -19q78 -18 113 -54t35 -96q0 -72 -58 -114t-159 -42q-144 0 -227 62zM202 572h-118l131 206h91l131 -206h-118l-58 117z" />
    <glyph glyph-name="Scedilla" unicode="&#x15e;" horiz-adv-x="657" 
d="M546.5 56.5q-68.5 -57.5 -190.5 -64.5l-5 -33q5 1 13 1q38 0 61.5 -19t23.5 -51q0 -40 -36 -64.5t-101 -24.5q-22 0 -47.5 4.5t-46.5 13.5l12 59q46 -14 79 -14q46 0 46 26q0 9 -8.5 14.5t-24.5 5.5q-13 0 -36 -7l-20 21l9 69q-69 5 -130.5 26t-103.5 54l50 112
q103 -72 230 -72q68 0 104.5 21.5t36.5 60.5q0 34 -33.5 53.5t-117.5 37.5q-94 19 -149.5 46.5t-81 67t-25.5 98.5q0 64 35.5 115t99.5 79.5t148 28.5q76 0 146 -22t112 -60l-50 -112q-94 72 -207 72q-60 0 -96 -24t-36 -65q0 -24 13.5 -40t45.5 -28.5t91 -24.5
q137 -30 197.5 -78t60.5 -131q0 -94 -68.5 -151.5z" />
    <glyph glyph-name="scedilla" unicode="&#x15f;" horiz-adv-x="503" 
d="M421 39.5q-51 -41.5 -140 -46.5l-5 -34q5 1 13 1q38 0 61.5 -19t23.5 -51q0 -40 -36 -64.5t-101 -24.5q-21 0 -47 4.5t-47 13.5l12 59q46 -14 79 -14q46 0 46 26q0 9 -8.5 14.5t-24.5 5.5q-13 0 -36 -7l-20 21l9 71q-105 9 -172 59l40 105q40 -29 89 -44.5t100 -15.5
q39 0 60 12t21 35q0 19 -15 30t-53 19l-83 19q-73 16 -107.5 51t-34.5 93q0 47 27.5 84t76.5 57.5t113 20.5q54 0 106 -16.5t93 -46.5l-42 -101q-39 27 -79.5 41t-78.5 14q-37 0 -58 -13t-21 -36q0 -17 12.5 -27.5t44.5 -17.5l85 -19q78 -18 113 -54t35 -96
q0 -67 -51 -108.5z" />
    <glyph glyph-name="Scaron" unicode="&#x160;" horiz-adv-x="657" 
d="M164.5 12.5q-74.5 21.5 -123.5 60.5l50 112q103 -72 230 -72q68 0 104.5 21.5t36.5 60.5q0 34 -33.5 53.5t-117.5 37.5q-94 19 -149.5 46.5t-81 67t-25.5 98.5q0 64 35.5 115t99.5 79.5t148 28.5q76 0 146 -22t112 -60l-50 -112q-94 72 -207 72q-60 0 -96 -24t-36 -65
q0 -24 13.5 -40t45.5 -28.5t91 -24.5q137 -30 197.5 -78t60.5 -131q0 -100 -78 -158.5t-217 -58.5q-81 0 -155.5 21.5zM393 930h114l-133 -157h-87l-133 157h114l63 -87z" />
    <glyph glyph-name="scaron" unicode="&#x161;" horiz-adv-x="503" 
d="M28 54l40 105q40 -29 89 -44.5t100 -15.5q39 0 60 12t21 35q0 19 -15 30t-53 19l-83 19q-73 16 -107.5 51t-34.5 93q0 47 27.5 84t76.5 57.5t113 20.5q54 0 106 -16.5t93 -46.5l-42 -101q-39 27 -79.5 41t-78.5 14q-37 0 -58 -13t-21 -36q0 -17 12.5 -27.5t44.5 -17.5
l85 -19q78 -18 113 -54t35 -96q0 -72 -58 -114t-159 -42q-144 0 -227 62zM319 778h118l-131 -206h-91l-131 206h118l59 -118z" />
    <glyph glyph-name="uni0162" unicode="&#x162;" horiz-adv-x="628" 
d="M344 0l-6 -41q5 1 13 1q38 0 61.5 -19t23.5 -51q0 -40 -36 -64.5t-101 -24.5q-22 0 -47.5 4.5t-46.5 13.5l12 59q46 -14 79 -14q46 0 46 26q0 9 -8.5 14.5t-24.5 5.5q-13 0 -36 -7l-20 21l10 76h-28v585h-223v127h604v-127h-223v-585h-49z" />
    <glyph glyph-name="uni0163" unicode="&#x163;" horiz-adv-x="396" 
d="M251 394v-197q0 -42 22 -61.5t57 -19.5q22 0 50 7v-117q-36 -14 -87 -14h-14l-5 -33q5 1 13 1q38 0 61.5 -19t23.5 -51q0 -40 -36 -64.5t-101 -24.5q-22 0 -47.5 4.5t-46.5 13.5l12 59q46 -14 79 -14q46 0 46 26q0 9 -8.5 14.5t-24.5 5.5q-13 0 -36 -7l-20 21l11 86
q-49 22 -74.5 68.5t-25.5 115.5v200h-96v113h96v119l151 49v-168h129v-113h-129z" />
    <glyph glyph-name="Tcaron" unicode="&#x164;" horiz-adv-x="628" 
d="M235 0v585h-223v127h604v-127h-223v-585h-158zM376 930h114l-133 -157h-87l-133 157h114l63 -87z" />
    <glyph glyph-name="tcaron" unicode="&#x165;" horiz-adv-x="396" 
d="M406 714l-31 -177h-83v177h114zM251 507h129v-113h-129v-197q0 -42 22 -61.5t57 -19.5q22 0 50 7v-117q-36 -14 -87 -14q-94 0 -143.5 53t-49.5 149v200h-96v113h96v119l151 49v-168z" />
    <glyph glyph-name="Tbar" unicode="&#x166;" horiz-adv-x="628" 
d="M616 585h-223v-166h136v-119h-136v-300h-158v300h-136v119h136v166h-223v127h604v-127z" />
    <glyph glyph-name="tbar" unicode="&#x167;" horiz-adv-x="407" 
d="M257 394v-54h108v-106h-108v-37q0 -42 21.5 -61.5t56.5 -19.5q22 0 51 7v-117q-36 -14 -88 -14q-93 0 -143 53t-50 149v40h-75v106h75v54h-96v113h96v119l152 49v-168h129v-113h-129z" />
    <glyph glyph-name="Utilde" unicode="&#x168;" horiz-adv-x="746" 
d="M145 68q-78 77 -78 226v418h153v-425q0 -85 39.5 -129.5t113.5 -44.5t113 44.5t39 129.5v425h154v-418q0 -148 -78.5 -225.5t-227.5 -77.5q-150 0 -228 77zM227.5 890q30.5 37 78.5 37q19 0 37.5 -8t39.5 -22q22 -12 33.5 -17.5t23.5 -5.5q19 0 30.5 13.5t13.5 36.5h64
q0 -73 -30.5 -110t-78.5 -37q-19 0 -37.5 8t-39.5 22q-22 12 -33.5 17.5t-23.5 5.5q-19 0 -30.5 -13.5t-13.5 -36.5h-64q0 73 30.5 110z" />
    <glyph glyph-name="utilde" unicode="&#x169;" horiz-adv-x="606" 
d="M545 507v-507h-147v74q-24 -40 -63 -61t-88 -21q-95 0 -142 53t-47 160v302h151v-305q0 -92 79 -92q47 0 76 32t29 84v281h152zM157.5 713.5q30.5 36.5 78.5 36.5q19 0 36.5 -7.5t40.5 -21.5q22 -12 33.5 -17.5t23.5 -5.5q19 0 30.5 13t13.5 36h64q0 -72 -30.5 -109
t-78.5 -37q-19 0 -36.5 7.5t-40.5 21.5q-22 12 -33.5 17.5t-23.5 5.5q-19 0 -30.5 -13t-13.5 -36h-64q0 73 30.5 109.5z" />
    <glyph glyph-name="Umacron" unicode="&#x16a;" horiz-adv-x="746" 
d="M145 68q-78 77 -78 226v418h153v-425q0 -85 39.5 -129.5t113.5 -44.5t113 44.5t39 129.5v425h154v-418q0 -148 -78.5 -225.5t-227.5 -77.5q-150 0 -228 77zM215 804v94h315v-94h-315z" />
    <glyph glyph-name="umacron" unicode="&#x16b;" horiz-adv-x="606" 
d="M545 507v-507h-147v74q-24 -40 -63 -61t-88 -21q-95 0 -142 53t-47 160v302h151v-305q0 -92 79 -92q47 0 76 32t29 84v281h152zM145 626v94h315v-94h-315z" />
    <glyph glyph-name="Ubreve" unicode="&#x16c;" horiz-adv-x="746" 
d="M145 68q-78 77 -78 226v418h153v-425q0 -85 39.5 -129.5t113.5 -44.5t113 44.5t39 129.5v425h154v-418q0 -148 -78.5 -225.5t-227.5 -77.5q-150 0 -228 77zM260 810q-47 28 -67 82l70 29q32 -49 110 -49q77 0 109 49l70 -29q-20 -54 -67 -82t-112 -28q-66 0 -113 28z" />
    <glyph glyph-name="ubreve" unicode="&#x16d;" horiz-adv-x="606" 
d="M545 507v-507h-147v74q-24 -40 -63 -61t-88 -21q-95 0 -142 53t-47 160v302h151v-305q0 -92 79 -92q47 0 76 32t29 84v281h152zM185 631q-52 37 -69 109l69 30q44 -81 118 -81q73 0 117 81l69 -30q-17 -71 -68.5 -108.5t-117.5 -37.5t-118 37z" />
    <glyph glyph-name="Uring" unicode="&#x16e;" horiz-adv-x="746" 
d="M145 68q-78 77 -78 226v418h153v-425q0 -85 39.5 -129.5t113.5 -44.5t113 44.5t39 129.5v425h154v-418q0 -148 -78.5 -225.5t-227.5 -77.5q-150 0 -228 77zM294 799q-32 31 -32 77t32 77.5t79 31.5q46 0 78 -31.5t32 -77.5t-32 -77t-78 -31q-47 0 -79 31zM404 843
q12 13 12 33t-12 33t-31 13t-31.5 -13t-12.5 -33t12.5 -33t31.5 -13t31 13z" />
    <glyph glyph-name="uring" unicode="&#x16f;" horiz-adv-x="606" 
d="M545 507v-507h-147v74q-24 -40 -63 -61t-88 -21q-95 0 -142 53t-47 160v302h151v-305q0 -92 79 -92q47 0 76 32t29 84v281h152zM224 598.5q-32 31.5 -32 77.5q0 45 32.5 76.5t78.5 31.5t78 -31.5t32 -76.5q0 -46 -32 -77.5t-78 -31.5q-47 0 -79 31.5zM334 642.5
q12 13.5 12 33.5q0 19 -12 32t-31 13t-31.5 -13t-12.5 -32q0 -20 12.5 -33.5t31.5 -13.5t31 13.5z" />
    <glyph glyph-name="Uhungarumlaut" unicode="&#x170;" horiz-adv-x="746" 
d="M145 68q-78 77 -78 226v418h153v-425q0 -85 39.5 -129.5t113.5 -44.5t113 44.5t39 129.5v425h154v-418q0 -148 -78.5 -225.5t-227.5 -77.5q-150 0 -228 77zM265 773l74 157h101l-100 -157h-75zM405 773l74 157h102l-101 -157h-75z" />
    <glyph glyph-name="uhungarumlaut" unicode="&#x171;" horiz-adv-x="606" 
d="M545 507v-507h-147v74q-24 -40 -63 -61t-88 -21q-95 0 -142 53t-47 160v302h151v-305q0 -92 79 -92q47 0 76 32t29 84v281h152zM265 572h-65l35 206h109zM405 572h-65l34 206h109z" />
    <glyph glyph-name="Uogonek" unicode="&#x172;" horiz-adv-x="746" 
d="M679 712v-418q0 -117 -48.5 -190t-143.5 -99q-30 -8 -46.5 -26.5t-16.5 -44.5t16 -40t45 -14q27 0 54 13l18 -71q-45 -21 -101 -21t-92.5 31t-36.5 80q0 47 34 79q-145 4 -219.5 81t-74.5 222v418h153v-425q0 -85 39.5 -129.5t113.5 -44.5t113 44.5t39 129.5v425h154z
" />
    <glyph glyph-name="uogonek" unicode="&#x173;" horiz-adv-x="606" 
d="M585 -182q-49 -22 -102 -22q-58 0 -95 32.5t-37 83.5q0 57 47 96v66q-24 -40 -63 -61t-88 -21q-95 0 -142 53t-47 160v302h151v-305q0 -92 79 -92q47 0 76 32t29 84v281h152v-507h-10q-38 0 -62 -18.5t-24 -49.5q0 -27 15.5 -41.5t46.5 -14.5q29 0 56 14z" />
    <glyph glyph-name="Wcircumflex" unicode="&#x174;" horiz-adv-x="1126" 
d="M958 712h149l-253 -712h-125l-166 471l-167 -471h-125l-253 712h159l164 -492l172 492h109l168 -499zM500 773h-114l133 157h87l133 -157h-114l-62 86z" />
    <glyph glyph-name="wcircumflex" unicode="&#x175;" horiz-adv-x="891" 
d="M744 507h146l-205 -507h-127l-115 294l-110 -294h-128l-205 507h154l122 -327l121 327h103l122 -330zM386 572h-118l131 206h91l131 -206h-118l-58 117z" />
    <glyph glyph-name="Ycircumflex" unicode="&#x176;" horiz-adv-x="642" 
d="M694 712l-295 -436v-276h-156v277l-294 435h177l194 -304l196 304h178zM257 773h-114l133 157h87l133 -157h-114l-62 86z" />
    <glyph glyph-name="ycircumflex" unicode="&#x177;" horiz-adv-x="550" 
d="M561 507l-234 -534q-43 -97 -108.5 -142.5t-160.5 -58.5l-35 116q70 15 105.5 38t55.5 67l15 33l-209 481h158l130 -329l134 329h149zM216 572h-118l131 206h91l131 -206h-118l-58 117z" />
    <glyph glyph-name="Ydieresis" unicode="&#x178;" horiz-adv-x="642" 
d="M694 712l-295 -436v-276h-156v277l-294 435h177l194 -304l196 304h178zM154 918h139v-132h-139v132zM346 918h139v-132h-139v132z" />
    <glyph glyph-name="Zacute" unicode="&#x179;" horiz-adv-x="615" 
d="M223 123h357v-123h-529v114l343 475h-343v123h518v-113zM355 773h-93l103 157h140z" />
    <glyph glyph-name="zacute" unicode="&#x17a;" horiz-adv-x="530" 
d="M225 113h270v-113h-447v106l256 288h-252v113h433v-102zM319 572h-93l99 206h148z" />
    <glyph glyph-name="Zdotaccent" unicode="&#x17b;" horiz-adv-x="615" 
d="M223 123h357v-123h-529v114l343 475h-343v123h518v-113zM228 923h161v-142h-161v142z" />
    <glyph glyph-name="zdotaccent" unicode="&#x17c;" horiz-adv-x="530" 
d="M225 113h270v-113h-447v106l256 288h-252v113h433v-102zM192 745h161v-142h-161v142z" />
    <glyph glyph-name="Zcaron" unicode="&#x17d;" horiz-adv-x="615" 
d="M223 123h357v-123h-529v114l343 475h-343v123h518v-113zM371 930h114l-133 -157h-87l-133 157h114l63 -87z" />
    <glyph glyph-name="zcaron" unicode="&#x17e;" horiz-adv-x="530" 
d="M225 113h270v-113h-447v106l256 288h-252v113h433v-102zM331 778h118l-131 -206h-91l-131 206h118l59 -118z" />
    <glyph glyph-name="uni018F" unicode="&#x18f;" horiz-adv-x="775" 
d="M554.5 676.5q81.5 -44.5 125.5 -126.5t44 -193q0 -107 -41 -190t-115 -129.5t-171 -46.5q-108 0 -186 43t-119.5 126t-41.5 200v60h515q-13 87 -66 132t-141 45q-117 0 -208 -70l-50 112q47 38 118.5 60t145.5 22q109 0 190.5 -44.5zM512.5 160q43.5 47 53.5 140h-357
q8 -92 55.5 -139.5t128.5 -47.5q76 0 119.5 47z" />
    <glyph glyph-name="florin" unicode="&#x192;" horiz-adv-x="600" 
d="M455.5 577q-19.5 -20 -26.5 -58l-4 -19h109v-88h-128l-86 -405q-21 -102 -82 -148t-140 -46h-74v119h71q30 0 49.5 20t26.5 59l85 401h-109v88h128l5 23q21 102 82 148t140 46h74v-120h-72q-29 0 -48.5 -20z" />
    <glyph glyph-name="Ohorn" unicode="&#x1a0;" horiz-adv-x="795" 
d="M712.5 695.5q-31.5 -41.5 -83.5 -53.5q57 -47 86 -119.5t29 -165.5q0 -111 -42 -194t-120 -127.5t-184 -44.5t-184.5 44.5t-121 127.5t-42.5 194t42.5 193t121.5 126.5t186 44.5q32 0 65 -5q40 -4 60 -4q49 0 69 23t20 80v19h130v-38q0 -59 -31.5 -100.5zM538.5 176
q50.5 63 50.5 181t-50.5 180t-140.5 62t-140.5 -62t-50.5 -180q0 -119 50.5 -181.5t140.5 -62.5t140.5 63z" />
    <glyph glyph-name="ohorn" unicode="&#x1a1;" horiz-adv-x="604" 
d="M566 504q-26 -40 -71 -57q36 -34 54.5 -83.5t18.5 -108.5q0 -80 -32.5 -139.5t-92.5 -91.5t-140 -32q-81 0 -141.5 32t-93 91.5t-32.5 139.5q0 81 32.5 140.5t92.5 92t139 32.5q24 0 60 -6q17 -3 25 -3q36 0 57 22.5t21 82.5v20h129v-38q0 -54 -26 -94zM388.5 144
q29.5 37 29.5 112q0 74 -29.5 111.5t-85.5 37.5q-57 0 -87 -37.5t-30 -111.5q0 -149 117 -149q56 0 85.5 37z" />
    <glyph glyph-name="Uhorn" unicode="&#x1af;" horiz-adv-x="746" 
d="M793 834v-38q0 -57 -31 -98t-83 -54v-350q0 -148 -78.5 -225.5t-227.5 -77.5q-150 0 -228 77t-78 226v418h153v-425q0 -85 39.5 -129.5t113.5 -44.5t113 44.5t39 129.5v425h46q51 0 71.5 23t20.5 80v19h130z" />
    <glyph glyph-name="uhorn" unicode="&#x1b0;" horiz-adv-x="631" 
d="M661 636v-38q0 -60 -31.5 -102t-84.5 -55v-441h-147v74q-24 -40 -63 -61t-88 -21q-95 0 -142 53t-47 160v302h151v-305q0 -92 79 -92q47 0 76 32t29 84v281h43q52 0 73.5 24.5t21.5 84.5v20h130z" />
    <glyph glyph-name="uni01C4" unicode="&#x1c4;" horiz-adv-x="1371" 
d="M71 712h275q117 0 201 -42t128.5 -122t44.5 -191q0 -112 -44 -192t-128 -122.5t-202 -42.5h-275v712zM336 126q228 0 228 231q0 229 -228 229h-109v-460h109zM979 123h357v-123h-529v114l343 475h-343v123h518v-113zM1127 930h114l-133 -157h-87l-133 157h114l63 -87z
" />
    <glyph glyph-name="uni01C5" unicode="&#x1c5;" horiz-adv-x="1301" 
d="M71 712h275q117 0 201 -42t128.5 -122t44.5 -191q0 -112 -44 -192t-128 -122.5t-202 -42.5h-275v712zM336 126q228 0 228 231q0 229 -228 229h-109v-460h109zM996 113h270v-113h-447v106l256 288h-252v113h433v-102zM1102 778h118l-131 -206h-91l-131 206h118l59 -118z
" />
    <glyph glyph-name="uni01C6" unicode="&#x1c6;" horiz-adv-x="1160" 
d="M569 736v-736h-149v75q-23 -39 -65 -61t-95 -22q-65 0 -116 33.5t-79.5 94t-28.5 138.5t28.5 137.5t79 92t116.5 32.5q51 0 93 -21.5t65 -59.5v297h151zM390 145.5q30 38.5 30 110.5q0 71 -30.5 109.5t-85.5 38.5q-56 0 -87 -38t-31 -108q0 -72 31 -111.5t87 -39.5
t86 38.5zM855 113h270v-113h-447v106l256 288h-252v113h433v-102zM961 778h118l-131 -206h-91l-131 206h118l59 -118z" />
    <glyph glyph-name="uni01C7" unicode="&#x1c7;" horiz-adv-x="900" 
d="M71 0v712h156v-585h288v-127h-444zM519 -53q44 -6 72 -6q48 0 64.5 21t16.5 78v672h157v-670q0 -119 -47 -174.5t-160 -55.5q-46 0 -103 9v126z" />
    <glyph glyph-name="uni01C8" unicode="&#x1c8;" horiz-adv-x="843" 
d="M71 0v712h156v-585h318v-127h-474zM553 -100q34 0 55.5 20t21.5 62v525h151v-529q0 -96 -49 -149t-142 -53q-52 0 -86 13v118q29 -7 49 -7zM624 745h161v-142h-161v142z" />
    <glyph glyph-name="uni01C9" unicode="&#x1c9;" horiz-adv-x="548" 
d="M61 0v736h151v-736h-151zM258 -100q34 0 55.5 20t21.5 62v525h151v-529q0 -96 -49 -149t-142 -53q-52 0 -86 13v118q29 -7 49 -7zM329 745h161v-142h-161v142z" />
    <glyph glyph-name="uni01CA" unicode="&#x1ca;" horiz-adv-x="1141" 
d="M541 712h147v-712h-116l-355 454v-454h-146v712h115l355 -453v453zM760 -53q42 -6 71 -6q48 0 65 21.5t17 77.5v672h156v-670q0 -119 -47 -174.5t-160 -55.5q-45 0 -102 9v126z" />
    <glyph glyph-name="uni01CB" unicode="&#x1cb;" horiz-adv-x="1034" 
d="M541 712h147v-712h-116l-355 454v-454h-146v712h115l355 -453v453zM744 -100q34 0 55.5 20t21.5 62v525h151v-529q0 -96 -49 -149t-142 -53q-52 0 -86 13v118q29 -7 49 -7zM815 745h161v-142h-161v142z" />
    <glyph glyph-name="uni01CC" unicode="&#x1cc;" horiz-adv-x="887" 
d="M554 307v-307h-151v300q0 53 -19.5 77.5t-61.5 24.5q-50 0 -80 -32t-30 -86v-284h-151v362q0 81 -8 145h142l10 -80q27 45 70.5 69t98.5 24q180 0 180 -213zM597 -100q34 0 55.5 20t21.5 62v525h151v-529q0 -96 -49 -149t-142 -53q-52 0 -86 13v118q29 -7 49 -7zM668 745
h161v-142h-161v142z" />
    <glyph glyph-name="uni01CE" unicode="&#x1ce;" horiz-adv-x="630" 
d="M569 507v-507h-149v75q-23 -39 -65 -61t-95 -22q-66 0 -116.5 32t-79 91.5t-28.5 137.5t28.5 139t79.5 94.5t116 33.5q53 0 95 -23t65 -62v72h149zM390 145q30 38 30 110t-30 110.5t-86 38.5t-87 -40t-31 -111t30.5 -108.5t87.5 -37.5q56 0 86 38zM373 778h118l-131 -206
h-91l-131 206h118l59 -118z" />
    <glyph glyph-name="Gcaron" unicode="&#x1e6;" horiz-adv-x="745" 
d="M682 393v-349q-52 -25 -121.5 -39t-142.5 -14q-113 0 -196 44t-127.5 126t-44.5 196q0 111 44.5 193t126 126.5t190.5 44.5q77 0 143.5 -21t109.5 -59l-50 -112q-50 36 -97 52t-102 16q-206 0 -206 -240q0 -245 215 -245q59 0 118 15v157h-140v109h280zM473 930h114
l-133 -157h-87l-133 157h114l63 -87z" />
    <glyph glyph-name="gcaron" unicode="&#x1e7;" horiz-adv-x="634" 
d="M574 507v-484q0 -121 -70 -184t-204 -63q-121 0 -210 47l23 112q92 -46 182 -46q65 0 97 30.5t32 92.5v88q-24 -37 -67 -61.5t-95 -24.5q-66 0 -117 31.5t-80 89t-29 132.5t29 132.5t80 89t117 31.5q53 0 96 -23t66 -62v72h150zM392.5 165.5q31.5 36.5 31.5 101.5
q0 64 -31 100.5t-87 36.5t-88 -36.5t-32 -100.5t32 -101t88 -37q55 0 86.5 36.5zM376 778h118l-131 -206h-91l-131 206h118l59 -118z" />
    <glyph glyph-name="uni01EA" unicode="&#x1ea;" horiz-adv-x="795" 
d="M445 -66q0 -26 15.5 -40t44.5 -14q27 0 56 13l17 -71q-46 -21 -101 -21q-57 0 -93 31t-36 80q0 44 30 79q-100 4 -174 50t-114 127t-40 189q0 111 42.5 193t121 126.5t184.5 44.5t184 -44.5t120 -126.5t42 -193q0 -135 -61 -227t-173 -125q-65 -20 -65 -71zM538.5 176
q50.5 63 50.5 181t-50.5 180t-140.5 62t-140.5 -62t-50.5 -180q0 -119 50.5 -181.5t140.5 -62.5t140.5 63z" />
    <glyph glyph-name="uni01EB" unicode="&#x1eb;" horiz-adv-x="604" 
d="M332 -68q0 -27 16.5 -41.5t46.5 -14.5q28 0 56 14l17 -72q-49 -22 -102 -22q-58 0 -94.5 32t-36.5 82q0 49 36 84q-110 11 -172.5 80.5t-62.5 181.5q0 80 32.5 140t93 92t141.5 32q80 0 140 -32t92.5 -92t32.5 -140q0 -94 -44.5 -161t-122.5 -89q-69 -18 -69 -74z
M388.5 144q29.5 37 29.5 112q0 74 -29.5 111.5t-85.5 37.5q-57 0 -87 -37.5t-30 -111.5q0 -149 117 -149q56 0 85.5 37z" />
    <glyph glyph-name="Aringacute" unicode="&#x1fa;" horiz-adv-x="759" 
d="M547 158h-333l-68 -158h-157l322 700q-19 15 -30 37.5t-11 48.5q0 45 32 76.5t78 31.5q26 0 46 -10l66 71h140l-151 -126q9 -19 9 -43q0 -27 -11 -49.5t-31 -37.5l321 -699h-154zM348.5 818q-12.5 -13 -12.5 -32q0 -20 12.5 -33.5t31.5 -13.5t31 13.5t12 33.5
q0 19 -12 32t-31 13t-31.5 -13zM266 277h230l-115 267z" />
    <glyph glyph-name="aringacute" unicode="&#x1fb;" horiz-adv-x="630" 
d="M235.5 600.5q-32.5 32.5 -32.5 79.5q0 46 32.5 77.5t79.5 31.5q25 0 46 -9l72 102l132 -6l-148 -150q11 -22 11 -46q0 -47 -33 -79.5t-80 -32.5t-79.5 32.5zM283 713q-13 -13 -13 -33t13 -34.5t32 -14.5t32 14.5t13 34.5t-13 33t-32 13t-32 -13zM569 507v-507h-149v75
q-23 -39 -65 -61t-95 -22q-66 0 -116.5 32t-79 91.5t-28.5 137.5t28.5 139t79.5 94.5t116 33.5q53 0 95 -23t65 -62v72h149zM390 145q30 38 30 110t-30 110.5t-86 38.5t-87 -40t-31 -111t30.5 -108.5t87.5 -37.5q56 0 86 38z" />
    <glyph glyph-name="AEacute" unicode="&#x1fc;" horiz-adv-x="1010" 
d="M973 590h-324l12 -167h291v-122h-283l13 -179h291v-122h-424l-11 158h-305l-94 -158h-170l448 712h556v-122zM530 277l-21 313h-20l-186 -313h227zM555 773h-93l103 157h140z" />
    <glyph glyph-name="aeacute" unicode="&#x1fd;" horiz-adv-x="866" 
d="M831 241h-328q2 -64 35 -100t99 -36q36 0 74 13t72 38l39 -102q-35 -29 -88 -45.5t-107 -16.5q-72 0 -125 26t-84 76q-23 -49 -68.5 -75.5t-107.5 -26.5q-58 0 -103.5 21t-71.5 58.5t-26 86.5q0 83 65 120.5t216 37.5h37v4q0 46 -19.5 66t-63.5 20q-42 0 -87.5 -13.5
t-86.5 -38.5l-40 103q42 27 105 45t117 18q116 0 165 -67q31 33 73 50t92 17q64 0 113.5 -32.5t76.5 -91t27 -134.5v-21zM508 316h194q-5 48 -28.5 73t-63.5 25q-83 0 -102 -98zM333.5 128.5q25.5 31.5 25.5 80.5v34h-29q-76 0 -109.5 -19.5t-33.5 -59.5q0 -30 21 -48.5
t54 -18.5q46 0 71.5 31.5zM477 572h-93l99 206h148z" />
    <glyph glyph-name="Oslashacute" unicode="&#x1fe;" horiz-adv-x="795" 
d="M715 522q29 -73 29 -165q0 -111 -42 -194t-120 -127.5t-184 -44.5q-73 0 -133 21l-47 -80l-100 60l46 79q-55 48 -84.5 121t-29.5 165q0 111 42.5 193t121 126.5t184.5 44.5q74 0 132 -21l47 80l100 -60l-46 -78q55 -47 84 -120zM240 202l225 386q-31 11 -67 11
q-90 0 -140.5 -62t-50.5 -180q0 -94 33 -155zM538.5 176q50.5 63 50.5 181q0 94 -33 155l-226 -388q31 -11 68 -11q90 0 140.5 63zM443 773h-93l103 157h140z" />
    <glyph glyph-name="oslashacute" unicode="&#x1ff;" horiz-adv-x="604" 
d="M543.5 379q24.5 -54 24.5 -123q0 -80 -32.5 -140t-92.5 -92t-140 -32q-51 0 -98 14l-41 -70l-71 42l38 66q-46 34 -70.5 88.5t-24.5 123.5q0 80 32.5 140t93 92t141.5 32q52 0 97 -14l40 68l72 -42l-38 -64q45 -35 69.5 -89zM201 163l139 239q-16 4 -37 4
q-120 0 -120 -150q0 -57 18 -93zM421 256q0 55 -17 91l-138 -237q15 -4 37 -4q118 0 118 150zM349 572h-93l99 206h148z" />
    <glyph glyph-name="uni0200" unicode="&#x200;" horiz-adv-x="759" 
d="M615 0l-68 158h-333l-68 -158h-157l327 712h126l327 -712h-154zM266 277h230l-115 267zM271 773l-101 157h102l74 -157h-75zM411 773l-100 157h101l74 -157h-75z" />
    <glyph glyph-name="uni0201" unicode="&#x201;" horiz-adv-x="630" 
d="M569 507v-507h-149v75q-23 -39 -65 -61t-95 -22q-66 0 -116.5 32t-79 91.5t-28.5 137.5t28.5 139t79.5 94.5t116 33.5q53 0 95 -23t65 -62v72h149zM390 145q30 38 30 110t-30 110.5t-86 38.5t-87 -40t-31 -111t30.5 -108.5t87.5 -37.5q56 0 86 38zM212 572l-78 206h109
l34 -206h-65zM352 572l-79 206h109l35 -206h-65z" />
    <glyph glyph-name="uni0202" unicode="&#x202;" horiz-adv-x="759" 
d="M615 0l-68 158h-333l-68 -158h-157l327 712h126l327 -712h-154zM266 277h230l-115 267zM491 893.5q47 -27.5 67 -81.5l-70 -30q-32 50 -109 50q-78 0 -110 -50l-70 30q20 54 67 81.5t113 27.5q65 0 112 -27.5z" />
    <glyph glyph-name="uni0203" unicode="&#x203;" horiz-adv-x="630" 
d="M569 507v-507h-149v75q-23 -39 -65 -61t-95 -22q-66 0 -116.5 32t-79 91.5t-28.5 137.5t28.5 139t79.5 94.5t116 33.5q53 0 95 -23t65 -62v72h149zM390 145q30 38 30 110t-30 110.5t-86 38.5t-87 -40t-31 -111t30.5 -108.5t87.5 -37.5q56 0 86 38zM432 728
q52 -37 69 -108l-69 -29q-45 80 -117 80q-73 0 -118 -80l-69 29q17 71 69 108t118 37q65 0 117 -37z" />
    <glyph glyph-name="uni0204" unicode="&#x204;" horiz-adv-x="599" 
d="M71 0v712h491v-121h-339v-168h318v-122h-318v-180h339v-121h-491zM225 773l-101 157h102l74 -157h-75zM365 773l-100 157h101l74 -157h-75z" />
    <glyph glyph-name="uni0205" unicode="&#x205;" horiz-adv-x="550" 
d="M516 241h-334q4 -71 37 -103.5t98 -32.5q39 0 78 13t72 38l40 -102q-36 -29 -89.5 -45.5t-107.5 -16.5q-128 0 -201 70.5t-73 192.5q0 77 31.5 137.5t88.5 94t129 33.5q107 0 169 -69.5t62 -187.5v-22zM219.5 389q-26.5 -25 -34.5 -73h201q-12 98 -97 98q-43 0 -69.5 -25
zM182 572l-78 206h109l34 -206h-65zM322 572l-79 206h109l35 -206h-65z" />
    <glyph glyph-name="uni0206" unicode="&#x206;" horiz-adv-x="599" 
d="M71 0v712h491v-121h-339v-168h318v-122h-318v-180h339v-121h-491zM445 893.5q47 -27.5 67 -81.5l-70 -30q-32 50 -109 50q-78 0 -110 -50l-70 30q20 54 67 81.5t113 27.5q65 0 112 -27.5z" />
    <glyph glyph-name="uni0207" unicode="&#x207;" horiz-adv-x="550" 
d="M516 241h-334q4 -71 37 -103.5t98 -32.5q39 0 78 13t72 38l40 -102q-36 -29 -89.5 -45.5t-107.5 -16.5q-128 0 -201 70.5t-73 192.5q0 77 31.5 137.5t88.5 94t129 33.5q107 0 169 -69.5t62 -187.5v-22zM219.5 389q-26.5 -25 -34.5 -73h201q-12 98 -97 98q-43 0 -69.5 -25
zM402 728q52 -37 69 -108l-69 -29q-45 80 -117 80q-73 0 -118 -80l-69 29q17 71 69 108t118 37q65 0 117 -37z" />
    <glyph glyph-name="uni0208" unicode="&#x208;" horiz-adv-x="299" 
d="M71 0v712h156v-712h-156zM40 773l-101 157h102l74 -157h-75zM180 773l-100 157h101l74 -157h-75z" />
    <glyph glyph-name="uni0209" unicode="&#x209;" horiz-adv-x="274" 
d="M61 0v507h151v-507h-151zM34 572l-78 206h109l34 -206h-65zM174 572l-79 206h109l35 -206h-65z" />
    <glyph glyph-name="uni020A" unicode="&#x20a;" horiz-adv-x="299" 
d="M71 0v712h156v-712h-156zM260 893.5q47 -27.5 67 -81.5l-70 -30q-32 50 -109 50q-78 0 -110 -50l-70 30q20 54 67 81.5t113 27.5q65 0 112 -27.5z" />
    <glyph glyph-name="uni020B" unicode="&#x20b;" horiz-adv-x="274" 
d="M61 0v507h151v-507h-151zM254 728q52 -37 69 -108l-69 -29q-45 80 -117 80q-73 0 -118 -80l-69 29q17 71 69 108t118 37q65 0 117 -37z" />
    <glyph glyph-name="uni020C" unicode="&#x20c;" horiz-adv-x="795" 
d="M213.5 35.5q-78.5 44.5 -121 127.5t-42.5 194t42.5 193t121 126.5t184.5 44.5t184 -44.5t120 -126.5t42 -193t-42 -194t-120 -127.5t-184 -44.5t-184.5 44.5zM538.5 176q50.5 63 50.5 181t-50.5 180t-140.5 62t-140.5 -62t-50.5 -180q0 -119 50.5 -181.5t140.5 -62.5
t140.5 63zM289 773l-101 157h102l74 -157h-75zM429 773l-100 157h101l74 -157h-75z" />
    <glyph glyph-name="uni020D" unicode="&#x20d;" horiz-adv-x="604" 
d="M161.5 24q-60.5 32 -93 92t-32.5 140t32.5 140t93 92t141.5 32q80 0 140 -32t92.5 -92t32.5 -140t-32.5 -140t-92.5 -92t-140 -32q-81 0 -141.5 32zM388.5 144q29.5 37 29.5 112q0 74 -29.5 111.5t-85.5 37.5q-57 0 -87 -37.5t-30 -111.5q0 -149 117 -149q56 0 85.5 37z
M200 572l-78 206h109l34 -206h-65zM340 572l-79 206h109l35 -206h-65z" />
    <glyph glyph-name="uni020E" unicode="&#x20e;" horiz-adv-x="795" 
d="M213.5 35.5q-78.5 44.5 -121 127.5t-42.5 194t42.5 193t121 126.5t184.5 44.5t184 -44.5t120 -126.5t42 -193t-42 -194t-120 -127.5t-184 -44.5t-184.5 44.5zM538.5 176q50.5 63 50.5 181t-50.5 180t-140.5 62t-140.5 -62t-50.5 -180q0 -119 50.5 -181.5t140.5 -62.5
t140.5 63zM509 893.5q47 -27.5 67 -81.5l-70 -30q-32 50 -109 50q-78 0 -110 -50l-70 30q20 54 67 81.5t113 27.5q65 0 112 -27.5z" />
    <glyph glyph-name="uni020F" unicode="&#x20f;" horiz-adv-x="604" 
d="M161.5 24q-60.5 32 -93 92t-32.5 140t32.5 140t93 92t141.5 32q80 0 140 -32t92.5 -92t32.5 -140t-32.5 -140t-92.5 -92t-140 -32q-81 0 -141.5 32zM388.5 144q29.5 37 29.5 112q0 74 -29.5 111.5t-85.5 37.5q-57 0 -87 -37.5t-30 -111.5q0 -149 117 -149q56 0 85.5 37z
M420 728q52 -37 69 -108l-69 -29q-45 80 -117 80q-73 0 -118 -80l-69 29q17 71 69 108t118 37q65 0 117 -37z" />
    <glyph glyph-name="uni0210" unicode="&#x210;" horiz-adv-x="708" 
d="M672 0h-165l-91 237q-11 28 -33.5 39t-56.5 11h-101v-287h-154v712h317q124 0 188 -54t64 -155q0 -71 -37.5 -122t-107.5 -73q63 -13 91 -87zM365 406q67 0 98 22.5t31 70.5t-31 70.5t-98 22.5h-142v-186h142zM248 773l-101 157h102l74 -157h-75zM388 773l-100 157h101
l74 -157h-75z" />
    <glyph glyph-name="uni0211" unicode="&#x211;" horiz-adv-x="410" 
d="M410 509l-1 -138q-37 17 -74 17q-60 0 -91.5 -32.5t-31.5 -90.5v-265h-151v362q0 81 -8 145h142l10 -87q19 48 59.5 73.5t91.5 25.5q32 0 54 -10zM137 572l-78 206h109l34 -206h-65zM277 572l-79 206h109l35 -206h-65z" />
    <glyph glyph-name="uni0212" unicode="&#x212;" horiz-adv-x="708" 
d="M672 0h-165l-91 237q-11 28 -33.5 39t-56.5 11h-101v-287h-154v712h317q124 0 188 -54t64 -155q0 -71 -37.5 -122t-107.5 -73q63 -13 91 -87zM365 406q67 0 98 22.5t31 70.5t-31 70.5t-98 22.5h-142v-186h142zM468 893.5q47 -27.5 67 -81.5l-70 -30q-32 50 -109 50
q-78 0 -110 -50l-70 30q20 54 67 81.5t113 27.5q65 0 112 -27.5z" />
    <glyph glyph-name="uni0213" unicode="&#x213;" horiz-adv-x="410" 
d="M410 509l-1 -138q-37 17 -74 17q-60 0 -91.5 -32.5t-31.5 -90.5v-265h-151v362q0 81 -8 145h142l10 -87q19 48 59.5 73.5t91.5 25.5q32 0 54 -10zM357 728q52 -37 69 -108l-69 -29q-45 80 -117 80q-73 0 -118 -80l-69 29q17 71 69 108t118 37q65 0 117 -37z" />
    <glyph glyph-name="uni0214" unicode="&#x214;" horiz-adv-x="746" 
d="M145 68q-78 77 -78 226v418h153v-425q0 -85 39.5 -129.5t113.5 -44.5t113 44.5t39 129.5v425h154v-418q0 -148 -78.5 -225.5t-227.5 -77.5q-150 0 -228 77zM265 773l-101 157h102l74 -157h-75zM405 773l-100 157h101l74 -157h-75z" />
    <glyph glyph-name="uni0215" unicode="&#x215;" horiz-adv-x="606" 
d="M545 507v-507h-147v74q-24 -40 -63 -61t-88 -21q-95 0 -142 53t-47 160v302h151v-305q0 -92 79 -92q47 0 76 32t29 84v281h152zM200 572l-78 206h109l34 -206h-65zM340 572l-79 206h109l35 -206h-65z" />
    <glyph glyph-name="uni0216" unicode="&#x216;" horiz-adv-x="746" 
d="M145 68q-78 77 -78 226v418h153v-425q0 -85 39.5 -129.5t113.5 -44.5t113 44.5t39 129.5v425h154v-418q0 -148 -78.5 -225.5t-227.5 -77.5q-150 0 -228 77zM485 893.5q47 -27.5 67 -81.5l-70 -30q-32 50 -109 50q-78 0 -110 -50l-70 30q20 54 67 81.5t113 27.5
q65 0 112 -27.5z" />
    <glyph glyph-name="uni0217" unicode="&#x217;" horiz-adv-x="606" 
d="M545 507v-507h-147v74q-24 -40 -63 -61t-88 -21q-95 0 -142 53t-47 160v302h151v-305q0 -92 79 -92q47 0 76 32t29 84v281h152zM420 728q52 -37 69 -108l-69 -29q-45 80 -117 80q-73 0 -118 -80l-69 29q17 71 69 108t118 37q65 0 117 -37z" />
    <glyph glyph-name="Scommaaccent" unicode="&#x218;" horiz-adv-x="657" 
d="M164.5 12.5q-74.5 21.5 -123.5 60.5l50 112q103 -72 230 -72q68 0 104.5 21.5t36.5 60.5q0 34 -33.5 53.5t-117.5 37.5q-94 19 -149.5 46.5t-81 67t-25.5 98.5q0 64 35.5 115t99.5 79.5t148 28.5q76 0 146 -22t112 -60l-50 -112q-94 72 -207 72q-60 0 -96 -24t-36 -65
q0 -24 13.5 -40t45.5 -28.5t91 -24.5q137 -30 197.5 -78t60.5 -131q0 -100 -78 -158.5t-217 -58.5q-81 0 -155.5 21.5zM401 -67v-64q0 -47 -13.5 -82t-46.5 -65l-55 38q29 27 35 59h-70v114h150z" />
    <glyph glyph-name="scommaaccent" unicode="&#x219;" horiz-adv-x="503" 
d="M28 54l40 105q40 -29 89 -44.5t100 -15.5q39 0 60 12t21 35q0 19 -15 30t-53 19l-83 19q-73 16 -107.5 51t-34.5 93q0 47 27.5 84t76.5 57.5t113 20.5q54 0 106 -16.5t93 -46.5l-42 -101q-39 27 -79.5 41t-78.5 14q-37 0 -58 -13t-21 -36q0 -17 12.5 -27.5t44.5 -17.5
l85 -19q78 -18 113 -54t35 -96q0 -72 -58 -114t-159 -42q-144 0 -227 62zM326 -67v-64q0 -47 -13.5 -82t-46.5 -65l-55 38q29 27 35 59h-70v114h150z" />
    <glyph glyph-name="uni021A" unicode="&#x21a;" horiz-adv-x="628" 
d="M235 0v585h-223v127h604v-127h-223v-585h-158zM388 -67v-64q0 -47 -13.5 -82t-46.5 -65l-55 38q29 27 35 59h-70v114h150z" />
    <glyph glyph-name="uni021B" unicode="&#x21b;" horiz-adv-x="396" 
d="M251 394v-197q0 -42 22 -61.5t57 -19.5q22 0 50 7v-117q-36 -14 -87 -14q-94 0 -143.5 53t-49.5 149v200h-96v113h96v119l151 49v-168h129v-113h-129zM324 -67v-64q0 -47 -13.5 -82t-46.5 -65l-55 38q29 27 35 59h-70v114h150z" />
    <glyph glyph-name="uni0227" unicode="&#x227;" horiz-adv-x="630" 
d="M569 507v-507h-149v75q-23 -39 -65 -61t-95 -22q-66 0 -116.5 32t-79 91.5t-28.5 137.5t28.5 139t79.5 94.5t116 33.5q53 0 95 -23t65 -62v72h149zM390 145q30 38 30 110t-30 110.5t-86 38.5t-87 -40t-31 -111t30.5 -108.5t87.5 -37.5q56 0 86 38zM234 745h161v-142h-161
v142z" />
    <glyph glyph-name="uni0228" unicode="&#x228;" horiz-adv-x="599" 
d="M223 591v-168h318v-122h-318v-180h339v-121h-199l-6 -41q5 1 13 1q38 0 61.5 -19t23.5 -51q0 -40 -36 -64.5t-101 -24.5q-21 0 -47 4.5t-47 13.5l12 59q46 -14 79 -14q46 0 46 26q0 9 -8.5 14.5t-24.5 5.5q-13 0 -36 -7l-20 21l10 76h-211v712h491v-121h-339z" />
    <glyph glyph-name="uni022A" unicode="&#x22a;" horiz-adv-x="795" 
d="M213.5 35.5q-78.5 44.5 -121 127.5t-42.5 194t42.5 193t121 126.5t184.5 44.5t184 -44.5t120 -126.5t42 -193t-42 -194t-120 -127.5t-184 -44.5t-184.5 44.5zM538.5 176q50.5 63 50.5 181t-50.5 180t-140.5 62t-140.5 -62t-50.5 -180q0 -119 50.5 -181.5t140.5 -62.5
t140.5 63zM231 918h139v-132h-139v132zM423 918h139v-132h-139v132zM239 966v94h315v-94h-315z" />
    <glyph glyph-name="uni022B" unicode="&#x22b;" horiz-adv-x="604" 
d="M161.5 24q-60.5 32 -93 92t-32.5 140t32.5 140t93 92t141.5 32q80 0 140 -32t92.5 -92t32.5 -140t-32.5 -140t-92.5 -92t-140 -32q-81 0 -141.5 32zM388.5 144q29.5 37 29.5 112q0 74 -29.5 111.5t-85.5 37.5q-57 0 -87 -37.5t-30 -111.5q0 -149 117 -149q56 0 85.5 37z
M137 740h139v-132h-139v132zM329 740h139v-132h-139v132zM145 818v94h315v-94h-315z" />
    <glyph glyph-name="uni022C" unicode="&#x22c;" horiz-adv-x="795" 
d="M213.5 35.5q-78.5 44.5 -121 127.5t-42.5 194t42.5 193t121 126.5t184.5 44.5t184 -44.5t120 -126.5t42 -193t-42 -194t-120 -127.5t-184 -44.5t-184.5 44.5zM538.5 176q50.5 63 50.5 181t-50.5 180t-140.5 62t-140.5 -62t-50.5 -180q0 -119 50.5 -181.5t140.5 -62.5
t140.5 63zM251.5 890q30.5 37 78.5 37q19 0 37.5 -8t39.5 -22q22 -12 33.5 -17.5t23.5 -5.5q19 0 30.5 13.5t13.5 36.5h64q0 -73 -30.5 -110t-78.5 -37q-19 0 -37.5 8t-39.5 22q-22 12 -33.5 17.5t-23.5 5.5q-19 0 -30.5 -13.5t-13.5 -36.5h-64q0 73 30.5 110zM239 966v94
h315v-94h-315z" />
    <glyph glyph-name="uni022D" unicode="&#x22d;" horiz-adv-x="604" 
d="M161.5 24q-60.5 32 -93 92t-32.5 140t32.5 140t93 92t141.5 32q80 0 140 -32t92.5 -92t32.5 -140t-32.5 -140t-92.5 -92t-140 -32q-81 0 -141.5 32zM388.5 144q29.5 37 29.5 112q0 74 -29.5 111.5t-85.5 37.5q-57 0 -87 -37.5t-30 -111.5q0 -149 117 -149q56 0 85.5 37z
M157.5 713.5q30.5 36.5 78.5 36.5q19 0 36.5 -7.5t40.5 -21.5q22 -12 33.5 -17.5t23.5 -5.5q19 0 30.5 13t13.5 36h64q0 -72 -30.5 -109t-78.5 -37q-19 0 -36.5 7.5t-40.5 21.5q-22 12 -33.5 17.5t-23.5 5.5q-19 0 -30.5 -13t-13.5 -36h-64q0 73 30.5 109.5zM145 818v94h315
v-94h-315z" />
    <glyph glyph-name="uni0230" unicode="&#x230;" horiz-adv-x="795" 
d="M213.5 35.5q-78.5 44.5 -121 127.5t-42.5 194t42.5 193t121 126.5t184.5 44.5t184 -44.5t120 -126.5t42 -193t-42 -194t-120 -127.5t-184 -44.5t-184.5 44.5zM538.5 176q50.5 63 50.5 181t-50.5 180t-140.5 62t-140.5 -62t-50.5 -180q0 -119 50.5 -181.5t140.5 -62.5
t140.5 63zM316 923h161v-142h-161v142zM239 966v94h315v-94h-315z" />
    <glyph glyph-name="uni0231" unicode="&#x231;" horiz-adv-x="604" 
d="M161.5 24q-60.5 32 -93 92t-32.5 140t32.5 140t93 92t141.5 32q80 0 140 -32t92.5 -92t32.5 -140t-32.5 -140t-92.5 -92t-140 -32q-81 0 -141.5 32zM388.5 144q29.5 37 29.5 112q0 74 -29.5 111.5t-85.5 37.5q-57 0 -87 -37.5t-30 -111.5q0 -149 117 -149q56 0 85.5 37z
M222 745h161v-142h-161v142zM145 818v94h315v-94h-315z" />
    <glyph glyph-name="uni0232" unicode="&#x232;" horiz-adv-x="642" 
d="M694 712l-295 -436v-276h-156v277l-294 435h177l194 -304l196 304h178zM162 804v94h315v-94h-315z" />
    <glyph glyph-name="uni0233" unicode="&#x233;" horiz-adv-x="550" 
d="M561 507l-234 -534q-43 -97 -108.5 -142.5t-160.5 -58.5l-35 116q70 15 105.5 38t55.5 67l15 33l-209 481h158l130 -329l134 329h149zM117 626v94h315v-94h-315z" />
    <glyph glyph-name="uni0237" unicode="&#x237;" horiz-adv-x="274" 
d="M-16 -100q34 0 55.5 20t21.5 62v525h151v-529q0 -96 -49 -149t-142 -53q-52 0 -86 13v118q29 -7 49 -7z" />
    <glyph glyph-name="uni0259" unicode="&#x259;" horiz-adv-x="550" 
d="M389.5 487.5q59.5 -32.5 92 -92t32.5 -139.5q0 -78 -30.5 -138t-85 -93t-125.5 -33q-111 0 -174.5 68t-63.5 187v24h336q-5 70 -36.5 102.5t-93.5 32.5q-70 0 -157 -51l-41 101q39 30 94 47t114 17q79 0 138.5 -32.5zM335 121q26 25 34 73h-201q12 -98 99 -98q42 0 68 25
z" />
    <glyph glyph-name="uni02BB" unicode="&#x2bb;" horiz-adv-x="300" 
d="M226 704v-114h-150v64q0 47 13.5 82.5t46.5 64.5l55 -37q-28 -27 -35 -60h70z" />
    <glyph glyph-name="uni02BC" unicode="&#x2bc;" horiz-adv-x="300" 
d="M224 767v-65q0 -47 -13.5 -82t-46.5 -65l-55 39q29 26 35 58h-70v115h150z" />
    <glyph glyph-name="uni02BE" unicode="&#x2be;" horiz-adv-x="300" 
d="M230 741.5q32 -31.5 32 -76.5q0 -46 -32 -77.5t-78 -31.5v62q19 0 31 13.5t12 33.5q0 19 -12 32t-31 13v63q46 0 78 -31.5z" />
    <glyph glyph-name="uni02BF" unicode="&#x2bf;" horiz-adv-x="300" 
d="M152 710q-19 0 -31.5 -13t-12.5 -32q0 -20 12.5 -33.5t31.5 -13.5v-62q-47 0 -79 31.5t-32 77.5q0 45 32.5 76.5t78.5 31.5v-63z" />
    <glyph glyph-name="circumflex" unicode="&#x2c6;" horiz-adv-x="300" 
d="M93 561h-118l131 206h91l131 -206h-118l-58 117z" />
    <glyph glyph-name="caron" unicode="&#x2c7;" horiz-adv-x="300" 
d="M210 767h118l-131 -206h-91l-131 206h118l59 -118z" />
    <glyph glyph-name="uni02C8" unicode="&#x2c8;" horiz-adv-x="300" 
d="M104 561v206h95v-206h-95z" />
    <glyph glyph-name="uni02C9" unicode="&#x2c9;" horiz-adv-x="300" 
d="M-6 615v94h315v-94h-315z" />
    <glyph glyph-name="uni02CA" unicode="&#x2ca;" horiz-adv-x="300" 
d="M198 561h-93l99 206h148z" />
    <glyph glyph-name="uni02CB" unicode="&#x2cb;" horiz-adv-x="300" 
d="M105 561l-154 206h148l99 -206h-93z" />
    <glyph glyph-name="uni02CC" unicode="&#x2cc;" horiz-adv-x="300" 
d="M104 -273v207h95v-207h-95z" />
    <glyph glyph-name="breve" unicode="&#x2d8;" horiz-adv-x="300" 
d="M34 620q-52 37 -69 109l69 30q44 -81 118 -81q73 0 117 81l69 -30q-17 -71 -68.5 -108.5t-117.5 -37.5t-118 37z" />
    <glyph glyph-name="dotaccent" unicode="&#x2d9;" horiz-adv-x="300" 
d="M71 734h161v-142h-161v142z" />
    <glyph glyph-name="ring" unicode="&#x2da;" horiz-adv-x="300" 
d="M73 587.5q-32 31.5 -32 77.5q0 45 32.5 76.5t78.5 31.5t78 -31.5t32 -76.5q0 -46 -32 -77.5t-78 -31.5q-47 0 -79 31.5zM183 631.5q12 13.5 12 33.5q0 19 -12 32t-31 13t-31.5 -13t-12.5 -32q0 -20 12.5 -33.5t31.5 -13.5t31 13.5z" />
    <glyph glyph-name="ogonek" unicode="&#x2db;" horiz-adv-x="300" 
d="M20 -168.5q-36 30.5 -36 80.5q0 52 38.5 88.5t111.5 45.5l18 -36q-71 -20 -71 -76q0 -54 59 -54q28 0 55 13l17 -71q-47 -21 -100 -21q-56 0 -92 30.5z" />
    <glyph glyph-name="tilde" unicode="&#x2dc;" horiz-adv-x="300" 
d="M6.5 702.5q30.5 36.5 78.5 36.5q19 0 36.5 -7.5t40.5 -21.5q22 -12 33.5 -17.5t23.5 -5.5q19 0 30.5 13t13.5 36h64q0 -72 -30.5 -109t-78.5 -37q-19 0 -36.5 7.5t-40.5 21.5q-22 12 -33.5 17.5t-23.5 5.5q-19 0 -30.5 -13t-13.5 -36h-64q0 73 30.5 109.5z" />
    <glyph glyph-name="hungarumlaut" unicode="&#x2dd;" horiz-adv-x="300" 
d="M114 561h-65l35 206h109zM254 561h-65l34 206h109z" />
    <glyph glyph-name="gravecomb" unicode="&#x300;" 
d="M-195 561l-154 206h148l99 -206h-93z" />
    <glyph glyph-name="acutecomb" unicode="&#x301;" 
d="M-102 561h-93l99 206h148z" />
    <glyph glyph-name="uni0302" unicode="&#x302;" 
d="M-207 561h-118l131 206h91l131 -206h-118l-58 117z" />
    <glyph glyph-name="tildecomb" unicode="&#x303;" 
d="M-293.5 702.5q30.5 36.5 78.5 36.5q19 0 36.5 -7.5t40.5 -21.5q22 -12 33.5 -17.5t23.5 -5.5q19 0 30.5 13t13.5 36h64q0 -72 -30.5 -109t-78.5 -37q-19 0 -36.5 7.5t-40.5 21.5q-22 12 -33.5 17.5t-23.5 5.5q-19 0 -30.5 -13t-13.5 -36h-64q0 73 30.5 109.5z" />
    <glyph glyph-name="uni0304" unicode="&#x304;" 
d="M-306 615v94h315v-94h-315z" />
    <glyph glyph-name="uni0306" unicode="&#x306;" 
d="M-266 620q-52 37 -69 109l69 30q44 -81 118 -81q73 0 117 81l69 -30q-17 -71 -68.5 -108.5t-117.5 -37.5t-118 37z" />
    <glyph glyph-name="uni0307" unicode="&#x307;" 
d="M-229 734h161v-142h-161v142z" />
    <glyph glyph-name="uni0308" unicode="&#x308;" 
d="M-314 729h139v-132h-139v132zM-122 729h139v-132h-139v132z" />
    <glyph glyph-name="hookabovecomb" unicode="&#x309;" 
d="M-109 561h-76v25q0 21 10 35t27 28q11 9 16.5 16t5.5 15q0 23 -34 23q-24 0 -50 -9l-20 57q42 19 86 19q55 0 86 -22t31 -54q0 -24 -12.5 -39t-35.5 -31q-17 -12 -25.5 -21.5t-8.5 -21.5v-20z" />
    <glyph glyph-name="uni030A" unicode="&#x30a;" 
d="M-227 587.5q-32 31.5 -32 77.5q0 45 32.5 76.5t78.5 31.5t78 -31.5t32 -76.5q0 -46 -32 -77.5t-78 -31.5q-47 0 -79 31.5zM-117 631.5q12 13.5 12 33.5q0 19 -12 32t-31 13t-31.5 -13t-12.5 -32q0 -20 12.5 -33.5t31.5 -13.5t31 13.5z" />
    <glyph glyph-name="uni030B" unicode="&#x30b;" 
d="M-186 561h-65l35 206h109zM-46 561h-65l34 206h109z" />
    <glyph glyph-name="uni030C" unicode="&#x30c;" 
d="M-90 767h118l-131 -206h-91l-131 206h118l59 -118z" />
    <glyph glyph-name="uni030F" unicode="&#x30f;" 
d="M-251 561l-78 206h109l34 -206h-65zM-111 561l-79 206h109l35 -206h-65z" />
    <glyph glyph-name="uni0311" unicode="&#x311;" 
d="M-31 717q52 -37 69 -108l-69 -29q-45 80 -117 80q-73 0 -118 -80l-69 29q17 71 69 108t118 37q65 0 117 -37z" />
    <glyph glyph-name="uni0312" unicode="&#x312;" 
d="M-74 704v-114h-150v64q0 47 13.5 82.5t46.5 64.5l55 -37q-28 -27 -35 -60h70z" />
    <glyph glyph-name="uni031B" unicode="&#x31b;" 
d="M-148 482v18q50 0 71 21.5t21 80.5v20h131v-38q0 -63 -37 -106.5t-98 -50.5z" />
    <glyph glyph-name="dotbelowcomb" unicode="&#x323;" 
d="M-218 -68h139v-133h-139v133z" />
    <glyph glyph-name="uni0324" unicode="&#x324;" 
d="M-314 -68h139v-132h-139v132zM-122 -68h139v-132h-139v132z" />
    <glyph glyph-name="uni0326" unicode="&#x326;" 
d="M-74 -67v-64q0 -47 -13.5 -82t-46.5 -65l-55 38q29 27 35 59h-70v114h150z" />
    <glyph glyph-name="uni0327" unicode="&#x327;" 
d="M-49.5 -59q23.5 -19 23.5 -51q0 -40 -36 -64.5t-101 -24.5q-22 0 -47.5 4.5t-46.5 13.5l12 59q46 -14 79 -14q46 0 46 26q0 9 -8.5 14.5t-24.5 5.5q-13 0 -36 -7l-20 21l12 96h82l-9 -61q5 1 13 1q38 0 61.5 -19z" />
    <glyph glyph-name="uni0328" unicode="&#x328;" 
d="M-280 -168.5q-36 30.5 -36 80.5q0 52 38.5 88.5t111.5 45.5l18 -36q-71 -20 -71 -76q0 -54 59 -54q28 0 55 13l17 -71q-47 -21 -100 -21q-56 0 -92 30.5z" />
    <glyph glyph-name="uni032E" unicode="&#x32e;" 
d="M-266 -192q-52 37 -69 109l69 29q44 -80 118 -80q73 0 117 80l69 -29q-17 -71 -68.5 -108.5t-117.5 -37.5t-118 37z" />
    <glyph glyph-name="uni0331" unicode="&#x331;" 
d="M-306 -179v88h315v-88h-315z" />
    <glyph glyph-name="uni0335" unicode="&#x335;" 
d="M-306 208v85h315v-85h-315z" />
    <glyph glyph-name="uni0394" unicode="&#x394;" horiz-adv-x="757" 
d="M440 712l286 -604v-108h-695v108l287 604h122zM380 546l-188 -418h375z" />
    <glyph glyph-name="Sigma" unicode="&#x3a3;" horiz-adv-x="611" 
d="M564 712v-125h-341l198 -274l-1 -95l-198 -275h342v-125h-519v113l240 334l-240 334v113h519z" />
    <glyph glyph-name="uni03A9" unicode="&#x3a9;" horiz-adv-x="819" 
d="M733 264.5q-39 -73.5 -115 -139.5h140v-125h-292v121q78 71 114 140t36 149q0 89 -54.5 139t-151.5 50t-151.5 -50t-54.5 -139q0 -80 36 -149t115 -140v-121h-293v125h140q-77 66 -116 139t-39 151q0 92 45 161.5t127.5 107.5t190.5 38t190 -38t127 -107.5t45 -161.5
q0 -77 -39 -150.5z" />
    <glyph glyph-name="uni03BC" unicode="&#x3bc;" horiz-adv-x="606" 
d="M545 507v-507h-147v74q-24 -40 -63 -61t-88 -21q-20 0 -38 3v-211h-151v723h151v-305q0 -92 79 -92q47 0 76 32t29 84v281h152z" />
    <glyph glyph-name="pi" unicode="&#x3c0;" horiz-adv-x="634" 
d="M627 100l-11 -109l-50 3q-84 5 -133 28t-71.5 69.5t-22.5 122.5v180h-82q-2 -105 -17 -198t-51 -196l-155 -1q33 114 51 206.5t22 188.5h-103v113h593v-113h-107v-206q0 -42 19.5 -61t63.5 -22z" />
    <glyph glyph-name="uni1E08" unicode="&#x1e08;" horiz-adv-x="685" 
d="M594 930l-150 -157h-93l103 157h140zM550 16q-58 -21 -123 -24l-5 -33q5 1 13 1q38 0 61.5 -19t23.5 -51q0 -40 -36 -64.5t-101 -24.5q-22 0 -47.5 4.5t-46.5 13.5l12 59q46 -14 79 -14q46 0 46 26q0 9 -8.5 14.5t-24.5 5.5q-13 0 -36 -7l-20 21l9 71q-91 12 -158 60
t-102.5 125.5t-35.5 176.5q0 109 43 191.5t123.5 127.5t188.5 45q71 0 135.5 -21.5t105.5 -60.5l-49 -112q-48 36 -93.5 52.5t-95.5 16.5q-96 0 -147 -61t-51 -178q0 -118 51 -179.5t147 -61.5q50 0 95.5 16.5t93.5 52.5l49 -112q-38 -36 -96 -57z" />
    <glyph glyph-name="uni1E09" unicode="&#x1e09;" horiz-adv-x="509" 
d="M503 778l-154 -206h-93l99 206h148zM225.5 365.5q-34.5 -37.5 -34.5 -109.5q0 -73 34 -110.5t97 -37.5q34 0 70 13.5t66 37.5l40 -105q-30 -26 -76.5 -42t-98.5 -19l-5 -34q5 1 13 1q38 0 61.5 -19t23.5 -51q0 -40 -36 -64.5t-101 -24.5q-22 0 -47.5 4.5t-46.5 13.5
l12 59q46 -14 79 -14q46 0 46 26q0 9 -8.5 14.5t-24.5 5.5q-13 0 -36 -7l-20 21l9 73q-97 16 -151.5 83.5t-54.5 172.5q0 79 34 139.5t95.5 94t142.5 33.5q55 0 107 -17t83 -46l-40 -105q-30 24 -66 37.5t-70 13.5q-62 0 -96.5 -37.5z" />
    <glyph glyph-name="uni1E0C" unicode="&#x1e0c;" horiz-adv-x="771" 
d="M71 712h275q117 0 201 -42t128.5 -122t44.5 -191q0 -112 -44 -192t-128 -122.5t-202 -42.5h-275v712zM336 126q228 0 228 231q0 229 -228 229h-109v-460h109zM315 -68h139v-133h-139v133z" />
    <glyph glyph-name="uni1E0D" unicode="&#x1e0d;" horiz-adv-x="630" 
d="M569 736v-736h-149v75q-23 -39 -65 -61t-95 -22q-65 0 -116 33.5t-79.5 94t-28.5 138.5t28.5 137.5t79 92t116.5 32.5q51 0 93 -21.5t65 -59.5v297h151zM390 145.5q30 38.5 30 110.5q0 71 -30.5 109.5t-85.5 38.5q-56 0 -87 -38t-31 -108q0 -72 31 -111.5t87 -39.5
t86 38.5zM246 -68h139v-133h-139v133z" />
    <glyph glyph-name="uni1E0E" unicode="&#x1e0e;" horiz-adv-x="771" 
d="M71 712h275q117 0 201 -42t128.5 -122t44.5 -191q0 -112 -44 -192t-128 -122.5t-202 -42.5h-275v712zM336 126q228 0 228 231q0 229 -228 229h-109v-460h109zM227 -179v88h315v-88h-315z" />
    <glyph glyph-name="uni1E0F" unicode="&#x1e0f;" horiz-adv-x="630" 
d="M569 736v-736h-149v75q-23 -39 -65 -61t-95 -22q-65 0 -116 33.5t-79.5 94t-28.5 138.5t28.5 137.5t79 92t116.5 32.5q51 0 93 -21.5t65 -59.5v297h151zM390 145.5q30 38.5 30 110.5q0 71 -30.5 109.5t-85.5 38.5q-56 0 -87 -38t-31 -108q0 -72 31 -111.5t87 -39.5
t86 38.5zM158 -179v88h315v-88h-315z" />
    <glyph glyph-name="uni1E14" unicode="&#x1e14;" horiz-adv-x="599" 
d="M71 0v712h491v-121h-339v-168h318v-122h-318v-180h339v-121h-491zM175 804v94h315v-94h-315zM286 935l-150 157h140l103 -157h-93z" />
    <glyph glyph-name="uni1E15" unicode="&#x1e15;" horiz-adv-x="550" 
d="M516 241h-334q4 -71 37 -103.5t98 -32.5q39 0 78 13t72 38l40 -102q-36 -29 -89.5 -45.5t-107.5 -16.5q-128 0 -201 70.5t-73 192.5q0 77 31.5 137.5t88.5 94t129 33.5q107 0 169 -69.5t62 -187.5v-22zM219.5 389q-26.5 -25 -34.5 -73h201q-12 98 -97 98q-43 0 -69.5 -25
zM127 626v94h315v-94h-315zM238 764l-154 206h148l99 -206h-93z" />
    <glyph glyph-name="uni1E16" unicode="&#x1e16;" horiz-adv-x="599" 
d="M71 0v712h491v-121h-339v-168h318v-122h-318v-180h339v-121h-491zM175 804v94h315v-94h-315zM379 935h-93l103 157h140z" />
    <glyph glyph-name="uni1E17" unicode="&#x1e17;" horiz-adv-x="550" 
d="M516 241h-334q4 -71 37 -103.5t98 -32.5q39 0 78 13t72 38l40 -102q-36 -29 -89.5 -45.5t-107.5 -16.5q-128 0 -201 70.5t-73 192.5q0 77 31.5 137.5t88.5 94t129 33.5q107 0 169 -69.5t62 -187.5v-22zM219.5 389q-26.5 -25 -34.5 -73h201q-12 98 -97 98q-43 0 -69.5 -25
zM127 626v94h315v-94h-315zM331 764h-93l99 206h148z" />
    <glyph glyph-name="uni1E1C" unicode="&#x1e1c;" horiz-adv-x="599" 
d="M220 810q-47 28 -67 82l70 29q32 -49 110 -49q77 0 109 49l70 -29q-20 -54 -67 -82t-112 -28q-66 0 -113 28zM223 591v-168h318v-122h-318v-180h339v-121h-199l-6 -41q5 1 13 1q38 0 61.5 -19t23.5 -51q0 -40 -36 -64.5t-101 -24.5q-21 0 -47 4.5t-47 13.5l12 59
q46 -14 79 -14q46 0 46 26q0 9 -8.5 14.5t-24.5 5.5q-13 0 -36 -7l-20 21l10 76h-211v712h491v-121h-339z" />
    <glyph glyph-name="uni1E1D" unicode="&#x1e1d;" horiz-adv-x="550" 
d="M167 631q-52 37 -69 109l69 30q44 -81 118 -81q73 0 117 81l69 -30q-17 -71 -68.5 -108.5t-117.5 -37.5t-118 37zM516 241h-334q4 -71 37 -103.5t98 -32.5q39 0 78 13t72 38l40 -102q-32 -25 -77.5 -41t-94.5 -20l-5 -34q5 1 13 1q38 0 61.5 -19t23.5 -51
q0 -40 -36 -64.5t-101 -24.5q-21 0 -47 4.5t-47 13.5l12 59q46 -14 79 -14q46 0 46 26q0 9 -8.5 14.5t-24.5 5.5q-13 0 -36 -7l-20 21l9 72q-103 15 -160.5 83.5t-57.5 175.5q0 77 31.5 137.5t88.5 94t129 33.5q107 0 169 -69.5t62 -187.5v-22zM219.5 389
q-26.5 -25 -34.5 -73h201q-12 98 -97 98q-43 0 -69.5 -25z" />
    <glyph glyph-name="uni1E20" unicode="&#x1e20;" horiz-adv-x="745" 
d="M682 393v-349q-52 -25 -121.5 -39t-142.5 -14q-113 0 -196 44t-127.5 126t-44.5 196q0 111 44.5 193t126 126.5t190.5 44.5q77 0 143.5 -21t109.5 -59l-50 -112q-50 36 -97 52t-102 16q-206 0 -206 -240q0 -245 215 -245q59 0 118 15v157h-140v109h280zM253 804v94h315
v-94h-315z" />
    <glyph glyph-name="uni1E21" unicode="&#x1e21;" horiz-adv-x="634" 
d="M574 507v-484q0 -121 -70 -184t-204 -63q-121 0 -210 47l23 112q92 -46 182 -46q65 0 97 30.5t32 92.5v88q-24 -37 -67 -61.5t-95 -24.5q-66 0 -117 31.5t-80 89t-29 132.5t29 132.5t80 89t117 31.5q53 0 96 -23t66 -62v72h150zM392.5 165.5q31.5 36.5 31.5 101.5
q0 64 -31 100.5t-87 36.5t-88 -36.5t-32 -100.5t32 -101t88 -37q55 0 86.5 36.5zM160 626v94h315v-94h-315z" />
    <glyph glyph-name="uni1E24" unicode="&#x1e24;" horiz-adv-x="779" 
d="M554 712h153v-712h-153v299h-330v-299h-153v712h153v-288h330v288zM319 -68h139v-133h-139v133z" />
    <glyph glyph-name="uni1E25" unicode="&#x1e25;" horiz-adv-x="613" 
d="M554 307v-307h-151v300q0 53 -19.5 77.5t-61.5 24.5q-50 0 -80 -32t-30 -86v-284h-151v736h151v-298q27 40 69 61t93 21q180 0 180 -213zM238 -68h139v-133h-139v133z" />
    <glyph glyph-name="uni1E2A" unicode="&#x1e2a;" horiz-adv-x="779" 
d="M554 712h153v-712h-153v299h-330v-299h-153v712h153v-288h330v288zM271 -192q-52 37 -69 109l69 29q44 -80 118 -80q73 0 117 80l69 -29q-17 -71 -68.5 -108.5t-117.5 -37.5t-118 37z" />
    <glyph glyph-name="uni1E2B" unicode="&#x1e2b;" horiz-adv-x="613" 
d="M554 307v-307h-151v300q0 53 -19.5 77.5t-61.5 24.5q-50 0 -80 -32t-30 -86v-284h-151v736h151v-298q27 40 69 61t93 21q180 0 180 -213zM190 -192q-52 37 -69 109l69 29q44 -80 118 -80q73 0 117 80l69 -29q-17 -71 -68.5 -108.5t-117.5 -37.5t-118 37z" />
    <glyph glyph-name="uni1E2E" unicode="&#x1e2e;" horiz-adv-x="299" 
d="M71 0v712h156v-712h-156zM-18 918h139v-132h-139v132zM174 918h139v-132h-139v132zM194 935h-93l103 157h140z" />
    <glyph glyph-name="uni1E2F" unicode="&#x1e2f;" horiz-adv-x="274" 
d="M61 0v507h151v-507h-151zM-29 740h139v-132h-139v132zM163 740h139v-132h-139v132zM183 764h-93l99 206h148z" />
    <glyph glyph-name="uni1E36" unicode="&#x1e36;" horiz-adv-x="569" 
d="M71 0v712h156v-585h318v-127h-474zM246 -68h139v-133h-139v133z" />
    <glyph glyph-name="uni1E37" unicode="&#x1e37;" horiz-adv-x="274" 
d="M61 0v736h151v-736h-151zM67 -68h139v-133h-139v133z" />
    <glyph glyph-name="uni1E3A" unicode="&#x1e3a;" horiz-adv-x="569" 
d="M71 0v712h156v-585h318v-127h-474zM158 -179v88h315v-88h-315z" />
    <glyph glyph-name="uni1E3B" unicode="&#x1e3b;" horiz-adv-x="274" 
d="M61 0v736h151v-736h-151zM-21 -179v88h315v-88h-315z" />
    <glyph glyph-name="uni1E42" unicode="&#x1e42;" horiz-adv-x="851" 
d="M655 712h123v-712h-138v389l-164 -389h-101l-165 384v-384h-137v712h124l230 -525zM355 -68h139v-133h-139v133z" />
    <glyph glyph-name="uni1E43" unicode="&#x1e43;" horiz-adv-x="911" 
d="M810.5 467.5q42.5 -52.5 42.5 -160.5v-307h-151v302q0 53 -17 76.5t-56 23.5q-46 0 -71 -32t-25 -90v-280h-151v302q0 52 -17.5 76t-55.5 24q-46 0 -71.5 -32t-25.5 -90v-280h-151v362q0 81 -8 145h142l9 -76q23 43 64.5 66t95.5 23q113 0 150 -94q25 43 69.5 68.5
t97.5 25.5q87 0 129.5 -52.5zM388 -68h139v-133h-139v133z" />
    <glyph glyph-name="uni1E44" unicode="&#x1e44;" horiz-adv-x="760" 
d="M541 712h147v-712h-116l-355 454v-454h-146v712h115l355 -453v453zM298 923h161v-142h-161v142z" />
    <glyph glyph-name="uni1E45" unicode="&#x1e45;" horiz-adv-x="613" 
d="M554 307v-307h-151v300q0 53 -19.5 77.5t-61.5 24.5q-50 0 -80 -32t-30 -86v-284h-151v362q0 81 -8 145h142l10 -80q27 45 70.5 69t98.5 24q180 0 180 -213zM227 745h161v-142h-161v142z" />
    <glyph glyph-name="uni1E46" unicode="&#x1e46;" horiz-adv-x="760" 
d="M541 712h147v-712h-116l-355 454v-454h-146v712h115l355 -453v453zM310 -68h139v-133h-139v133z" />
    <glyph glyph-name="uni1E47" unicode="&#x1e47;" horiz-adv-x="613" 
d="M554 307v-307h-151v300q0 53 -19.5 77.5t-61.5 24.5q-50 0 -80 -32t-30 -86v-284h-151v362q0 81 -8 145h142l10 -80q27 45 70.5 69t98.5 24q180 0 180 -213zM238 -68h139v-133h-139v133z" />
    <glyph glyph-name="uni1E48" unicode="&#x1e48;" horiz-adv-x="760" 
d="M541 712h147v-712h-116l-355 454v-454h-146v712h115l355 -453v453zM222 -179v88h315v-88h-315z" />
    <glyph glyph-name="uni1E49" unicode="&#x1e49;" horiz-adv-x="613" 
d="M554 307v-307h-151v300q0 53 -19.5 77.5t-61.5 24.5q-50 0 -80 -32t-30 -86v-284h-151v362q0 81 -8 145h142l10 -80q27 45 70.5 69t98.5 24q180 0 180 -213zM150 -179v88h315v-88h-315z" />
    <glyph glyph-name="uni1E4C" unicode="&#x1e4c;" horiz-adv-x="795" 
d="M213.5 35.5q-78.5 44.5 -121 127.5t-42.5 194t42.5 193t121 126.5t184.5 44.5t184 -44.5t120 -126.5t42 -193t-42 -194t-120 -127.5t-184 -44.5t-184.5 44.5zM538.5 176q50.5 63 50.5 181t-50.5 180t-140.5 62t-140.5 -62t-50.5 -180q0 -119 50.5 -181.5t140.5 -62.5
t140.5 63zM251.5 890q30.5 37 78.5 37q19 0 37.5 -8t39.5 -22q22 -12 33.5 -17.5t23.5 -5.5q19 0 30.5 13.5t13.5 36.5h64q0 -73 -30.5 -110t-78.5 -37q-19 0 -37.5 8t-39.5 22q-22 12 -33.5 17.5t-23.5 5.5q-19 0 -30.5 -13.5t-13.5 -36.5h-64q0 73 30.5 110zM443 935h-93
l103 157h140z" />
    <glyph glyph-name="uni1E4D" unicode="&#x1e4d;" horiz-adv-x="604" 
d="M161.5 24q-60.5 32 -93 92t-32.5 140t32.5 140t93 92t141.5 32q80 0 140 -32t92.5 -92t32.5 -140t-32.5 -140t-92.5 -92t-140 -32q-81 0 -141.5 32zM388.5 144q29.5 37 29.5 112q0 74 -29.5 111.5t-85.5 37.5q-57 0 -87 -37.5t-30 -111.5q0 -149 117 -149q56 0 85.5 37z
M157.5 713.5q30.5 36.5 78.5 36.5q19 0 36.5 -7.5t40.5 -21.5q22 -12 33.5 -17.5t23.5 -5.5q19 0 30.5 13t13.5 36h64q0 -72 -30.5 -109t-78.5 -37q-19 0 -36.5 7.5t-40.5 21.5q-22 12 -33.5 17.5t-23.5 5.5q-19 0 -30.5 -13t-13.5 -36h-64q0 73 30.5 109.5zM349 764h-93
l99 206h148z" />
    <glyph glyph-name="uni1E4E" unicode="&#x1e4e;" horiz-adv-x="795" 
d="M213.5 35.5q-78.5 44.5 -121 127.5t-42.5 194t42.5 193t121 126.5t184.5 44.5t184 -44.5t120 -126.5t42 -193t-42 -194t-120 -127.5t-184 -44.5t-184.5 44.5zM538.5 176q50.5 63 50.5 181t-50.5 180t-140.5 62t-140.5 -62t-50.5 -180q0 -119 50.5 -181.5t140.5 -62.5
t140.5 63zM251.5 890q30.5 37 78.5 37q19 0 37.5 -8t39.5 -22q22 -12 33.5 -17.5t23.5 -5.5q19 0 30.5 13.5t13.5 36.5h64q0 -73 -30.5 -110t-78.5 -37q-19 0 -37.5 8t-39.5 22q-22 12 -33.5 17.5t-23.5 5.5q-19 0 -30.5 -13.5t-13.5 -36.5h-64q0 73 30.5 110zM231 1080h139
v-132h-139v132zM423 1080h139v-132h-139v132z" />
    <glyph glyph-name="uni1E4F" unicode="&#x1e4f;" horiz-adv-x="604" 
d="M161.5 24q-60.5 32 -93 92t-32.5 140t32.5 140t93 92t141.5 32q80 0 140 -32t92.5 -92t32.5 -140t-32.5 -140t-92.5 -92t-140 -32q-81 0 -141.5 32zM388.5 144q29.5 37 29.5 112q0 74 -29.5 111.5t-85.5 37.5q-57 0 -87 -37.5t-30 -111.5q0 -149 117 -149q56 0 85.5 37z
M157.5 713.5q30.5 36.5 78.5 36.5q19 0 36.5 -7.5t40.5 -21.5q22 -12 33.5 -17.5t23.5 -5.5q19 0 30.5 13t13.5 36h64q0 -72 -30.5 -109t-78.5 -37q-19 0 -36.5 7.5t-40.5 21.5q-22 12 -33.5 17.5t-23.5 5.5q-19 0 -30.5 -13t-13.5 -36h-64q0 73 30.5 109.5zM137 932h139
v-132h-139v132zM329 932h139v-132h-139v132z" />
    <glyph glyph-name="uni1E50" unicode="&#x1e50;" horiz-adv-x="795" 
d="M213.5 35.5q-78.5 44.5 -121 127.5t-42.5 194t42.5 193t121 126.5t184.5 44.5t184 -44.5t120 -126.5t42 -193t-42 -194t-120 -127.5t-184 -44.5t-184.5 44.5zM538.5 176q50.5 63 50.5 181t-50.5 180t-140.5 62t-140.5 -62t-50.5 -180q0 -119 50.5 -181.5t140.5 -62.5
t140.5 63zM239 804v94h315v-94h-315zM350 935l-150 157h140l103 -157h-93z" />
    <glyph glyph-name="uni1E51" unicode="&#x1e51;" horiz-adv-x="604" 
d="M161.5 24q-60.5 32 -93 92t-32.5 140t32.5 140t93 92t141.5 32q80 0 140 -32t92.5 -92t32.5 -140t-32.5 -140t-92.5 -92t-140 -32q-81 0 -141.5 32zM388.5 144q29.5 37 29.5 112q0 74 -29.5 111.5t-85.5 37.5q-57 0 -87 -37.5t-30 -111.5q0 -149 117 -149q56 0 85.5 37z
M145 626v94h315v-94h-315zM256 764l-154 206h148l99 -206h-93z" />
    <glyph glyph-name="uni1E52" unicode="&#x1e52;" horiz-adv-x="795" 
d="M213.5 35.5q-78.5 44.5 -121 127.5t-42.5 194t42.5 193t121 126.5t184.5 44.5t184 -44.5t120 -126.5t42 -193t-42 -194t-120 -127.5t-184 -44.5t-184.5 44.5zM538.5 176q50.5 63 50.5 181t-50.5 180t-140.5 62t-140.5 -62t-50.5 -180q0 -119 50.5 -181.5t140.5 -62.5
t140.5 63zM239 804v94h315v-94h-315zM443 935h-93l103 157h140z" />
    <glyph glyph-name="uni1E53" unicode="&#x1e53;" horiz-adv-x="604" 
d="M161.5 24q-60.5 32 -93 92t-32.5 140t32.5 140t93 92t141.5 32q80 0 140 -32t92.5 -92t32.5 -140t-32.5 -140t-92.5 -92t-140 -32q-81 0 -141.5 32zM388.5 144q29.5 37 29.5 112q0 74 -29.5 111.5t-85.5 37.5q-57 0 -87 -37.5t-30 -111.5q0 -149 117 -149q56 0 85.5 37z
M145 626v94h315v-94h-315zM349 764h-93l99 206h148z" />
    <glyph glyph-name="uni1E5A" unicode="&#x1e5a;" horiz-adv-x="708" 
d="M672 0h-165l-91 237q-11 28 -33.5 39t-56.5 11h-101v-287h-154v712h317q124 0 188 -54t64 -155q0 -71 -37.5 -122t-107.5 -73q63 -13 91 -87zM365 406q67 0 98 22.5t31 70.5t-31 70.5t-98 22.5h-142v-186h142zM287 -68h139v-133h-139v133z" />
    <glyph glyph-name="uni1E5B" unicode="&#x1e5b;" horiz-adv-x="410" 
d="M410 509l-1 -138q-37 17 -74 17q-60 0 -91.5 -32.5t-31.5 -90.5v-265h-151v362q0 81 -8 145h142l10 -87q19 48 59.5 73.5t91.5 25.5q32 0 54 -10zM67 -68h139v-133h-139v133z" />
    <glyph glyph-name="uni1E5E" unicode="&#x1e5e;" horiz-adv-x="708" 
d="M672 0h-165l-91 237q-11 28 -33.5 39t-56.5 11h-101v-287h-154v712h317q124 0 188 -54t64 -155q0 -71 -37.5 -122t-107.5 -73q63 -13 91 -87zM365 406q67 0 98 22.5t31 70.5t-31 70.5t-98 22.5h-142v-186h142zM199 -179v88h315v-88h-315z" />
    <glyph glyph-name="uni1E5F" unicode="&#x1e5f;" horiz-adv-x="410" 
d="M410 509l-1 -138q-37 17 -74 17q-60 0 -91.5 -32.5t-31.5 -90.5v-265h-151v362q0 81 -8 145h142l10 -87q19 48 59.5 73.5t91.5 25.5q32 0 54 -10zM-21 -179v88h315v-88h-315z" />
    <glyph glyph-name="uni1E60" unicode="&#x1e60;" horiz-adv-x="657" 
d="M164.5 12.5q-74.5 21.5 -123.5 60.5l50 112q103 -72 230 -72q68 0 104.5 21.5t36.5 60.5q0 34 -33.5 53.5t-117.5 37.5q-94 19 -149.5 46.5t-81 67t-25.5 98.5q0 64 35.5 115t99.5 79.5t148 28.5q76 0 146 -22t112 -60l-50 -112q-94 72 -207 72q-60 0 -96 -24t-36 -65
q0 -24 13.5 -40t45.5 -28.5t91 -24.5q137 -30 197.5 -78t60.5 -131q0 -100 -78 -158.5t-217 -58.5q-81 0 -155.5 21.5zM250 923h161v-142h-161v142z" />
    <glyph glyph-name="uni1E61" unicode="&#x1e61;" horiz-adv-x="503" 
d="M28 54l40 105q40 -29 89 -44.5t100 -15.5q39 0 60 12t21 35q0 19 -15 30t-53 19l-83 19q-73 16 -107.5 51t-34.5 93q0 47 27.5 84t76.5 57.5t113 20.5q54 0 106 -16.5t93 -46.5l-42 -101q-39 27 -79.5 41t-78.5 14q-37 0 -58 -13t-21 -36q0 -17 12.5 -27.5t44.5 -17.5
l85 -19q78 -18 113 -54t35 -96q0 -72 -58 -114t-159 -42q-144 0 -227 62zM180 745h161v-142h-161v142z" />
    <glyph glyph-name="uni1E62" unicode="&#x1e62;" horiz-adv-x="657" 
d="M164.5 12.5q-74.5 21.5 -123.5 60.5l50 112q103 -72 230 -72q68 0 104.5 21.5t36.5 60.5q0 34 -33.5 53.5t-117.5 37.5q-94 19 -149.5 46.5t-81 67t-25.5 98.5q0 64 35.5 115t99.5 79.5t148 28.5q76 0 146 -22t112 -60l-50 -112q-94 72 -207 72q-60 0 -96 -24t-36 -65
q0 -24 13.5 -40t45.5 -28.5t91 -24.5q137 -30 197.5 -78t60.5 -131q0 -100 -78 -158.5t-217 -58.5q-81 0 -155.5 21.5zM257 -68h139v-133h-139v133z" />
    <glyph glyph-name="uni1E63" unicode="&#x1e63;" horiz-adv-x="503" 
d="M28 54l40 105q40 -29 89 -44.5t100 -15.5q39 0 60 12t21 35q0 19 -15 30t-53 19l-83 19q-73 16 -107.5 51t-34.5 93q0 47 27.5 84t76.5 57.5t113 20.5q54 0 106 -16.5t93 -46.5l-42 -101q-39 27 -79.5 41t-78.5 14q-37 0 -58 -13t-21 -36q0 -17 12.5 -27.5t44.5 -17.5
l85 -19q78 -18 113 -54t35 -96q0 -72 -58 -114t-159 -42q-144 0 -227 62zM182 -68h139v-133h-139v133z" />
    <glyph glyph-name="uni1E64" unicode="&#x1e64;" horiz-adv-x="657" 
d="M164.5 12.5q-74.5 21.5 -123.5 60.5l50 112q103 -72 230 -72q68 0 104.5 21.5t36.5 60.5q0 34 -33.5 53.5t-117.5 37.5q-94 19 -149.5 46.5t-81 67t-25.5 98.5q0 64 35.5 115t99.5 79.5t148 28.5q76 0 146 -22t112 -60l-50 -112q-94 72 -207 72q-60 0 -96 -24t-36 -65
q0 -24 13.5 -40t45.5 -28.5t91 -24.5q137 -30 197.5 -78t60.5 -131q0 -100 -78 -158.5t-217 -58.5q-81 0 -155.5 21.5zM404 773h-93l103 157h140zM128 929h161v-142h-161v142z" />
    <glyph glyph-name="uni1E65" unicode="&#x1e65;" horiz-adv-x="503" 
d="M28 54l40 105q40 -29 89 -44.5t100 -15.5q39 0 60 12t21 35q0 19 -15 30t-53 19l-83 19q-73 16 -107.5 51t-34.5 93q0 47 27.5 84t76.5 57.5t113 20.5q54 0 106 -16.5t93 -46.5l-42 -101q-39 27 -79.5 41t-78.5 14q-37 0 -58 -13t-21 -36q0 -17 12.5 -27.5t44.5 -17.5
l85 -19q78 -18 113 -54t35 -96q0 -72 -58 -114t-159 -42q-144 0 -227 62zM321 562h-93l99 206h148zM72 767h161v-142h-161v142z" />
    <glyph glyph-name="uni1E66" unicode="&#x1e66;" horiz-adv-x="657" 
d="M164.5 12.5q-74.5 21.5 -123.5 60.5l50 112q103 -72 230 -72q68 0 104.5 21.5t36.5 60.5q0 34 -33.5 53.5t-117.5 37.5q-94 19 -149.5 46.5t-81 67t-25.5 98.5q0 64 35.5 115t99.5 79.5t148 28.5q76 0 146 -22t112 -60l-50 -112q-94 72 -207 72q-60 0 -96 -24t-36 -65
q0 -24 13.5 -40t45.5 -28.5t91 -24.5q137 -30 197.5 -78t60.5 -131q0 -100 -78 -158.5t-217 -58.5q-81 0 -155.5 21.5zM393 930h114l-133 -157h-87l-133 157h114l63 -87zM250 1085h161v-142h-161v142z" />
    <glyph glyph-name="uni1E67" unicode="&#x1e67;" horiz-adv-x="503" 
d="M28 54l40 105q40 -29 89 -44.5t100 -15.5q39 0 60 12t21 35q0 19 -15 30t-53 19l-83 19q-73 16 -107.5 51t-34.5 93q0 47 27.5 84t76.5 57.5t113 20.5q54 0 106 -16.5t93 -46.5l-42 -101q-39 27 -79.5 41t-78.5 14q-37 0 -58 -13t-21 -36q0 -17 12.5 -27.5t44.5 -17.5
l85 -19q78 -18 113 -54t35 -96q0 -72 -58 -114t-159 -42q-144 0 -227 62zM319 778h118l-131 -206h-91l-131 206h118l59 -118zM180 937h161v-142h-161v142z" />
    <glyph glyph-name="uni1E68" unicode="&#x1e68;" horiz-adv-x="657" 
d="M164.5 12.5q-74.5 21.5 -123.5 60.5l50 112q103 -72 230 -72q68 0 104.5 21.5t36.5 60.5q0 34 -33.5 53.5t-117.5 37.5q-94 19 -149.5 46.5t-81 67t-25.5 98.5q0 64 35.5 115t99.5 79.5t148 28.5q76 0 146 -22t112 -60l-50 -112q-94 72 -207 72q-60 0 -96 -24t-36 -65
q0 -24 13.5 -40t45.5 -28.5t91 -24.5q137 -30 197.5 -78t60.5 -131q0 -100 -78 -158.5t-217 -58.5q-81 0 -155.5 21.5zM257 -68h139v-133h-139v133zM250 923h161v-142h-161v142z" />
    <glyph glyph-name="uni1E69" unicode="&#x1e69;" horiz-adv-x="503" 
d="M28 54l40 105q40 -29 89 -44.5t100 -15.5q39 0 60 12t21 35q0 19 -15 30t-53 19l-83 19q-73 16 -107.5 51t-34.5 93q0 47 27.5 84t76.5 57.5t113 20.5q54 0 106 -16.5t93 -46.5l-42 -101q-39 27 -79.5 41t-78.5 14q-37 0 -58 -13t-21 -36q0 -17 12.5 -27.5t44.5 -17.5
l85 -19q78 -18 113 -54t35 -96q0 -72 -58 -114t-159 -42q-144 0 -227 62zM182 -68h139v-133h-139v133zM180 745h161v-142h-161v142z" />
    <glyph glyph-name="uni1E6C" unicode="&#x1e6c;" horiz-adv-x="628" 
d="M235 0v585h-223v127h604v-127h-223v-585h-158zM244 -68h139v-133h-139v133z" />
    <glyph glyph-name="uni1E6D" unicode="&#x1e6d;" horiz-adv-x="396" 
d="M251 394v-197q0 -42 22 -61.5t57 -19.5q22 0 50 7v-117q-36 -14 -87 -14q-94 0 -143.5 53t-49.5 149v200h-96v113h96v119l151 49v-168h129v-113h-129zM180 -68h139v-133h-139v133z" />
    <glyph glyph-name="uni1E6E" unicode="&#x1e6e;" horiz-adv-x="628" 
d="M235 0v585h-223v127h604v-127h-223v-585h-158zM156 -179v88h315v-88h-315z" />
    <glyph glyph-name="uni1E6F" unicode="&#x1e6f;" horiz-adv-x="396" 
d="M251 394v-197q0 -42 22 -61.5t57 -19.5q22 0 50 7v-117q-36 -14 -87 -14q-94 0 -143.5 53t-49.5 149v200h-96v113h96v119l151 49v-168h129v-113h-129zM92 -179v88h315v-88h-315z" />
    <glyph glyph-name="uni1E78" unicode="&#x1e78;" horiz-adv-x="746" 
d="M145 68q-78 77 -78 226v418h153v-425q0 -85 39.5 -129.5t113.5 -44.5t113 44.5t39 129.5v425h154v-418q0 -148 -78.5 -225.5t-227.5 -77.5q-150 0 -228 77zM227.5 890q30.5 37 78.5 37q19 0 37.5 -8t39.5 -22q22 -12 33.5 -17.5t23.5 -5.5q19 0 30.5 13.5t13.5 36.5h64
q0 -73 -30.5 -110t-78.5 -37q-19 0 -37.5 8t-39.5 22q-22 12 -33.5 17.5t-23.5 5.5q-19 0 -30.5 -13.5t-13.5 -36.5h-64q0 73 30.5 110zM419 935h-93l103 157h140z" />
    <glyph glyph-name="uni1E79" unicode="&#x1e79;" horiz-adv-x="606" 
d="M545 507v-507h-147v74q-24 -40 -63 -61t-88 -21q-95 0 -142 53t-47 160v302h151v-305q0 -92 79 -92q47 0 76 32t29 84v281h152zM157.5 713.5q30.5 36.5 78.5 36.5q19 0 36.5 -7.5t40.5 -21.5q22 -12 33.5 -17.5t23.5 -5.5q19 0 30.5 13t13.5 36h64q0 -72 -30.5 -109
t-78.5 -37q-19 0 -36.5 7.5t-40.5 21.5q-22 12 -33.5 17.5t-23.5 5.5q-19 0 -30.5 -13t-13.5 -36h-64q0 73 30.5 109.5zM349 764h-93l99 206h148z" />
    <glyph glyph-name="uni1E7A" unicode="&#x1e7a;" horiz-adv-x="746" 
d="M145 68q-78 77 -78 226v418h153v-425q0 -85 39.5 -129.5t113.5 -44.5t113 44.5t39 129.5v425h154v-418q0 -148 -78.5 -225.5t-227.5 -77.5q-150 0 -228 77zM215 804v94h315v-94h-315zM207 1080h139v-132h-139v132zM399 1080h139v-132h-139v132z" />
    <glyph glyph-name="uni1E7B" unicode="&#x1e7b;" horiz-adv-x="606" 
d="M545 507v-507h-147v74q-24 -40 -63 -61t-88 -21q-95 0 -142 53t-47 160v302h151v-305q0 -92 79 -92q47 0 76 32t29 84v281h152zM145 626v94h315v-94h-315zM137 932h139v-132h-139v132zM329 932h139v-132h-139v132z" />
    <glyph glyph-name="Wgrave" unicode="&#x1e80;" horiz-adv-x="1126" 
d="M958 712h149l-253 -712h-125l-166 471l-167 -471h-125l-253 712h159l164 -492l172 492h109l168 -499zM516 773l-150 157h140l103 -157h-93z" />
    <glyph glyph-name="wgrave" unicode="&#x1e81;" horiz-adv-x="891" 
d="M744 507h146l-205 -507h-127l-115 294l-110 -294h-128l-205 507h154l122 -327l121 327h103l122 -330zM398 572l-154 206h148l99 -206h-93z" />
    <glyph glyph-name="Wacute" unicode="&#x1e82;" horiz-adv-x="1126" 
d="M958 712h149l-253 -712h-125l-166 471l-167 -471h-125l-253 712h159l164 -492l172 492h109l168 -499zM609 773h-93l103 157h140z" />
    <glyph glyph-name="wacute" unicode="&#x1e83;" horiz-adv-x="891" 
d="M744 507h146l-205 -507h-127l-115 294l-110 -294h-128l-205 507h154l122 -327l121 327h103l122 -330zM491 572h-93l99 206h148z" />
    <glyph glyph-name="Wdieresis" unicode="&#x1e84;" horiz-adv-x="1126" 
d="M958 712h149l-253 -712h-125l-166 471l-167 -471h-125l-253 712h159l164 -492l172 492h109l168 -499zM397 918h139v-132h-139v132zM589 918h139v-132h-139v132z" />
    <glyph glyph-name="wdieresis" unicode="&#x1e85;" horiz-adv-x="891" 
d="M744 507h146l-205 -507h-127l-115 294l-110 -294h-128l-205 507h154l122 -327l121 327h103l122 -330zM279 740h139v-132h-139v132zM471 740h139v-132h-139v132z" />
    <glyph glyph-name="uni1E8E" unicode="&#x1e8e;" horiz-adv-x="642" 
d="M694 712l-295 -436v-276h-156v277l-294 435h177l194 -304l196 304h178zM239 923h161v-142h-161v142z" />
    <glyph glyph-name="uni1E8F" unicode="&#x1e8f;" horiz-adv-x="550" 
d="M561 507l-234 -534q-43 -97 -108.5 -142.5t-160.5 -58.5l-35 116q70 15 105.5 38t55.5 67l15 33l-209 481h158l130 -329l134 329h149zM194 745h161v-142h-161v142z" />
    <glyph glyph-name="uni1E92" unicode="&#x1e92;" horiz-adv-x="615" 
d="M223 123h357v-123h-529v114l343 475h-343v123h518v-113zM236 -68h139v-133h-139v133z" />
    <glyph glyph-name="uni1E93" unicode="&#x1e93;" horiz-adv-x="530" 
d="M225 113h270v-113h-447v106l256 288h-252v113h433v-102zM193 -68h139v-133h-139v133z" />
    <glyph glyph-name="uni1E97" unicode="&#x1e97;" horiz-adv-x="396" 
d="M251 394v-197q0 -42 22 -61.5t57 -19.5q22 0 50 7v-117q-36 -14 -87 -14q-94 0 -143.5 53t-49.5 149v200h-96v113h96v119l151 49v-168h129v-113h-129zM10 862h139v-132h-139v132zM202 862h139v-132h-139v132z" />
    <glyph glyph-name="uni1E9E" unicode="&#x1e9e;" horiz-adv-x="717" 
d="M640 312q39 -46 39 -113q0 -58 -29 -105t-80.5 -73.5t-115.5 -26.5q-59 0 -105 14t-85 44l41 110q78 -52 139 -52q41 0 64 25t23 69q0 50 -31.5 72.5t-103.5 22.5h-101v122h82q51 0 77 22t26 64t-30.5 66t-81.5 24q-70 0 -107 -38t-37 -110v-449h-153v446q0 130 79 201.5
t222 71.5q77 0 134.5 -24.5t88.5 -69.5t31 -105q0 -50 -25 -89t-69 -59q69 -14 108 -60z" />
    <glyph glyph-name="uni1EA0" unicode="&#x1ea0;" horiz-adv-x="759" 
d="M615 0l-68 158h-333l-68 -158h-157l327 712h126l327 -712h-154zM266 277h230l-115 267zM310 -68h139v-133h-139v133z" />
    <glyph glyph-name="uni1EA1" unicode="&#x1ea1;" horiz-adv-x="630" 
d="M569 507v-507h-149v75q-23 -39 -65 -61t-95 -22q-66 0 -116.5 32t-79 91.5t-28.5 137.5t28.5 139t79.5 94.5t116 33.5q53 0 95 -23t65 -62v72h149zM390 145q30 38 30 110t-30 110.5t-86 38.5t-87 -40t-31 -111t30.5 -108.5t87.5 -37.5q56 0 86 38zM245 -68h139v-133h-139
v133z" />
    <glyph glyph-name="uni1EA2" unicode="&#x1ea2;" horiz-adv-x="759" 
d="M615 0l-68 158h-333l-68 -158h-157l327 712h126l327 -712h-154zM266 277h230l-115 267zM416 773h-75v22q0 18 11.5 27t32.5 18l9 4.5t10 6.5t3 6q0 18 -34 18q-25 0 -57 -11l-19 52q45 18 95 18q48 0 78 -18.5t30 -45.5q0 -19 -13 -30.5t-36 -21.5q-18 -9 -26.5 -15.5
t-8.5 -16.5v-13z" />
    <glyph glyph-name="uni1EA3" unicode="&#x1ea3;" horiz-adv-x="630" 
d="M569 507v-507h-149v75q-23 -39 -65 -61t-95 -22q-66 0 -116.5 32t-79 91.5t-28.5 137.5t28.5 139t79.5 94.5t116 33.5q53 0 95 -23t65 -62v72h149zM390 145q30 38 30 110t-30 110.5t-86 38.5t-87 -40t-31 -111t30.5 -108.5t87.5 -37.5q56 0 86 38zM354 572h-76v25
q0 21 10 35t27 28q11 9 16.5 16t5.5 15q0 23 -34 23q-24 0 -50 -9l-20 57q42 19 86 19q55 0 86 -22t31 -54q0 -24 -12.5 -39t-35.5 -31q-17 -12 -25.5 -21.5t-8.5 -21.5v-20z" />
    <glyph glyph-name="uni1EA4" unicode="&#x1ea4;" horiz-adv-x="759" 
d="M615 0l-68 158h-333l-68 -158h-157l327 712h126l327 -712h-154zM266 277h230l-115 267zM547 881h-74l73 142h125zM314 773h-112l133 140h87l133 -140h-112l-64 71z" />
    <glyph glyph-name="uni1EA5" unicode="&#x1ea5;" horiz-adv-x="630" 
d="M569 507v-507h-149v75q-23 -39 -65 -61t-95 -22q-66 0 -116.5 32t-79 91.5t-28.5 137.5t28.5 139t79.5 94.5t116 33.5q53 0 95 -23t65 -62v72h149zM390 145q30 38 30 110t-30 110.5t-86 38.5t-87 -40t-31 -111t30.5 -108.5t87.5 -37.5q56 0 86 38zM483 679h-74l73 142
h125zM250 572h-112l133 139h87l133 -139h-112l-64 71z" />
    <glyph glyph-name="uni1EA6" unicode="&#x1ea6;" horiz-adv-x="759" 
d="M615 0l-68 158h-333l-68 -158h-157l327 712h126l327 -712h-154zM266 277h230l-115 267zM516 881l-123 142h126l71 -142h-74zM314 773h-112l133 140h87l133 -140h-112l-64 71z" />
    <glyph glyph-name="uni1EA7" unicode="&#x1ea7;" horiz-adv-x="630" 
d="M569 507v-507h-149v75q-23 -39 -65 -61t-95 -22q-66 0 -116.5 32t-79 91.5t-28.5 137.5t28.5 139t79.5 94.5t116 33.5q53 0 95 -23t65 -62v72h149zM390 145q30 38 30 110t-30 110.5t-86 38.5t-87 -40t-31 -111t30.5 -108.5t87.5 -37.5q56 0 86 38zM452 679l-123 142h126
l71 -142h-74zM250 572h-112l133 139h87l133 -139h-112l-64 71z" />
    <glyph glyph-name="uni1EA8" unicode="&#x1ea8;" horiz-adv-x="759" 
d="M615 0l-68 158h-333l-68 -158h-157l327 712h126l327 -712h-154zM266 277h230l-115 267zM547 882h-75v19q0 19 13 28.5t35 17.5q18 5 18 10q0 14 -32 14q-27 0 -59 -11l-19 51q45 18 96 18q49 0 78 -17t29 -44q0 -19 -12.5 -29t-36.5 -19q-18 -8 -26.5 -14t-8.5 -16v-8z
M314 773h-112l133 140h87l133 -140h-112l-64 71z" />
    <glyph glyph-name="uni1EA9" unicode="&#x1ea9;" horiz-adv-x="630" 
d="M569 507v-507h-149v75q-23 -39 -65 -61t-95 -22q-66 0 -116.5 32t-79 91.5t-28.5 137.5t28.5 139t79.5 94.5t116 33.5q53 0 95 -23t65 -62v72h149zM390 145q30 38 30 110t-30 110.5t-86 38.5t-87 -40t-31 -111t30.5 -108.5t87.5 -37.5q56 0 86 38zM483 680h-75v20
q0 18 13 27.5t35 17.5q7 3 12.5 5.5t5.5 5.5q0 5 -8 9.5t-24 4.5q-25 0 -59 -12l-19 51q45 18 96 18q49 0 78 -17t29 -44q0 -19 -12.5 -29t-36.5 -19q-18 -8 -26.5 -14t-8.5 -16v-8zM250 572h-112l133 139h87l133 -139h-112l-64 71z" />
    <glyph glyph-name="uni1EAA" unicode="&#x1eaa;" horiz-adv-x="759" 
d="M615 0l-68 158h-333l-68 -158h-157l327 712h126l327 -712h-154zM266 277h230l-115 267zM235 1005.5q32 30.5 77 30.5q18 0 34 -4.5t43 -13.5q15 -6 30 -10.5t27 -4.5q40 0 44 30h64q0 -44 -32 -74.5t-77 -30.5q-19 0 -36.5 5t-40.5 14q-15 6 -30 10.5t-27 4.5
q-40 0 -44 -32h-64q0 45 32 75.5zM314 773h-112l133 140h87l133 -140h-112l-64 71z" />
    <glyph glyph-name="uni1EAB" unicode="&#x1eab;" horiz-adv-x="630" 
d="M569 507v-507h-149v75q-23 -39 -65 -61t-95 -22q-66 0 -116.5 32t-79 91.5t-28.5 137.5t28.5 139t79.5 94.5t116 33.5q53 0 95 -23t65 -62v72h149zM390 145q30 38 30 110t-30 110.5t-86 38.5t-87 -40t-31 -111t30.5 -108.5t87.5 -37.5q56 0 86 38zM171 804.5
q32 30.5 77 30.5q18 0 34 -4.5t43 -13.5q15 -6 30 -10.5t27 -4.5q40 0 44 30h64q0 -45 -32 -75t-77 -30q-31 0 -77 18q-4 1 -22.5 7.5t-34.5 6.5q-40 0 -44 -30h-64q0 45 32 75.5zM250 572h-112l133 139h87l133 -139h-112l-64 71z" />
    <glyph glyph-name="uni1EAC" unicode="&#x1eac;" horiz-adv-x="759" 
d="M615 0l-68 158h-333l-68 -158h-157l327 712h126l327 -712h-154zM266 277h230l-115 267zM310 -68h139v-133h-139v133zM316 773h-114l133 157h87l133 -157h-114l-62 86z" />
    <glyph glyph-name="uni1EAD" unicode="&#x1ead;" horiz-adv-x="630" 
d="M569 507v-507h-149v75q-23 -39 -65 -61t-95 -22q-66 0 -116.5 32t-79 91.5t-28.5 137.5t28.5 139t79.5 94.5t116 33.5q53 0 95 -23t65 -62v72h149zM390 145q30 38 30 110t-30 110.5t-86 38.5t-87 -40t-31 -111t30.5 -108.5t87.5 -37.5q56 0 86 38zM245 -68h139v-133h-139
v133zM256 572h-118l131 206h91l131 -206h-118l-58 117z" />
    <glyph glyph-name="uni1EAE" unicode="&#x1eae;" horiz-adv-x="759" 
d="M615 0l-68 158h-333l-68 -158h-157l327 712h126l327 -712h-154zM266 277h230l-115 267zM423 881h-89l101 142h131zM266 796q-47 28 -67 82l55 23q17 -27 51.5 -42t73.5 -15q38 0 73 15t51 42l55 -23q-20 -54 -67 -82t-112 -28q-66 0 -113 28z" />
    <glyph glyph-name="uni1EAF" unicode="&#x1eaf;" horiz-adv-x="630" 
d="M569 507v-507h-149v75q-23 -39 -65 -61t-95 -22q-66 0 -116.5 32t-79 91.5t-28.5 137.5t28.5 139t79.5 94.5t116 33.5q53 0 95 -23t65 -62v72h149zM390 145q30 38 30 110t-30 110.5t-86 38.5t-87 -40t-31 -111t30.5 -108.5t87.5 -37.5q56 0 86 38zM359 679h-89l101 142
h131zM202 594.5q-47 27.5 -67 81.5l55 23q16 -27 51 -41.5t74 -14.5q38 0 73 14.5t51 41.5l55 -23q-20 -54 -67 -81.5t-112 -27.5q-66 0 -113 27.5z" />
    <glyph glyph-name="uni1EB0" unicode="&#x1eb0;" horiz-adv-x="759" 
d="M615 0l-68 158h-333l-68 -158h-157l327 712h126l327 -712h-154zM266 277h230l-115 267zM334 881l-143 142h131l101 -142h-89zM266 796q-47 28 -67 82l55 23q17 -27 51.5 -42t73.5 -15q38 0 73 15t51 42l55 -23q-20 -54 -67 -82t-112 -28q-66 0 -113 28z" />
    <glyph glyph-name="uni1EB1" unicode="&#x1eb1;" horiz-adv-x="630" 
d="M569 507v-507h-149v75q-23 -39 -65 -61t-95 -22q-66 0 -116.5 32t-79 91.5t-28.5 137.5t28.5 139t79.5 94.5t116 33.5q53 0 95 -23t65 -62v72h149zM390 145q30 38 30 110t-30 110.5t-86 38.5t-87 -40t-31 -111t30.5 -108.5t87.5 -37.5q56 0 86 38zM270 679l-143 142h131
l101 -142h-89zM202 594.5q-47 27.5 -67 81.5l55 23q16 -27 51 -41.5t74 -14.5q38 0 73 14.5t51 41.5l55 -23q-20 -54 -67 -81.5t-112 -27.5q-66 0 -113 27.5z" />
    <glyph glyph-name="uni1EB2" unicode="&#x1eb2;" horiz-adv-x="759" 
d="M615 0l-68 158h-333l-68 -158h-157l327 712h126l327 -712h-154zM266 277h230l-115 267zM416 882h-75v19q0 19 13 28.5t35 17.5q18 5 18 10q0 14 -34 14q-25 0 -57 -11l-19 51q45 18 95 18q49 0 78.5 -17t29.5 -44q0 -19 -12.5 -29t-36.5 -19q-18 -8 -26.5 -14t-8.5 -16
v-8zM266 796q-47 28 -67 82l55 23q17 -27 51.5 -42t73.5 -15q38 0 73 15t51 42l55 -23q-20 -54 -67 -82t-112 -28q-66 0 -113 28z" />
    <glyph glyph-name="uni1EB3" unicode="&#x1eb3;" horiz-adv-x="630" 
d="M569 507v-507h-149v75q-23 -39 -65 -61t-95 -22q-66 0 -116.5 32t-79 91.5t-28.5 137.5t28.5 139t79.5 94.5t116 33.5q53 0 95 -23t65 -62v72h149zM390 145q30 38 30 110t-30 110.5t-86 38.5t-87 -40t-31 -111t30.5 -108.5t87.5 -37.5q56 0 86 38zM352 680h-75v20
q0 18 13 27.5t35 17.5q7 3 12.5 5.5t5.5 5.5q0 5 -8 9.5t-26 4.5q-23 0 -57 -12l-19 51q45 18 95 18q49 0 78.5 -17t29.5 -44q0 -19 -12.5 -29t-36.5 -19q-18 -8 -26.5 -14t-8.5 -16v-8zM202 594.5q-47 27.5 -67 81.5l55 23q16 -27 51 -41.5t74 -14.5q38 0 73 14.5t51 41.5
l55 -23q-20 -54 -67 -81.5t-112 -27.5q-66 0 -113 27.5z" />
    <glyph glyph-name="uni1EB4" unicode="&#x1eb4;" horiz-adv-x="759" 
d="M615 0l-68 158h-333l-68 -158h-157l327 712h126l327 -712h-154zM266 277h230l-115 267zM235 997.5q32 30.5 77 30.5q19 0 36.5 -5t40.5 -14q15 -6 30 -10.5t27 -4.5q40 0 44 31h64q0 -45 -32 -75.5t-77 -30.5q-19 0 -36.5 5t-40.5 14q-15 6 -30 10.5t-27 4.5
q-40 0 -44 -31h-64q0 45 32 75.5zM266 796q-47 28 -67 82l55 23q17 -27 51.5 -42t73.5 -15q38 0 73 15t51 42l55 -23q-20 -54 -67 -82t-112 -28q-66 0 -113 28z" />
    <glyph glyph-name="uni1EB5" unicode="&#x1eb5;" horiz-adv-x="630" 
d="M569 507v-507h-149v75q-23 -39 -65 -61t-95 -22q-66 0 -116.5 32t-79 91.5t-28.5 137.5t28.5 139t79.5 94.5t116 33.5q53 0 95 -23t65 -62v72h149zM390 145q30 38 30 110t-30 110.5t-86 38.5t-87 -40t-31 -111t30.5 -108.5t87.5 -37.5q56 0 86 38zM171 796.5
q32 30.5 77 30.5q19 0 36.5 -5t40.5 -14q15 -6 30 -10.5t27 -4.5q40 0 44 31h64q0 -45 -32 -75.5t-77 -30.5q-18 0 -34 4.5t-43 13.5q-15 6 -30 10.5t-27 4.5q-40 0 -44 -30h-64q0 45 32 75.5zM202 594.5q-47 27.5 -67 81.5l55 23q16 -27 51 -41.5t74 -14.5q38 0 73 14.5
t51 41.5l55 -23q-20 -54 -67 -81.5t-112 -27.5q-66 0 -113 27.5z" />
    <glyph glyph-name="uni1EB6" unicode="&#x1eb6;" horiz-adv-x="759" 
d="M615 0l-68 158h-333l-68 -158h-157l327 712h126l327 -712h-154zM266 277h230l-115 267zM310 -68h139v-133h-139v133zM266 810q-47 28 -67 82l70 29q32 -49 110 -49q77 0 109 49l70 -29q-20 -54 -67 -82t-112 -28q-66 0 -113 28z" />
    <glyph glyph-name="uni1EB7" unicode="&#x1eb7;" horiz-adv-x="630" 
d="M569 507v-507h-149v75q-23 -39 -65 -61t-95 -22q-66 0 -116.5 32t-79 91.5t-28.5 137.5t28.5 139t79.5 94.5t116 33.5q53 0 95 -23t65 -62v72h149zM390 145q30 38 30 110t-30 110.5t-86 38.5t-87 -40t-31 -111t30.5 -108.5t87.5 -37.5q56 0 86 38zM245 -68h139v-133h-139
v133zM197 631q-52 37 -69 109l69 30q44 -81 118 -81q73 0 117 81l69 -30q-17 -71 -68.5 -108.5t-117.5 -37.5t-118 37z" />
    <glyph glyph-name="uni1EB8" unicode="&#x1eb8;" horiz-adv-x="599" 
d="M71 0v712h491v-121h-339v-168h318v-122h-318v-180h339v-121h-491zM263 -68h139v-133h-139v133z" />
    <glyph glyph-name="uni1EB9" unicode="&#x1eb9;" horiz-adv-x="550" 
d="M516 241h-334q4 -71 37 -103.5t98 -32.5q39 0 78 13t72 38l40 -102q-36 -29 -89.5 -45.5t-107.5 -16.5q-128 0 -201 70.5t-73 192.5q0 77 31.5 137.5t88.5 94t129 33.5q107 0 169 -69.5t62 -187.5v-22zM219.5 389q-26.5 -25 -34.5 -73h201q-12 98 -97 98q-43 0 -69.5 -25
zM236 -68h139v-133h-139v133z" />
    <glyph glyph-name="uni1EBA" unicode="&#x1eba;" horiz-adv-x="599" 
d="M71 0v712h491v-121h-339v-168h318v-122h-318v-180h339v-121h-491zM370 773h-75v22q0 18 11.5 27t32.5 18l9 4.5t10 6.5t3 6q0 18 -34 18q-25 0 -57 -11l-19 52q45 18 95 18q48 0 78 -18.5t30 -45.5q0 -19 -13 -30.5t-36 -21.5q-18 -9 -26.5 -15.5t-8.5 -16.5v-13z" />
    <glyph glyph-name="uni1EBB" unicode="&#x1ebb;" horiz-adv-x="550" 
d="M516 241h-334q4 -71 37 -103.5t98 -32.5q39 0 78 13t72 38l40 -102q-36 -29 -89.5 -45.5t-107.5 -16.5q-128 0 -201 70.5t-73 192.5q0 77 31.5 137.5t88.5 94t129 33.5q107 0 169 -69.5t62 -187.5v-22zM219.5 389q-26.5 -25 -34.5 -73h201q-12 98 -97 98q-43 0 -69.5 -25
zM324 572h-76v25q0 21 10 35t27 28q11 9 16.5 16t5.5 15q0 23 -34 23q-24 0 -50 -9l-20 57q42 19 86 19q55 0 86 -22t31 -54q0 -24 -12.5 -39t-35.5 -31q-17 -12 -25.5 -21.5t-8.5 -21.5v-20z" />
    <glyph glyph-name="uni1EBC" unicode="&#x1ebc;" horiz-adv-x="599" 
d="M71 0v712h491v-121h-339v-168h318v-122h-318v-180h339v-121h-491zM187.5 890q30.5 37 78.5 37q19 0 37.5 -8t39.5 -22q22 -12 33.5 -17.5t23.5 -5.5q19 0 30.5 13.5t13.5 36.5h64q0 -73 -30.5 -110t-78.5 -37q-19 0 -37.5 8t-39.5 22q-22 12 -33.5 17.5t-23.5 5.5
q-19 0 -30.5 -13.5t-13.5 -36.5h-64q0 73 30.5 110z" />
    <glyph glyph-name="uni1EBD" unicode="&#x1ebd;" horiz-adv-x="550" 
d="M516 241h-334q4 -71 37 -103.5t98 -32.5q39 0 78 13t72 38l40 -102q-36 -29 -89.5 -45.5t-107.5 -16.5q-128 0 -201 70.5t-73 192.5q0 77 31.5 137.5t88.5 94t129 33.5q107 0 169 -69.5t62 -187.5v-22zM219.5 389q-26.5 -25 -34.5 -73h201q-12 98 -97 98q-43 0 -69.5 -25
zM139.5 713.5q30.5 36.5 78.5 36.5q19 0 36.5 -7.5t40.5 -21.5q22 -12 33.5 -17.5t23.5 -5.5q19 0 30.5 13t13.5 36h64q0 -72 -30.5 -109t-78.5 -37q-19 0 -36.5 7.5t-40.5 21.5q-22 12 -33.5 17.5t-23.5 5.5q-19 0 -30.5 -13t-13.5 -36h-64q0 73 30.5 109.5z" />
    <glyph glyph-name="uni1EBE" unicode="&#x1ebe;" horiz-adv-x="599" 
d="M71 0v712h491v-121h-339v-168h318v-122h-318v-180h339v-121h-491zM501 881h-74l73 142h125zM268 773h-112l133 140h87l133 -140h-112l-64 71z" />
    <glyph glyph-name="uni1EBF" unicode="&#x1ebf;" horiz-adv-x="550" 
d="M516 241h-334q4 -71 37 -103.5t98 -32.5q39 0 78 13t72 38l40 -102q-36 -29 -89.5 -45.5t-107.5 -16.5q-128 0 -201 70.5t-73 192.5q0 77 31.5 137.5t88.5 94t129 33.5q107 0 169 -69.5t62 -187.5v-22zM219.5 389q-26.5 -25 -34.5 -73h201q-12 98 -97 98q-43 0 -69.5 -25
zM453 679h-74l73 142h125zM220 572h-112l133 139h87l133 -139h-112l-64 71z" />
    <glyph glyph-name="uni1EC0" unicode="&#x1ec0;" horiz-adv-x="599" 
d="M71 0v712h491v-121h-339v-168h318v-122h-318v-180h339v-121h-491zM470 881l-123 142h126l71 -142h-74zM268 773h-112l133 140h87l133 -140h-112l-64 71z" />
    <glyph glyph-name="uni1EC1" unicode="&#x1ec1;" horiz-adv-x="550" 
d="M516 241h-334q4 -71 37 -103.5t98 -32.5q39 0 78 13t72 38l40 -102q-36 -29 -89.5 -45.5t-107.5 -16.5q-128 0 -201 70.5t-73 192.5q0 77 31.5 137.5t88.5 94t129 33.5q107 0 169 -69.5t62 -187.5v-22zM219.5 389q-26.5 -25 -34.5 -73h201q-12 98 -97 98q-43 0 -69.5 -25
zM422 679l-123 142h126l71 -142h-74zM220 572h-112l133 139h87l133 -139h-112l-64 71z" />
    <glyph glyph-name="uni1EC2" unicode="&#x1ec2;" horiz-adv-x="599" 
d="M71 0v712h491v-121h-339v-168h318v-122h-318v-180h339v-121h-491zM501 882h-75v19q0 19 13 28.5t35 17.5q18 5 18 10q0 14 -32 14q-27 0 -59 -11l-19 51q45 18 96 18q49 0 78 -17t29 -44q0 -19 -12.5 -29t-36.5 -19q-18 -8 -26.5 -14t-8.5 -16v-8zM268 773h-112l133 140
h87l133 -140h-112l-64 71z" />
    <glyph glyph-name="uni1EC3" unicode="&#x1ec3;" horiz-adv-x="550" 
d="M516 241h-334q4 -71 37 -103.5t98 -32.5q39 0 78 13t72 38l40 -102q-36 -29 -89.5 -45.5t-107.5 -16.5q-128 0 -201 70.5t-73 192.5q0 77 31.5 137.5t88.5 94t129 33.5q107 0 169 -69.5t62 -187.5v-22zM219.5 389q-26.5 -25 -34.5 -73h201q-12 98 -97 98q-43 0 -69.5 -25
zM453 680h-75v20q0 18 13 27.5t35 17.5q7 3 12.5 5.5t5.5 5.5q0 5 -8 9.5t-24 4.5q-25 0 -59 -12l-19 51q45 18 96 18q49 0 78 -17t29 -44q0 -19 -12.5 -29t-36.5 -19q-18 -8 -26.5 -14t-8.5 -16v-8zM220 572h-112l133 139h87l133 -139h-112l-64 71z" />
    <glyph glyph-name="uni1EC4" unicode="&#x1ec4;" horiz-adv-x="599" 
d="M71 0v712h491v-121h-339v-168h318v-122h-318v-180h339v-121h-491zM189 1005.5q32 30.5 77 30.5q18 0 34 -4.5t43 -13.5q15 -6 30 -10.5t27 -4.5q40 0 44 30h64q0 -44 -32 -74.5t-77 -30.5q-19 0 -36.5 5t-40.5 14q-15 6 -30 10.5t-27 4.5q-40 0 -44 -32h-64q0 45 32 75.5
zM268 773h-112l133 140h87l133 -140h-112l-64 71z" />
    <glyph glyph-name="uni1EC5" unicode="&#x1ec5;" horiz-adv-x="550" 
d="M516 241h-334q4 -71 37 -103.5t98 -32.5q39 0 78 13t72 38l40 -102q-36 -29 -89.5 -45.5t-107.5 -16.5q-128 0 -201 70.5t-73 192.5q0 77 31.5 137.5t88.5 94t129 33.5q107 0 169 -69.5t62 -187.5v-22zM219.5 389q-26.5 -25 -34.5 -73h201q-12 98 -97 98q-43 0 -69.5 -25
zM141 804.5q32 30.5 77 30.5q18 0 34 -4.5t43 -13.5q15 -6 30 -10.5t27 -4.5q40 0 44 30h64q0 -45 -32 -75t-77 -30q-31 0 -77 18q-4 1 -22.5 7.5t-34.5 6.5q-40 0 -44 -30h-64q0 45 32 75.5zM220 572h-112l133 139h87l133 -139h-112l-64 71z" />
    <glyph glyph-name="uni1EC6" unicode="&#x1ec6;" horiz-adv-x="599" 
d="M71 0v712h491v-121h-339v-168h318v-122h-318v-180h339v-121h-491zM263 -68h139v-133h-139v133zM270 773h-114l133 157h87l133 -157h-114l-62 86z" />
    <glyph glyph-name="uni1EC7" unicode="&#x1ec7;" horiz-adv-x="550" 
d="M516 241h-334q4 -71 37 -103.5t98 -32.5q39 0 78 13t72 38l40 -102q-36 -29 -89.5 -45.5t-107.5 -16.5q-128 0 -201 70.5t-73 192.5q0 77 31.5 137.5t88.5 94t129 33.5q107 0 169 -69.5t62 -187.5v-22zM219.5 389q-26.5 -25 -34.5 -73h201q-12 98 -97 98q-43 0 -69.5 -25
zM236 -68h139v-133h-139v133zM226 572h-118l131 206h91l131 -206h-118l-58 117z" />
    <glyph glyph-name="uni1EC8" unicode="&#x1ec8;" horiz-adv-x="299" 
d="M71 0v712h156v-712h-156zM185 773h-75v22q0 18 11.5 27t32.5 18l9 4.5t10 6.5t3 6q0 18 -34 18q-25 0 -57 -11l-19 52q45 18 95 18q48 0 78 -18.5t30 -45.5q0 -19 -13 -30.5t-36 -21.5q-18 -9 -26.5 -15.5t-8.5 -16.5v-13z" />
    <glyph glyph-name="uni1EC9" unicode="&#x1ec9;" horiz-adv-x="274" 
d="M61 0v507h151v-507h-151zM176 572h-76v25q0 21 10 35t27 28q11 9 16.5 16t5.5 15q0 23 -34 23q-24 0 -50 -9l-20 57q42 19 86 19q55 0 86 -22t31 -54q0 -24 -12.5 -39t-35.5 -31q-17 -12 -25.5 -21.5t-8.5 -21.5v-20z" />
    <glyph glyph-name="uni1ECA" unicode="&#x1eca;" horiz-adv-x="299" 
d="M71 0v712h156v-712h-156zM78 -68h139v-133h-139v133z" />
    <glyph glyph-name="uni1ECB" unicode="&#x1ecb;" horiz-adv-x="274" 
d="M61 0v507h151v-507h-151zM56 745h161v-142h-161v142zM66 -68h139v-133h-139v133z" />
    <glyph glyph-name="uni1ECC" unicode="&#x1ecc;" horiz-adv-x="795" 
d="M213.5 35.5q-78.5 44.5 -121 127.5t-42.5 194t42.5 193t121 126.5t184.5 44.5t184 -44.5t120 -126.5t42 -193t-42 -194t-120 -127.5t-184 -44.5t-184.5 44.5zM538.5 176q50.5 63 50.5 181t-50.5 180t-140.5 62t-140.5 -62t-50.5 -180q0 -119 50.5 -181.5t140.5 -62.5
t140.5 63zM328 -68h139v-133h-139v133z" />
    <glyph glyph-name="uni1ECD" unicode="&#x1ecd;" horiz-adv-x="604" 
d="M161.5 24q-60.5 32 -93 92t-32.5 140t32.5 140t93 92t141.5 32q80 0 140 -32t92.5 -92t32.5 -140t-32.5 -140t-92.5 -92t-140 -32q-81 0 -141.5 32zM388.5 144q29.5 37 29.5 112q0 74 -29.5 111.5t-85.5 37.5q-57 0 -87 -37.5t-30 -111.5q0 -149 117 -149q56 0 85.5 37z
M233 -68h139v-133h-139v133z" />
    <glyph glyph-name="uni1ECE" unicode="&#x1ece;" horiz-adv-x="795" 
d="M213.5 35.5q-78.5 44.5 -121 127.5t-42.5 194t42.5 193t121 126.5t184.5 44.5t184 -44.5t120 -126.5t42 -193t-42 -194t-120 -127.5t-184 -44.5t-184.5 44.5zM538.5 176q50.5 63 50.5 181t-50.5 180t-140.5 62t-140.5 -62t-50.5 -180q0 -119 50.5 -181.5t140.5 -62.5
t140.5 63zM434 773h-75v22q0 18 11.5 27t32.5 18l9 4.5t10 6.5t3 6q0 18 -34 18q-25 0 -57 -11l-19 52q45 18 95 18q48 0 78 -18.5t30 -45.5q0 -19 -13 -30.5t-36 -21.5q-18 -9 -26.5 -15.5t-8.5 -16.5v-13z" />
    <glyph glyph-name="uni1ECF" unicode="&#x1ecf;" horiz-adv-x="604" 
d="M161.5 24q-60.5 32 -93 92t-32.5 140t32.5 140t93 92t141.5 32q80 0 140 -32t92.5 -92t32.5 -140t-32.5 -140t-92.5 -92t-140 -32q-81 0 -141.5 32zM388.5 144q29.5 37 29.5 112q0 74 -29.5 111.5t-85.5 37.5q-57 0 -87 -37.5t-30 -111.5q0 -149 117 -149q56 0 85.5 37z
M342 572h-76v25q0 21 10 35t27 28q11 9 16.5 16t5.5 15q0 23 -34 23q-24 0 -50 -9l-20 57q42 19 86 19q55 0 86 -22t31 -54q0 -24 -12.5 -39t-35.5 -31q-17 -12 -25.5 -21.5t-8.5 -21.5v-20z" />
    <glyph glyph-name="uni1ED0" unicode="&#x1ed0;" horiz-adv-x="795" 
d="M213.5 35.5q-78.5 44.5 -121 127.5t-42.5 194t42.5 193t121 126.5t184.5 44.5t184 -44.5t120 -126.5t42 -193t-42 -194t-120 -127.5t-184 -44.5t-184.5 44.5zM538.5 176q50.5 63 50.5 181t-50.5 180t-140.5 62t-140.5 -62t-50.5 -180q0 -119 50.5 -181.5t140.5 -62.5
t140.5 63zM565 881h-74l73 142h125zM332 773h-112l133 140h87l133 -140h-112l-64 71z" />
    <glyph glyph-name="uni1ED1" unicode="&#x1ed1;" horiz-adv-x="604" 
d="M161.5 24q-60.5 32 -93 92t-32.5 140t32.5 140t93 92t141.5 32q80 0 140 -32t92.5 -92t32.5 -140t-32.5 -140t-92.5 -92t-140 -32q-81 0 -141.5 32zM388.5 144q29.5 37 29.5 112q0 74 -29.5 111.5t-85.5 37.5q-57 0 -87 -37.5t-30 -111.5q0 -149 117 -149q56 0 85.5 37z
M471 679h-74l73 142h125zM238 572h-112l133 139h87l133 -139h-112l-64 71z" />
    <glyph glyph-name="uni1ED2" unicode="&#x1ed2;" horiz-adv-x="795" 
d="M213.5 35.5q-78.5 44.5 -121 127.5t-42.5 194t42.5 193t121 126.5t184.5 44.5t184 -44.5t120 -126.5t42 -193t-42 -194t-120 -127.5t-184 -44.5t-184.5 44.5zM538.5 176q50.5 63 50.5 181t-50.5 180t-140.5 62t-140.5 -62t-50.5 -180q0 -119 50.5 -181.5t140.5 -62.5
t140.5 63zM534 881l-123 142h126l71 -142h-74zM332 773h-112l133 140h87l133 -140h-112l-64 71z" />
    <glyph glyph-name="uni1ED3" unicode="&#x1ed3;" horiz-adv-x="604" 
d="M161.5 24q-60.5 32 -93 92t-32.5 140t32.5 140t93 92t141.5 32q80 0 140 -32t92.5 -92t32.5 -140t-32.5 -140t-92.5 -92t-140 -32q-81 0 -141.5 32zM388.5 144q29.5 37 29.5 112q0 74 -29.5 111.5t-85.5 37.5q-57 0 -87 -37.5t-30 -111.5q0 -149 117 -149q56 0 85.5 37z
M440 679l-123 142h126l71 -142h-74zM238 572h-112l133 139h87l133 -139h-112l-64 71z" />
    <glyph glyph-name="uni1ED4" unicode="&#x1ed4;" horiz-adv-x="795" 
d="M213.5 35.5q-78.5 44.5 -121 127.5t-42.5 194t42.5 193t121 126.5t184.5 44.5t184 -44.5t120 -126.5t42 -193t-42 -194t-120 -127.5t-184 -44.5t-184.5 44.5zM538.5 176q50.5 63 50.5 181t-50.5 180t-140.5 62t-140.5 -62t-50.5 -180q0 -119 50.5 -181.5t140.5 -62.5
t140.5 63zM565 882h-75v19q0 19 13 28.5t35 17.5q18 5 18 10q0 14 -32 14q-27 0 -59 -11l-19 51q45 18 96 18q49 0 78 -17t29 -44q0 -19 -12.5 -29t-36.5 -19q-18 -8 -26.5 -14t-8.5 -16v-8zM332 773h-112l133 140h87l133 -140h-112l-64 71z" />
    <glyph glyph-name="uni1ED5" unicode="&#x1ed5;" horiz-adv-x="604" 
d="M161.5 24q-60.5 32 -93 92t-32.5 140t32.5 140t93 92t141.5 32q80 0 140 -32t92.5 -92t32.5 -140t-32.5 -140t-92.5 -92t-140 -32q-81 0 -141.5 32zM388.5 144q29.5 37 29.5 112q0 74 -29.5 111.5t-85.5 37.5q-57 0 -87 -37.5t-30 -111.5q0 -149 117 -149q56 0 85.5 37z
M471 680h-75v20q0 18 13 27.5t35 17.5q7 3 12.5 5.5t5.5 5.5q0 5 -8 9.5t-24 4.5q-25 0 -59 -12l-19 51q45 18 96 18q49 0 78 -17t29 -44q0 -19 -12.5 -29t-36.5 -19q-18 -8 -26.5 -14t-8.5 -16v-8zM238 572h-112l133 139h87l133 -139h-112l-64 71z" />
    <glyph glyph-name="uni1ED6" unicode="&#x1ed6;" horiz-adv-x="795" 
d="M213.5 35.5q-78.5 44.5 -121 127.5t-42.5 194t42.5 193t121 126.5t184.5 44.5t184 -44.5t120 -126.5t42 -193t-42 -194t-120 -127.5t-184 -44.5t-184.5 44.5zM538.5 176q50.5 63 50.5 181t-50.5 180t-140.5 62t-140.5 -62t-50.5 -180q0 -119 50.5 -181.5t140.5 -62.5
t140.5 63zM253 1005.5q32 30.5 77 30.5q18 0 34 -4.5t43 -13.5q15 -6 30 -10.5t27 -4.5q40 0 44 30h64q0 -44 -32 -74.5t-77 -30.5q-19 0 -36.5 5t-40.5 14q-15 6 -30 10.5t-27 4.5q-40 0 -44 -32h-64q0 45 32 75.5zM332 773h-112l133 140h87l133 -140h-112l-64 71z" />
    <glyph glyph-name="uni1ED7" unicode="&#x1ed7;" horiz-adv-x="604" 
d="M161.5 24q-60.5 32 -93 92t-32.5 140t32.5 140t93 92t141.5 32q80 0 140 -32t92.5 -92t32.5 -140t-32.5 -140t-92.5 -92t-140 -32q-81 0 -141.5 32zM388.5 144q29.5 37 29.5 112q0 74 -29.5 111.5t-85.5 37.5q-57 0 -87 -37.5t-30 -111.5q0 -149 117 -149q56 0 85.5 37z
M159 804.5q32 30.5 77 30.5q18 0 34 -4.5t43 -13.5q15 -6 30 -10.5t27 -4.5q40 0 44 30h64q0 -45 -32 -75t-77 -30q-31 0 -77 18q-4 1 -22.5 7.5t-34.5 6.5q-40 0 -44 -30h-64q0 45 32 75.5zM238 572h-112l133 139h87l133 -139h-112l-64 71z" />
    <glyph glyph-name="uni1ED8" unicode="&#x1ed8;" horiz-adv-x="795" 
d="M213.5 35.5q-78.5 44.5 -121 127.5t-42.5 194t42.5 193t121 126.5t184.5 44.5t184 -44.5t120 -126.5t42 -193t-42 -194t-120 -127.5t-184 -44.5t-184.5 44.5zM538.5 176q50.5 63 50.5 181t-50.5 180t-140.5 62t-140.5 -62t-50.5 -180q0 -119 50.5 -181.5t140.5 -62.5
t140.5 63zM328 -68h139v-133h-139v133zM334 773h-114l133 157h87l133 -157h-114l-62 86z" />
    <glyph glyph-name="uni1ED9" unicode="&#x1ed9;" horiz-adv-x="604" 
d="M161.5 24q-60.5 32 -93 92t-32.5 140t32.5 140t93 92t141.5 32q80 0 140 -32t92.5 -92t32.5 -140t-32.5 -140t-92.5 -92t-140 -32q-81 0 -141.5 32zM388.5 144q29.5 37 29.5 112q0 74 -29.5 111.5t-85.5 37.5q-57 0 -87 -37.5t-30 -111.5q0 -149 117 -149q56 0 85.5 37z
M233 -68h139v-133h-139v133zM244 572h-118l131 206h91l131 -206h-118l-58 117z" />
    <glyph glyph-name="uni1EDA" unicode="&#x1eda;" horiz-adv-x="795" 
d="M712.5 695.5q-31.5 -41.5 -83.5 -53.5q57 -47 86 -119.5t29 -165.5q0 -111 -42 -194t-120 -127.5t-184 -44.5t-184.5 44.5t-121 127.5t-42.5 194t42.5 193t121.5 126.5t186 44.5q32 0 65 -5q40 -4 60 -4q49 0 69 23t20 80v19h130v-38q0 -59 -31.5 -100.5zM538.5 176
q50.5 63 50.5 181t-50.5 180t-140.5 62t-140.5 -62t-50.5 -180q0 -119 50.5 -181.5t140.5 -62.5t140.5 63zM443 773h-93l103 157h140z" />
    <glyph glyph-name="uni1EDB" unicode="&#x1edb;" horiz-adv-x="604" 
d="M566 504q-26 -40 -71 -57q36 -34 54.5 -83.5t18.5 -108.5q0 -80 -32.5 -139.5t-92.5 -91.5t-140 -32q-81 0 -141.5 32t-93 91.5t-32.5 139.5q0 81 32.5 140.5t92.5 92t139 32.5q24 0 60 -6q17 -3 25 -3q36 0 57 22.5t21 82.5v20h129v-38q0 -54 -26 -94zM388.5 144
q29.5 37 29.5 112q0 74 -29.5 111.5t-85.5 37.5q-57 0 -87 -37.5t-30 -111.5q0 -149 117 -149q56 0 85.5 37zM349 572h-93l99 206h148z" />
    <glyph glyph-name="uni1EDC" unicode="&#x1edc;" horiz-adv-x="795" 
d="M712.5 695.5q-31.5 -41.5 -83.5 -53.5q57 -47 86 -119.5t29 -165.5q0 -111 -42 -194t-120 -127.5t-184 -44.5t-184.5 44.5t-121 127.5t-42.5 194t42.5 193t121.5 126.5t186 44.5q32 0 65 -5q40 -4 60 -4q49 0 69 23t20 80v19h130v-38q0 -59 -31.5 -100.5zM538.5 176
q50.5 63 50.5 181t-50.5 180t-140.5 62t-140.5 -62t-50.5 -180q0 -119 50.5 -181.5t140.5 -62.5t140.5 63zM350 773l-150 157h140l103 -157h-93z" />
    <glyph glyph-name="uni1EDD" unicode="&#x1edd;" horiz-adv-x="604" 
d="M566 504q-26 -40 -71 -57q36 -34 54.5 -83.5t18.5 -108.5q0 -80 -32.5 -139.5t-92.5 -91.5t-140 -32q-81 0 -141.5 32t-93 91.5t-32.5 139.5q0 81 32.5 140.5t92.5 92t139 32.5q24 0 60 -6q17 -3 25 -3q36 0 57 22.5t21 82.5v20h129v-38q0 -54 -26 -94zM388.5 144
q29.5 37 29.5 112q0 74 -29.5 111.5t-85.5 37.5q-57 0 -87 -37.5t-30 -111.5q0 -149 117 -149q56 0 85.5 37zM256 572l-154 206h148l99 -206h-93z" />
    <glyph glyph-name="uni1EDE" unicode="&#x1ede;" horiz-adv-x="795" 
d="M712.5 695.5q-31.5 -41.5 -83.5 -53.5q57 -47 86 -119.5t29 -165.5q0 -111 -42 -194t-120 -127.5t-184 -44.5t-184.5 44.5t-121 127.5t-42.5 194t42.5 193t121.5 126.5t186 44.5q32 0 65 -5q40 -4 60 -4q49 0 69 23t20 80v19h130v-38q0 -59 -31.5 -100.5zM538.5 176
q50.5 63 50.5 181t-50.5 180t-140.5 62t-140.5 -62t-50.5 -180q0 -119 50.5 -181.5t140.5 -62.5t140.5 63zM434 773h-75v22q0 18 11.5 27t32.5 18l9 4.5t10 6.5t3 6q0 18 -34 18q-25 0 -57 -11l-19 52q45 18 95 18q48 0 78 -18.5t30 -45.5q0 -19 -13 -30.5t-36 -21.5
q-18 -9 -26.5 -15.5t-8.5 -16.5v-13z" />
    <glyph glyph-name="uni1EDF" unicode="&#x1edf;" horiz-adv-x="604" 
d="M566 504q-26 -40 -71 -57q36 -34 54.5 -83.5t18.5 -108.5q0 -80 -32.5 -139.5t-92.5 -91.5t-140 -32q-81 0 -141.5 32t-93 91.5t-32.5 139.5q0 81 32.5 140.5t92.5 92t139 32.5q24 0 60 -6q17 -3 25 -3q36 0 57 22.5t21 82.5v20h129v-38q0 -54 -26 -94zM388.5 144
q29.5 37 29.5 112q0 74 -29.5 111.5t-85.5 37.5q-57 0 -87 -37.5t-30 -111.5q0 -149 117 -149q56 0 85.5 37zM342 572h-76v25q0 21 10 35t27 28q11 9 16.5 16t5.5 15q0 23 -34 23q-24 0 -50 -9l-20 57q42 19 86 19q55 0 86 -22t31 -54q0 -24 -12.5 -39t-35.5 -31
q-17 -12 -25.5 -21.5t-8.5 -21.5v-20z" />
    <glyph glyph-name="uni1EE0" unicode="&#x1ee0;" horiz-adv-x="795" 
d="M712.5 695.5q-31.5 -41.5 -83.5 -53.5q57 -47 86 -119.5t29 -165.5q0 -111 -42 -194t-120 -127.5t-184 -44.5t-184.5 44.5t-121 127.5t-42.5 194t42.5 193t121.5 126.5t186 44.5q32 0 65 -5q40 -4 60 -4q49 0 69 23t20 80v19h130v-38q0 -59 -31.5 -100.5zM538.5 176
q50.5 63 50.5 181t-50.5 180t-140.5 62t-140.5 -62t-50.5 -180q0 -119 50.5 -181.5t140.5 -62.5t140.5 63zM251.5 890q30.5 37 78.5 37q19 0 37.5 -8t39.5 -22q22 -12 33.5 -17.5t23.5 -5.5q19 0 30.5 13.5t13.5 36.5h64q0 -73 -30.5 -110t-78.5 -37q-19 0 -37.5 8t-39.5 22
q-22 12 -33.5 17.5t-23.5 5.5q-19 0 -30.5 -13.5t-13.5 -36.5h-64q0 73 30.5 110z" />
    <glyph glyph-name="uni1EE1" unicode="&#x1ee1;" horiz-adv-x="604" 
d="M566 504q-26 -40 -71 -57q36 -34 54.5 -83.5t18.5 -108.5q0 -80 -32.5 -139.5t-92.5 -91.5t-140 -32q-81 0 -141.5 32t-93 91.5t-32.5 139.5q0 81 32.5 140.5t92.5 92t139 32.5q24 0 60 -6q17 -3 25 -3q36 0 57 22.5t21 82.5v20h129v-38q0 -54 -26 -94zM388.5 144
q29.5 37 29.5 112q0 74 -29.5 111.5t-85.5 37.5q-57 0 -87 -37.5t-30 -111.5q0 -149 117 -149q56 0 85.5 37zM157.5 713.5q30.5 36.5 78.5 36.5q19 0 36.5 -7.5t40.5 -21.5q22 -12 33.5 -17.5t23.5 -5.5q19 0 30.5 13t13.5 36h64q0 -72 -30.5 -109t-78.5 -37
q-19 0 -36.5 7.5t-40.5 21.5q-22 12 -33.5 17.5t-23.5 5.5q-19 0 -30.5 -13t-13.5 -36h-64q0 73 30.5 109.5z" />
    <glyph glyph-name="uni1EE2" unicode="&#x1ee2;" horiz-adv-x="795" 
d="M712.5 695.5q-31.5 -41.5 -83.5 -53.5q57 -47 86 -119.5t29 -165.5q0 -111 -42 -194t-120 -127.5t-184 -44.5t-184.5 44.5t-121 127.5t-42.5 194t42.5 193t121.5 126.5t186 44.5q32 0 65 -5q40 -4 60 -4q49 0 69 23t20 80v19h130v-38q0 -59 -31.5 -100.5zM538.5 176
q50.5 63 50.5 181t-50.5 180t-140.5 62t-140.5 -62t-50.5 -180q0 -119 50.5 -181.5t140.5 -62.5t140.5 63zM328 -68h139v-133h-139v133z" />
    <glyph glyph-name="uni1EE3" unicode="&#x1ee3;" horiz-adv-x="604" 
d="M566 504q-26 -40 -71 -57q36 -34 54.5 -83.5t18.5 -108.5q0 -80 -32.5 -139.5t-92.5 -91.5t-140 -32q-81 0 -141.5 32t-93 91.5t-32.5 139.5q0 81 32.5 140.5t92.5 92t139 32.5q24 0 60 -6q17 -3 25 -3q36 0 57 22.5t21 82.5v20h129v-38q0 -54 -26 -94zM388.5 144
q29.5 37 29.5 112q0 74 -29.5 111.5t-85.5 37.5q-57 0 -87 -37.5t-30 -111.5q0 -149 117 -149q56 0 85.5 37zM233 -68h139v-133h-139v133z" />
    <glyph glyph-name="uni1EE4" unicode="&#x1ee4;" horiz-adv-x="746" 
d="M145 68q-78 77 -78 226v418h153v-425q0 -85 39.5 -129.5t113.5 -44.5t113 44.5t39 129.5v425h154v-418q0 -148 -78.5 -225.5t-227.5 -77.5q-150 0 -228 77zM303 -68h139v-133h-139v133z" />
    <glyph glyph-name="uni1EE5" unicode="&#x1ee5;" horiz-adv-x="606" 
d="M545 507v-507h-147v74q-24 -40 -63 -61t-88 -21q-95 0 -142 53t-47 160v302h151v-305q0 -92 79 -92q47 0 76 32t29 84v281h152zM233 -68h139v-133h-139v133z" />
    <glyph glyph-name="uni1EE6" unicode="&#x1ee6;" horiz-adv-x="746" 
d="M145 68q-78 77 -78 226v418h153v-425q0 -85 39.5 -129.5t113.5 -44.5t113 44.5t39 129.5v425h154v-418q0 -148 -78.5 -225.5t-227.5 -77.5q-150 0 -228 77zM410 773h-75v22q0 18 11.5 27t32.5 18l9 4.5t10 6.5t3 6q0 18 -34 18q-25 0 -57 -11l-19 52q45 18 95 18
q48 0 78 -18.5t30 -45.5q0 -19 -13 -30.5t-36 -21.5q-18 -9 -26.5 -15.5t-8.5 -16.5v-13z" />
    <glyph glyph-name="uni1EE7" unicode="&#x1ee7;" horiz-adv-x="606" 
d="M545 507v-507h-147v74q-24 -40 -63 -61t-88 -21q-95 0 -142 53t-47 160v302h151v-305q0 -92 79 -92q47 0 76 32t29 84v281h152zM342 572h-76v25q0 21 10 35t27 28q11 9 16.5 16t5.5 15q0 23 -34 23q-24 0 -50 -9l-20 57q42 19 86 19q55 0 86 -22t31 -54q0 -24 -12.5 -39
t-35.5 -31q-17 -12 -25.5 -21.5t-8.5 -21.5v-20z" />
    <glyph glyph-name="uni1EE8" unicode="&#x1ee8;" horiz-adv-x="746" 
d="M793 834v-38q0 -57 -31 -98t-83 -54v-350q0 -148 -78.5 -225.5t-227.5 -77.5q-150 0 -228 77t-78 226v418h153v-425q0 -85 39.5 -129.5t113.5 -44.5t113 44.5t39 129.5v425h46q51 0 71.5 23t20.5 80v19h130zM419 773h-93l103 157h140z" />
    <glyph glyph-name="uni1EE9" unicode="&#x1ee9;" horiz-adv-x="631" 
d="M661 636v-38q0 -60 -31.5 -102t-84.5 -55v-441h-147v74q-24 -40 -63 -61t-88 -21q-95 0 -142 53t-47 160v302h151v-305q0 -92 79 -92q47 0 76 32t29 84v281h43q52 0 73.5 24.5t21.5 84.5v20h130zM349 572h-93l99 206h148z" />
    <glyph glyph-name="uni1EEA" unicode="&#x1eea;" horiz-adv-x="746" 
d="M793 834v-38q0 -57 -31 -98t-83 -54v-350q0 -148 -78.5 -225.5t-227.5 -77.5q-150 0 -228 77t-78 226v418h153v-425q0 -85 39.5 -129.5t113.5 -44.5t113 44.5t39 129.5v425h46q51 0 71.5 23t20.5 80v19h130zM326 773l-150 157h140l103 -157h-93z" />
    <glyph glyph-name="uni1EEB" unicode="&#x1eeb;" horiz-adv-x="631" 
d="M661 636v-38q0 -60 -31.5 -102t-84.5 -55v-441h-147v74q-24 -40 -63 -61t-88 -21q-95 0 -142 53t-47 160v302h151v-305q0 -92 79 -92q47 0 76 32t29 84v281h43q52 0 73.5 24.5t21.5 84.5v20h130zM256 572l-154 206h148l99 -206h-93z" />
    <glyph glyph-name="uni1EEC" unicode="&#x1eec;" horiz-adv-x="746" 
d="M793 834v-38q0 -57 -31 -98t-83 -54v-350q0 -148 -78.5 -225.5t-227.5 -77.5q-150 0 -228 77t-78 226v418h153v-425q0 -85 39.5 -129.5t113.5 -44.5t113 44.5t39 129.5v425h46q51 0 71.5 23t20.5 80v19h130zM410 773h-75v22q0 18 11.5 27t32.5 18l9 4.5t10 6.5t3 6
q0 18 -34 18q-25 0 -57 -11l-19 52q45 18 95 18q48 0 78 -18.5t30 -45.5q0 -19 -13 -30.5t-36 -21.5q-18 -9 -26.5 -15.5t-8.5 -16.5v-13z" />
    <glyph glyph-name="uni1EED" unicode="&#x1eed;" horiz-adv-x="631" 
d="M661 636v-38q0 -60 -31.5 -102t-84.5 -55v-441h-147v74q-24 -40 -63 -61t-88 -21q-95 0 -142 53t-47 160v302h151v-305q0 -92 79 -92q47 0 76 32t29 84v281h43q52 0 73.5 24.5t21.5 84.5v20h130zM342 572h-76v25q0 21 10 35t27 28q11 9 16.5 16t5.5 15q0 23 -34 23
q-24 0 -50 -9l-20 57q42 19 86 19q55 0 86 -22t31 -54q0 -24 -12.5 -39t-35.5 -31q-17 -12 -25.5 -21.5t-8.5 -21.5v-20z" />
    <glyph glyph-name="uni1EEE" unicode="&#x1eee;" horiz-adv-x="746" 
d="M793 834v-38q0 -57 -31 -98t-83 -54v-350q0 -148 -78.5 -225.5t-227.5 -77.5q-150 0 -228 77t-78 226v418h153v-425q0 -85 39.5 -129.5t113.5 -44.5t113 44.5t39 129.5v425h46q51 0 71.5 23t20.5 80v19h130zM227.5 890q30.5 37 78.5 37q19 0 37.5 -8t39.5 -22
q22 -12 33.5 -17.5t23.5 -5.5q19 0 30.5 13.5t13.5 36.5h64q0 -73 -30.5 -110t-78.5 -37q-19 0 -37.5 8t-39.5 22q-22 12 -33.5 17.5t-23.5 5.5q-19 0 -30.5 -13.5t-13.5 -36.5h-64q0 73 30.5 110z" />
    <glyph glyph-name="uni1EEF" unicode="&#x1eef;" horiz-adv-x="631" 
d="M661 636v-38q0 -60 -31.5 -102t-84.5 -55v-441h-147v74q-24 -40 -63 -61t-88 -21q-95 0 -142 53t-47 160v302h151v-305q0 -92 79 -92q47 0 76 32t29 84v281h43q52 0 73.5 24.5t21.5 84.5v20h130zM157.5 713.5q30.5 36.5 78.5 36.5q19 0 36.5 -7.5t40.5 -21.5
q22 -12 33.5 -17.5t23.5 -5.5q19 0 30.5 13t13.5 36h64q0 -72 -30.5 -109t-78.5 -37q-19 0 -36.5 7.5t-40.5 21.5q-22 12 -33.5 17.5t-23.5 5.5q-19 0 -30.5 -13t-13.5 -36h-64q0 73 30.5 109.5z" />
    <glyph glyph-name="uni1EF0" unicode="&#x1ef0;" horiz-adv-x="746" 
d="M793 834v-38q0 -57 -31 -98t-83 -54v-350q0 -148 -78.5 -225.5t-227.5 -77.5q-150 0 -228 77t-78 226v418h153v-425q0 -85 39.5 -129.5t113.5 -44.5t113 44.5t39 129.5v425h46q51 0 71.5 23t20.5 80v19h130zM303 -68h139v-133h-139v133z" />
    <glyph glyph-name="uni1EF1" unicode="&#x1ef1;" horiz-adv-x="631" 
d="M661 636v-38q0 -60 -31.5 -102t-84.5 -55v-441h-147v74q-24 -40 -63 -61t-88 -21q-95 0 -142 53t-47 160v302h151v-305q0 -92 79 -92q47 0 76 32t29 84v281h43q52 0 73.5 24.5t21.5 84.5v20h130zM233 -68h139v-133h-139v133z" />
    <glyph glyph-name="Ygrave" unicode="&#x1ef2;" horiz-adv-x="642" 
d="M694 712l-295 -436v-276h-156v277l-294 435h177l194 -304l196 304h178zM273 773l-150 157h140l103 -157h-93z" />
    <glyph glyph-name="ygrave" unicode="&#x1ef3;" horiz-adv-x="550" 
d="M561 507l-234 -534q-43 -97 -108.5 -142.5t-160.5 -58.5l-35 116q70 15 105.5 38t55.5 67l15 33l-209 481h158l130 -329l134 329h149zM228 572l-154 206h148l99 -206h-93z" />
    <glyph glyph-name="uni1EF4" unicode="&#x1ef4;" horiz-adv-x="642" 
d="M694 712l-295 -436v-276h-156v277l-294 435h177l194 -304l196 304h178zM251 -68h139v-133h-139v133z" />
    <glyph glyph-name="uni1EF5" unicode="&#x1ef5;" horiz-adv-x="550" 
d="M561 507l-234 -534q-43 -97 -108.5 -142.5t-160.5 -58.5l-35 116q70 15 105.5 38t55.5 67l15 33l-209 481h158l130 -329l134 329h149zM364 -68h139v-133h-139v133z" />
    <glyph glyph-name="uni1EF6" unicode="&#x1ef6;" horiz-adv-x="642" 
d="M694 712l-295 -436v-276h-156v277l-294 435h177l194 -304l196 304h178zM357 773h-75v22q0 18 11.5 27t32.5 18l9 4.5t10 6.5t3 6q0 18 -34 18q-25 0 -57 -11l-19 52q45 18 95 18q48 0 78 -18.5t30 -45.5q0 -19 -13 -30.5t-36 -21.5q-18 -9 -26.5 -15.5t-8.5 -16.5v-13z
" />
    <glyph glyph-name="uni1EF7" unicode="&#x1ef7;" horiz-adv-x="550" 
d="M561 507l-234 -534q-43 -97 -108.5 -142.5t-160.5 -58.5l-35 116q70 15 105.5 38t55.5 67l15 33l-209 481h158l130 -329l134 329h149zM314 572h-76v25q0 21 10 35t27 28q11 9 16.5 16t5.5 15q0 23 -34 23q-24 0 -50 -9l-20 57q42 19 86 19q55 0 86 -22t31 -54
q0 -24 -12.5 -39t-35.5 -31q-17 -12 -25.5 -21.5t-8.5 -21.5v-20z" />
    <glyph glyph-name="uni1EF8" unicode="&#x1ef8;" horiz-adv-x="642" 
d="M694 712l-295 -436v-276h-156v277l-294 435h177l194 -304l196 304h178zM174.5 890q30.5 37 78.5 37q19 0 37.5 -8t39.5 -22q22 -12 33.5 -17.5t23.5 -5.5q19 0 30.5 13.5t13.5 36.5h64q0 -73 -30.5 -110t-78.5 -37q-19 0 -37.5 8t-39.5 22q-22 12 -33.5 17.5t-23.5 5.5
q-19 0 -30.5 -13.5t-13.5 -36.5h-64q0 73 30.5 110z" />
    <glyph glyph-name="uni1EF9" unicode="&#x1ef9;" horiz-adv-x="550" 
d="M561 507l-234 -534q-43 -97 -108.5 -142.5t-160.5 -58.5l-35 116q70 15 105.5 38t55.5 67l15 33l-209 481h158l130 -329l134 329h149zM129.5 713.5q30.5 36.5 78.5 36.5q19 0 36.5 -7.5t40.5 -21.5q22 -12 33.5 -17.5t23.5 -5.5q19 0 30.5 13t13.5 36h64
q0 -72 -30.5 -109t-78.5 -37q-19 0 -36.5 7.5t-40.5 21.5q-22 12 -33.5 17.5t-23.5 5.5q-19 0 -30.5 -13t-13.5 -36h-64q0 73 30.5 109.5z" />
    <glyph glyph-name="uni2007" unicode="&#x2007;" horiz-adv-x="606" 
 />
    <glyph glyph-name="uni2008" unicode="&#x2008;" horiz-adv-x="262" 
 />
    <glyph glyph-name="uni2009" unicode="&#x2009;" horiz-adv-x="202" 
 />
    <glyph glyph-name="uni200A" unicode="&#x200a;" horiz-adv-x="101" 
 />
    <glyph glyph-name="uni200B" unicode="&#x200b;" 
 />
    <glyph glyph-name="uni2010" unicode="&#x2010;" horiz-adv-x="444" 
d="M67 211v119h311v-119h-311z" />
    <glyph glyph-name="figuredash" unicode="&#x2012;" horiz-adv-x="606" 
d="M67 226v88h472v-88h-472z" />
    <glyph glyph-name="endash" unicode="&#x2013;" horiz-adv-x="505" 
d="M0 226v88h505v-88h-505z" />
    <glyph glyph-name="emdash" unicode="&#x2014;" horiz-adv-x="1010" 
d="M0 226v88h1010v-88h-1010z" />
    <glyph glyph-name="uni2015" unicode="&#x2015;" horiz-adv-x="1010" 
d="M0 226v88h1010v-88h-1010z" />
    <glyph glyph-name="quoteleft" unicode="&#x2018;" horiz-adv-x="262" 
d="M212 575v-161h-163v104q0 58 21 105t70 97l59 -47q-50 -51 -61 -98h74z" />
    <glyph glyph-name="quoteright" unicode="&#x2019;" horiz-adv-x="262" 
d="M212 712v-103q0 -59 -20.5 -106t-69.5 -97l-59 47q50 51 61 98h-75v161h163z" />
    <glyph glyph-name="quotesinglbase" unicode="&#x201a;" horiz-adv-x="262" 
d="M212 161v-103q0 -59 -20.5 -106.5t-69.5 -95.5l-59 46q49 51 61 98h-75v161h163z" />
    <glyph glyph-name="quotedblleft" unicode="&#x201c;" horiz-adv-x="471" 
d="M212 575v-161h-163v104q0 58 21 105t70 97l59 -47q-50 -51 -61 -98h74zM421 575v-161h-163v104q0 58 21 105t70 97l59 -47q-50 -51 -61 -98h74z" />
    <glyph glyph-name="quotedblright" unicode="&#x201d;" horiz-adv-x="471" 
d="M212 712v-103q0 -59 -20.5 -106t-69.5 -97l-59 47q50 51 61 98h-75v161h163zM421 712v-103q0 -59 -20.5 -106t-69.5 -97l-59 47q50 51 61 98h-75v161h163z" />
    <glyph glyph-name="quotedblbase" unicode="&#x201e;" horiz-adv-x="471" 
d="M212 161v-103q0 -59 -20.5 -106.5t-69.5 -95.5l-59 46q49 51 61 98h-75v161h163zM421 161v-103q0 -59 -20.5 -106.5t-69.5 -95.5l-59 46q49 51 61 98h-75v161h163z" />
    <glyph glyph-name="dagger" unicode="&#x2020;" horiz-adv-x="361" 
d="M236 720v-121h104v-95h-104v-337h-111v337h-105v95h105v121h111z" />
    <glyph glyph-name="daggerdbl" unicode="&#x2021;" horiz-adv-x="361" 
d="M236 720v-119h104v-96h-104v-124h104v-94h-104v-121h-111v121h-105v94h105v124h-105v96h105v119h111z" />
    <glyph glyph-name="bullet" unicode="&#x2022;" horiz-adv-x="529" 
d="M174 112.5q-42 23.5 -67 65t-25 90.5q0 46 24 87.5t66 66.5t93 25q48 0 90 -23.5t67 -64.5t25 -91q0 -49 -24.5 -90t-66.5 -65t-91 -24t-91 23.5z" />
    <glyph glyph-name="ellipsis" unicode="&#x2026;" horiz-adv-x="786" 
d="M49 161h163v-161h-163v161zM312 161h162v-161h-162v161zM574 161h162v-161h-162v161z" />
    <glyph glyph-name="perthousand" unicode="&#x2030;" horiz-adv-x="1368" 
d="M86 344q-49 56 -49 163q0 104 49 160t135 56q87 0 136 -56t49 -161q0 -106 -49 -162t-136 -56q-86 0 -135 56zM340 0h-130l413 712h130zM267.5 411.5q14.5 28.5 14.5 94.5q0 65 -15 93.5t-46 28.5q-30 0 -44.5 -28.5t-14.5 -93.5q0 -66 14 -94.5t45 -28.5q32 0 46.5 28.5
zM606.5 49q-48.5 56 -48.5 163q0 105 48.5 160.5t134.5 55.5q88 0 136.5 -55.5t48.5 -161.5t-48.5 -162t-136.5 -56q-86 0 -134.5 56zM1010 49q-49 56 -49 163q0 105 49 160.5t135 55.5q87 0 136 -55.5t49 -161.5t-49 -162t-136 -56q-86 0 -135 56zM787.5 116.5
q14.5 28.5 14.5 94.5q0 65 -15 93.5t-46 28.5q-30 0 -44.5 -28.5t-14.5 -93.5q0 -66 14 -94.5t45 -28.5q32 0 46.5 28.5zM1190.5 116.5q14.5 28.5 14.5 94.5q0 65 -14.5 93.5t-45.5 28.5q-30 0 -44.5 -28.5t-14.5 -93.5q0 -66 14 -94.5t45 -28.5t45.5 28.5z" />
    <glyph glyph-name="minute" unicode="&#x2032;" horiz-adv-x="257" 
d="M79 411l-38 301h174l-35 -301h-101z" />
    <glyph glyph-name="second" unicode="&#x2033;" horiz-adv-x="473" 
d="M79 411l-38 301h174l-35 -301h-101zM294 411l-36 301h173l-36 -301h-101z" />
    <glyph glyph-name="guilsinglleft" unicode="&#x2039;" horiz-adv-x="305" 
d="M157 85l-136 182l136 184h126l-131 -183l130 -183h-125z" />
    <glyph glyph-name="guilsinglright" unicode="&#x203a;" horiz-adv-x="305" 
d="M149 85h-125l130 183l-132 183h127l135 -184z" />
    <glyph glyph-name="fraction" unicode="&#x2044;" horiz-adv-x="202" 
d="M-58 -30l-98 56l416 716l97 -56z" />
    <glyph glyph-name="uni2070" unicode="&#x2070;" horiz-adv-x="380" 
d="M63 337q-46 56 -46 163q0 105 46 160.5t127 55.5t127 -56t46 -161q0 -106 -46 -162t-127 -56t-127 56zM225.5 404.5q11.5 28.5 11.5 94.5q0 65 -11.5 93.5t-35.5 28.5q-25 0 -36.5 -28.5t-11.5 -93.5q0 -66 11.5 -94.5t36.5 -28.5q24 0 35.5 28.5z" />
    <glyph glyph-name="uni2074" unicode="&#x2074;" horiz-adv-x="380" 
d="M375 443v-93h-61v-65h-114v65h-188v89l201 273h101v-269h61zM117 443h83v112z" />
    <glyph glyph-name="uni2075" unicode="&#x2075;" horiz-adv-x="380" 
d="M322.5 530q38.5 -36 38.5 -100q0 -69 -49 -109.5t-126 -40.5q-40 0 -83.5 11t-72.5 28l22 94q55 -33 121 -33q35 0 51 11t16 33q0 44 -63 44q-34 0 -76 -16h-57v260h291v-100h-176v-59q29 13 66 13q59 0 97.5 -36z" />
    <glyph glyph-name="uni2076" unicode="&#x2076;" horiz-adv-x="380" 
d="M321.5 526q38.5 -34 38.5 -99q0 -69 -45.5 -107.5t-116.5 -38.5q-81 0 -129 52.5t-48 158.5q0 107 54.5 165.5t144.5 58.5q32 0 67 -9.5t66 -29.5l-21 -94q-57 34 -110 34q-37 0 -56.5 -20t-23.5 -65q34 28 84 28q57 0 95.5 -34zM250 421q0 25 -13 38.5t-37 13.5
q-25 0 -38.5 -13.5t-13.5 -38.5t13 -38.5t37 -13.5q52 0 52 52z" />
    <glyph glyph-name="uni2077" unicode="&#x2077;" horiz-adv-x="380" 
d="M28 712h325v-104l-169 -324l-146 1l175 322h-185v105z" />
    <glyph glyph-name="uni2078" unicode="&#x2078;" horiz-adv-x="380" 
d="M343.5 467.5q22.5 -27.5 22.5 -66.5q0 -56 -48 -88.5t-128 -32.5t-128 32.5t-48 88.5q0 40 22.5 67.5t65.5 37.5q-37 12 -57 38t-20 58q0 53 45.5 83.5t119.5 30.5t119.5 -30.5t45.5 -83.5q0 -34 -20.5 -60.5t-57.5 -35.5q44 -11 66.5 -38.5zM152.5 615.5
q-14.5 -10.5 -14.5 -29.5q0 -18 13.5 -29t38.5 -20q26 8 38.5 19t12.5 30t-14 29.5t-37 10.5t-37.5 -10.5zM234 381.5q16 11.5 16 31.5t-14.5 32t-45.5 20q-31 -8 -46 -20t-15 -32t16.5 -31.5t44.5 -11.5t44 11.5z" />
    <glyph glyph-name="uni2079" unicode="&#x2079;" horiz-adv-x="380" 
d="M311 663.5q48 -52.5 48 -158.5q0 -107 -54.5 -165.5t-144.5 -58.5q-32 0 -67 9.5t-66 29.5l21 94q57 -34 110 -34q37 0 56 20t23 66q-16 -14 -38 -21t-45 -7q-57 0 -95.5 33.5t-38.5 98.5q0 69 45.5 107.5t116.5 38.5q81 0 129 -52.5zM218.5 537.5q13.5 13.5 13.5 38.5
t-13 38.5t-37 13.5q-26 0 -39.5 -13.5t-13.5 -38.5t13.5 -38.5t37.5 -13.5q25 0 38.5 13.5z" />
    <glyph glyph-name="uni2080" unicode="&#x2080;" horiz-adv-x="380" 
d="M63 52q-46 56 -46 163q0 105 46 160.5t127 55.5t127 -56t46 -161q0 -106 -46 -162t-127 -56t-127 56zM225.5 119.5q11.5 28.5 11.5 94.5q0 65 -11.5 93.5t-35.5 28.5q-25 0 -36.5 -28.5t-11.5 -93.5q0 -66 11.5 -94.5t36.5 -28.5q24 0 35.5 28.5z" />
    <glyph glyph-name="uni2081" unicode="&#x2081;" horiz-adv-x="380" 
d="M282 101h81v-101h-291v101h80v189l-75 -41v117l114 61h91v-326z" />
    <glyph glyph-name="uni2082" unicode="&#x2082;" horiz-adv-x="380" 
d="M351 101v-101h-308v95l134 140q34 39 34 64q0 34 -47 34q-54 0 -113 -35l-21 94q29 17 73 28t84 11q70 0 112 -33.5t42 -89.5q0 -36 -17.5 -68.5t-63.5 -74.5l-70 -64h161z" />
    <glyph glyph-name="uni2083" unicode="&#x2083;" horiz-adv-x="380" 
d="M333 182.5q21 -26.5 21 -64.5q0 -53 -44.5 -88t-126.5 -35q-42 0 -86 11t-73 28l20 94q60 -35 128 -35q60 0 60 36q0 37 -55 37h-72v98h60q29 0 42 8.5t13 27.5q0 33 -50 33q-28 0 -59.5 -9t-59.5 -26l-21 94q29 17 71.5 28t78.5 11q77 0 119 -34t42 -85q0 -32 -17 -56.5
t-49 -35.5q37 -11 58 -37.5z" />
    <glyph glyph-name="uni2084" unicode="&#x2084;" horiz-adv-x="380" 
d="M375 158v-93h-61v-65h-114v65h-188v89l201 273h101v-269h61zM117 158h83v112z" />
    <glyph glyph-name="uni2085" unicode="&#x2085;" horiz-adv-x="380" 
d="M322.5 245q38.5 -36 38.5 -100q0 -69 -49 -109.5t-126 -40.5q-40 0 -83.5 11t-72.5 28l22 94q55 -33 121 -33q35 0 51 11t16 33q0 44 -63 44q-34 0 -76 -16h-57v260h291v-100h-176v-59q29 13 66 13q59 0 97.5 -36z" />
    <glyph glyph-name="uni2086" unicode="&#x2086;" horiz-adv-x="380" 
d="M321.5 241q38.5 -34 38.5 -99q0 -69 -45.5 -107.5t-116.5 -38.5q-81 0 -129 52.5t-48 158.5q0 107 54.5 165.5t144.5 58.5q32 0 67 -9.5t66 -29.5l-21 -94q-57 34 -110 34q-37 0 -56.5 -20t-23.5 -65q34 28 84 28q57 0 95.5 -34zM250 136q0 25 -13 38.5t-37 13.5
q-25 0 -38.5 -13.5t-13.5 -38.5t13 -38.5t37 -13.5q52 0 52 52z" />
    <glyph glyph-name="uni2087" unicode="&#x2087;" horiz-adv-x="380" 
d="M28 427h325v-104l-169 -324l-146 1l175 322h-185v105z" />
    <glyph glyph-name="uni2088" unicode="&#x2088;" horiz-adv-x="380" 
d="M343.5 182.5q22.5 -27.5 22.5 -66.5q0 -56 -48 -88.5t-128 -32.5t-128 32.5t-48 88.5q0 40 22.5 67.5t65.5 37.5q-37 12 -57 38t-20 58q0 53 45.5 83.5t119.5 30.5t119.5 -30.5t45.5 -83.5q0 -34 -20.5 -60.5t-57.5 -35.5q44 -11 66.5 -38.5zM152.5 330.5
q-14.5 -10.5 -14.5 -29.5q0 -18 13.5 -29t38.5 -20q26 8 38.5 19t12.5 30t-14 29.5t-37 10.5t-37.5 -10.5zM234 96.5q16 11.5 16 31.5t-14.5 32t-45.5 20q-31 -8 -46 -20t-15 -32t16.5 -31.5t44.5 -11.5t44 11.5z" />
    <glyph glyph-name="uni2089" unicode="&#x2089;" horiz-adv-x="380" 
d="M311 378.5q48 -52.5 48 -158.5q0 -107 -54.5 -165.5t-144.5 -58.5q-32 0 -67 9.5t-66 29.5l21 94q57 -34 110 -34q37 0 56 20t23 66q-16 -14 -38 -21t-45 -7q-57 0 -95.5 33.5t-38.5 98.5q0 69 45.5 107.5t116.5 38.5q81 0 129 -52.5zM218.5 252.5q13.5 13.5 13.5 38.5
t-13 38.5t-37 13.5q-26 0 -39.5 -13.5t-13.5 -38.5t13.5 -38.5t37.5 -13.5q25 0 38.5 13.5z" />
    <glyph glyph-name="colonmonetary" unicode="&#x20a1;" horiz-adv-x="600" 
d="M241 535q-42 -62 -42 -178q0 -117 42 -179.5t120 -62.5q37 0 75 16.5t86 53.5l51 -112q-39 -38 -99 -60t-120 -22q-34 0 -66 6l-47 -121l-90 35l47 119q-27 16 -48 34l-53 -133l-91 33l77 191q-42 87 -42 202q0 101 32 178.5t92 124.5t142 58l43 110h103l-44 -112
q27 -4 56 -14l50 126h104l-68 -170q12 -9 22 -19l-51 -112q-48 37 -86 53.5t-75 16.5q-78 0 -120 -62z" />
    <glyph glyph-name="franc" unicode="&#x20a3;" horiz-adv-x="600" 
d="M595 503v-122h-9q-70 0 -101.5 -29t-31.5 -91v-261h-144v299h-117v-299h-148v712h443v-125h-295v-162h117v71h132v-94q17 57 50 79t90 22h14z" />
    <glyph glyph-name="lira" unicode="&#x20a4;" horiz-adv-x="600" 
d="M255.5 168.5q-10.5 -25.5 -32.5 -43.5h349v-125h-533v105q43 22 58.5 48.5t15.5 76.5v3h-74v92h74v63h-74v92h74v40q0 59 28.5 105t81 71t120.5 25q69 0 131 -20.5t108 -59.5l-51 -112q-46 34 -91.5 51.5t-83.5 17.5q-88 0 -88 -89v-29h162v-92h-162v-63h162v-92h-162
q-2 -39 -12.5 -64.5z" />
    <glyph glyph-name="uni20A6" unicode="&#x20a6;" horiz-adv-x="600" 
d="M583 390h-82v-63h82v-93h-82v-234h-123l-152 394v-394h-127v234h-81v93h81v63h-81v92h81v230h123l151 -417v417h128v-230h82v-92z" />
    <glyph glyph-name="peseta" unicode="&#x20a7;" horiz-adv-x="1200" 
d="M1144.5 270.5q37.5 -19.5 54 -48t16.5 -71.5q0 -47 -26.5 -83t-74 -56t-110.5 -20q-107 0 -188 45l-3 -41q-31 -4 -59 -4q-114 0 -166.5 50.5t-52.5 152.5v199h-58q-24 -74 -83 -117t-141 -43h-40v-234h-150v728h190q101 0 164 -59.5t71 -161.5h47v149h151v-149h109v-113
h-109v-199q0 -47 21 -70t65 -23q18 0 37 3l21 54q86 -56 174 -56q35 0 55 12t20 33q0 15 -9 25t-32 18t-68 17q-85 17 -124 52.5t-39 95.5q0 46 27 83.5t74 59t105 21.5q50 0 101 -17t90 -46l-41 -101q-87 52 -156 52q-27 0 -44.5 -12.5t-17.5 -33.5t19.5 -32t77.5 -25
q65 -15 102.5 -34.5zM323.5 383.5q23.5 30.5 23.5 96.5q0 67 -23.5 97.5t-75.5 30.5h-36v-255h36q52 0 75.5 30.5z" />
    <glyph glyph-name="uni20A9" unicode="&#x20a9;" horiz-adv-x="600" 
d="M583 390h-77l-8 -63h85v-93h-98l-31 -234h-79l-75 433l-76 -433h-79l-31 234h-96v93h84l-8 63h-76v92h63l-30 230h109l41 -393l62 393h73l62 -393l41 393h110l-31 -230h65v-92z" />
    <glyph glyph-name="dong" unicode="&#x20ab;" horiz-adv-x="600" 
d="M601 547h-69v-547h-149v73q-21 -38 -59.5 -59.5t-84.5 -21.5q-60 0 -105.5 32t-71 91.5t-25.5 137.5q0 77 25 135t70.5 89t106.5 31q44 0 82 -21t60 -57v117h-142v89h142v76h151v-76h69v-89zM356.5 146q26.5 39 26.5 104t-26.5 104t-70.5 39q-45 0 -71.5 -38t-26.5 -102
q0 -67 26.5 -106.5t71.5 -39.5q44 0 70.5 39zM61 -156v89h471v-89h-471z" />
    <glyph glyph-name="Euro" unicode="&#x20ac;" horiz-adv-x="600" 
d="M451 131q37 16 85 54l50 -112q-39 -38 -98 -60t-118 -22q-103 0 -171.5 63t-91.5 179h-89v92h78q-1 10 -1 32q0 21 1 31h-78v92h89q23 115 91.5 178t171.5 63q59 0 118 -22t98 -60l-50 -112q-48 38 -85 54t-74 16q-47 0 -75.5 -28.5t-41.5 -88.5h149v-92h-159v-31v-32
h159v-92h-149q13 -61 41.5 -89.5t75.5 -28.5q37 0 74 16z" />
    <glyph glyph-name="uni20AD" unicode="&#x20ad;" horiz-adv-x="600" 
d="M567 311h-169l216 -311h-169l-210 307v-307h-149v311h-68v89h68v312h149v-306l210 306h169l-216 -312h169v-89z" />
    <glyph glyph-name="uni20B1" unicode="&#x20b1;" horiz-adv-x="600" 
d="M583 501h-69q1 -10 1 -31q0 -12 -2 -32h70v-92h-96q-27 -55 -79 -87t-123 -32h-35v-227h-151v346h-81v92h81v63h-81v93h81v118h186q72 0 124 -31.5t79 -86.5h95v-93zM350.5 374.5q23.5 28.5 23.5 94.5q0 67 -23.5 95t-70.5 28h-32v-246h32q47 0 70.5 28.5z" />
    <glyph glyph-name="uni20B2" unicode="&#x20b2;" horiz-adv-x="600" 
d="M565 43q-87 -36 -166 -48v-111h-121v114q-114 23 -180 117.5t-66 241.5q0 145 65.5 239.5t178.5 117.5v114h120v-111q47 -8 91.5 -28t76.5 -50l-50 -112q-48 37 -86.5 53.5t-74.5 16.5q-76 0 -119 -61t-43 -179q0 -119 42 -182t114 -63q33 0 78 13v159h-111v109h251v-350
z" />
    <glyph glyph-name="uni20B5" unicode="&#x20b5;" horiz-adv-x="600" 
d="M573 73q-30 -29 -73.5 -49.5t-92.5 -28.5v-111h-120v113q-115 23 -180.5 118t-65.5 242q0 146 65.5 240.5t180.5 117.5v113h120v-111q49 -8 92.5 -28.5t73.5 -49.5l-51 -112q-66 51 -115 64v-470q49 13 115 64zM221.5 215.5q22.5 -56.5 65.5 -81.5v445
q-43 -25 -65.5 -81.5t-22.5 -140.5q0 -85 22.5 -141.5z" />
    <glyph glyph-name="uni20B9" unicode="&#x20b9;" horiz-adv-x="600" 
d="M584 0h-187l-151 227q-16 26 -35.5 37.5t-49.5 11.5h-143v121h210q94 0 116 68h-326v92h324q-23 63 -114 63h-210v92h565v-92h-119q20 -28 29 -63h90v-92h-86q-9 -68 -52 -113t-112 -61q33 -7 58.5 -25t46.5 -50z" />
    <glyph glyph-name="uni20BA" unicode="&#x20ba;" horiz-adv-x="600" 
d="M589 71q-95 -80 -252 -80q-103 0 -208 41v242l-73 -41v106l73 41v63l-73 -41v106l73 41v163h157v-75l159 90v-106l-159 -90v-62l159 90v-107l-159 -90v-236q30 -11 78 -11q82 0 175 68z" />
    <glyph glyph-name="uni20BC" unicode="&#x20bc;" horiz-adv-x="600" 
d="M480.5 631.5q46.5 -66.5 71 -218t24.5 -413.5h-152q0 213 -6.5 334.5t-21.5 179.5t-40 77v-292h-112v292q-25 -19 -39.5 -77t-21 -179t-6.5 -335h-152q0 262 24.5 413.5t70.5 218t119 81.5v115h122v-115q73 -15 119.5 -81.5z" />
    <glyph glyph-name="uni20BD" unicode="&#x20bd;" horiz-adv-x="600" 
d="M250 298v-63h159v-92h-159v-143h-151v143h-81v92h81v63h-81v93h81v321h246q77 0 132 -26.5t83.5 -72.5t28.5 -104q0 -100 -63 -155.5t-181 -55.5h-95zM248 391h61q68 0 102 24t34 74q0 58 -31 83.5t-96 25.5h-70v-207z" />
    <glyph glyph-name="uni2113" unicode="&#x2113;" horiz-adv-x="606" 
d="M211 29.5q-38 46.5 -38 115.5v39l-51 -48l-51 53l102 94v246q0 85 45 136.5t120 51.5q63 0 97.5 -34.5t34.5 -96.5q0 -69 -32 -129t-94 -129l-32 -35v-120q0 -37 16 -56.5t41 -19.5q35 0 75 36l39 -81q-67 -69 -156 -69q-78 0 -116 46.5zM324 417q28 36 44.5 76.5
t16.5 73.5q0 43 -31 43q-42 0 -42 -63v-145q7 7 12 15z" />
    <glyph glyph-name="uni2116" unicode="&#x2116;" horiz-adv-x="1133" 
d="M816 450q-44 45 -44 112q0 66 44 110.5t128 44.5q85 0 129 -44.5t44 -110.5q0 -67 -44 -112t-129 -45q-84 0 -128 45zM541 259v453h147v-712h-116l-355 454v-454h-146v712h115zM908 605.5q-13 -14.5 -13 -43.5q0 -28 13 -44t36 -16q25 0 39 16t14 44q0 58 -53 58
q-23 0 -36 -14.5zM790 211v119h311v-119h-311z" />
    <glyph glyph-name="trademark" unicode="&#x2122;" horiz-adv-x="953" 
d="M14 602v110h373v-110h-118v-315h-138v315h-117zM783 712h103v-425h-118v188l-59 -112h-85l-59 110v-186h-120v425h108l114 -219z" />
    <glyph glyph-name="uni2126" unicode="&#x2126;" horiz-adv-x="819" 
d="M733 264.5q-39 -73.5 -115 -139.5h140v-125h-292v121q78 71 114 140t36 149q0 89 -54.5 139t-151.5 50t-151.5 -50t-54.5 -139q0 -80 36 -149t115 -140v-121h-293v125h140q-77 66 -116 139t-39 151q0 92 45 161.5t127.5 107.5t190.5 38t190 -38t127 -107.5t45 -161.5
q0 -77 -39 -150.5z" />
    <glyph glyph-name="estimated" unicode="&#x212e;" horiz-adv-x="903" 
d="M238 43q-91 48 -139 129t-48 176q0 96 49 181t139.5 136.5t210.5 51.5q146 0 236 -55t128 -141t38 -187h-649q-5 0 -5 -6v-173q0 -22 7 -30q40 -48 102.5 -73t141.5 -25q82 0 144.5 27.5t117.5 80.5h72q-62 -74 -136.5 -107t-194.5 -33q-123 0 -214 48zM700 366q5 0 5 6
v190q0 14 -10 26q-47 55 -113.5 76.5t-134.5 21.5q-64 0 -126.5 -22.5t-113.5 -73.5q-9 -9 -9 -27v-191q0 -6 5 -6h497z" />
    <glyph glyph-name="partialdiff" unicode="&#x2202;" horiz-adv-x="600" 
d="M390 729.5q79 -50.5 121.5 -146.5t42.5 -229q0 -183 -69.5 -277t-203.5 -94q-76 0 -134.5 32t-91 91t-32.5 137q0 76 29.5 136t82 93.5t118.5 33.5q96 0 143 -62q-6 107 -68 162t-173 55h-37v112q42 7 87 7q106 0 185 -50.5zM359.5 143q29.5 38 29.5 101q0 64 -29.5 102
t-77.5 38q-47 0 -76.5 -38t-29.5 -100q0 -65 29 -103t77 -38t77.5 38z" />
    <glyph glyph-name="emptyset" unicode="&#x2205;" horiz-adv-x="600" 
d="M103 121q-48 39 -75 94t-27 119q0 76 39.5 142t108 105.5t152.5 39.5q82 0 155 -41l80 103l54 -41l-81 -103q42 -39 66 -92t24 -113q0 -77 -40 -142t-108.5 -103.5t-149.5 -38.5q-75 0 -143 35l-81 -103l-55 36zM407 515q-49 26 -106 26q-60 0 -109 -27t-77.5 -74.5
t-28.5 -105.5q0 -44 17 -83t49 -67zM407.5 153.5q49.5 26.5 78.5 74t29 106.5q0 81 -55 142l-255 -328q43 -21 96 -21q57 0 106.5 26.5z" />
    <glyph glyph-name="uni2206" unicode="&#x2206;" horiz-adv-x="819" 
d="M733 264.5q-39 -73.5 -115 -139.5h140v-125h-292v121q78 71 114 140t36 149q0 89 -54.5 139t-151.5 50t-151.5 -50t-54.5 -139q0 -80 36 -149t115 -140v-121h-293v125h140q-77 66 -116 139t-39 151q0 92 45 161.5t127.5 107.5t190.5 38t190 -38t127 -107.5t45 -161.5
q0 -77 -39 -150.5z" />
    <glyph glyph-name="product" unicode="&#x220f;" horiz-adv-x="600" 
d="M546 712v-894h-140v771h-212v-771h-140v894h492z" />
    <glyph glyph-name="summation" unicode="&#x2211;" horiz-adv-x="611" 
d="M564 712v-125h-341l198 -274l-1 -95l-198 -275h342v-125h-519v113l240 334l-240 334v113h519z" />
    <glyph glyph-name="minus" unicode="&#x2212;" horiz-adv-x="600" 
d="M546 341v-103h-492v103h492z" />
    <glyph glyph-name="uni2215" unicode="&#x2215;" horiz-adv-x="600" 
d="M226 -78l-113 35l262 816l113 -35z" />
    <glyph glyph-name="uni2219" unicode="&#x2219;" horiz-adv-x="600" 
d="M219 351h162v-161h-162v161z" />
    <glyph glyph-name="radical" unicode="&#x221a;" horiz-adv-x="600" 
d="M579 766l-233 -968h-114l-125 440h-104v103h185l98 -368l184 793h109z" />
    <glyph glyph-name="infinity" unicode="&#x221e;" horiz-adv-x="600" 
d="M531.5 413q40.5 -47 40.5 -126q0 -81 -40.5 -127t-110.5 -46q-34 0 -66 17.5t-55 58.5q-23 -41 -55 -58.5t-66 -17.5q-70 0 -110.5 46t-40.5 127q0 79 40.5 126t110.5 47q34 0 66 -18t55 -59q23 41 55 59t66 18q70 0 110.5 -47zM232 222.5q22 20.5 35 65.5
q-13 43 -35 63.5t-47 20.5q-30 0 -47.5 -24t-17.5 -61t17 -61t48 -24q25 0 47 20.5zM463 226q17 24 17 61t-17.5 61t-47.5 24q-25 0 -47 -20.5t-35 -63.5q13 -45 35 -65.5t47 -20.5q31 0 48 24z" />
    <glyph glyph-name="integral" unicode="&#x222b;" horiz-adv-x="600" 
d="M500 707v-117q-28 7 -48 7q-34 0 -55 -19t-21 -61v-507q0 -95 -48.5 -147.5t-140.5 -52.5q-52 0 -87 13v118q28 -7 48 -7q34 0 55 19.5t21 59.5v508q0 94 48.5 146.5t140.5 52.5q52 0 87 -13z" />
    <glyph glyph-name="approxequal" unicode="&#x2248;" horiz-adv-x="599" 
d="M546 416q-16 -50 -54.5 -79.5t-84.5 -29.5q-30 0 -59 11t-66 30q-29 15 -47.5 22t-33.5 7q-50 0 -71 -62l-76 51q16 50 54 79.5t84 29.5q30 0 58 -10t67 -30q33 -16 49.5 -22.5t31.5 -6.5q51 0 71 60zM546 214q-16 -50 -54.5 -79.5t-84.5 -29.5q-30 0 -59 11t-66 30
q-29 15 -47.5 22t-33.5 7q-50 0 -71 -62l-76 51q16 50 54 79.5t84 29.5q30 0 58 -10t67 -30q33 -16 49.5 -22.5t31.5 -6.5q51 0 71 60z" />
    <glyph glyph-name="notequal" unicode="&#x2260;" horiz-adv-x="600" 
d="M546 339h-175l-41 -99h216v-103h-259l-55 -132l-96 40l38 92h-120v103h163l41 99h-204v103h247l55 132l96 -40l-38 -92h132v-103z" />
    <glyph glyph-name="lessequal" unicode="&#x2264;" horiz-adv-x="600" 
d="M546 547v-108l-338 -99l338 -100v-108l-492 151v114zM54 0v104h492v-104h-492z" />
    <glyph glyph-name="greaterequal" unicode="&#x2265;" horiz-adv-x="600" 
d="M54 547l492 -150v-114l-492 -151v108l338 100l-338 99v108zM54 0v104h492v-104h-492z" />
    <glyph glyph-name="lozenge" unicode="&#x25ca;" horiz-adv-x="606" 
d="M562 282l-202 -484h-114l-202 484l202 484h114zM448 282l-145 352l-145 -352l145 -353z" />
    <glyph glyph-name="uniF8FF" unicode="&#xf8ff;" horiz-adv-x="665" 
d="M138 1l71 226l-192 146h239l74 226l78 -226h239l-192 -146l71 -226l-196 136zM264 200h28v76l29 -55h23l30 55v-76h28v131h-27l-42 -79l-42 79h-27v-131z" />
    <glyph glyph-name="Iacute_J.loclNLD" horiz-adv-x="680" 
d="M71 0v712h156v-712h-156zM194 773h-93l103 157h140zM299 -53q42 -6 71 -6q48 0 65 21.5t17 77.5v672h156v-670q0 -119 -47 -174.5t-160 -55.5q-45 0 -102 9v126zM575 773h-93l103 157h140z" />
    <glyph glyph-name="i.loclTRK" horiz-adv-x="274" 
d="M61 0v507h151v-507h-151zM56 745h161v-142h-161v142z" />
    <glyph glyph-name="iacute_j.loclNLD" horiz-adv-x="548" 
d="M61 0v507h151v-507h-151zM183 572h-93l99 206h148zM258 -100q34 0 55.5 20t21.5 62v525h151v-529q0 -96 -49 -149t-142 -53q-52 0 -86 13v118q29 -7 49 -7zM456 572h-93l99 206h148z" />
    <glyph glyph-name="I_J.loclNLD" horiz-adv-x="680" 
d="M71 0v712h156v-712h-156zM299 -53q42 -6 71 -6q48 0 65 21.5t17 77.5v672h156v-670q0 -119 -47 -174.5t-160 -55.5q-45 0 -102 9v126z" />
    <glyph glyph-name="i_j.loclNLD" horiz-adv-x="548" 
d="M61 0v507h151v-507h-151zM56 745h161v-142h-161v142zM258 -100q34 0 55.5 20t21.5 62v525h151v-529q0 -96 -49 -149t-142 -53q-52 0 -86 13v118q29 -7 49 -7zM329 745h161v-142h-161v142z" />
    <glyph glyph-name="zero.dnom" horiz-adv-x="380" 
d="M63 52q-46 56 -46 163q0 105 46 160.5t127 55.5t127 -56t46 -161q0 -106 -46 -162t-127 -56t-127 56zM225.5 119.5q11.5 28.5 11.5 94.5q0 65 -11.5 93.5t-35.5 28.5q-25 0 -36.5 -28.5t-11.5 -93.5q0 -66 11.5 -94.5t36.5 -28.5q24 0 35.5 28.5z" />
    <glyph glyph-name="one.dnom" horiz-adv-x="380" 
d="M282 101h81v-101h-291v101h80v189l-75 -41v117l114 61h91v-326z" />
    <glyph glyph-name="two.dnom" horiz-adv-x="380" 
d="M351 101v-101h-308v95l134 140q34 39 34 64q0 34 -47 34q-54 0 -113 -35l-21 94q29 17 73 28t84 11q70 0 112 -33.5t42 -89.5q0 -36 -17.5 -68.5t-63.5 -74.5l-70 -64h161z" />
    <glyph glyph-name="three.dnom" horiz-adv-x="380" 
d="M333 182.5q21 -26.5 21 -64.5q0 -53 -44.5 -88t-126.5 -35q-42 0 -86 11t-73 28l20 94q60 -35 128 -35q60 0 60 36q0 37 -55 37h-72v98h60q29 0 42 8.5t13 27.5q0 33 -50 33q-28 0 -59.5 -9t-59.5 -26l-21 94q29 17 71.5 28t78.5 11q77 0 119 -34t42 -85q0 -32 -17 -56.5
t-49 -35.5q37 -11 58 -37.5z" />
    <glyph glyph-name="four.dnom" horiz-adv-x="380" 
d="M375 158v-93h-61v-65h-114v65h-188v89l201 273h101v-269h61zM117 158h83v112z" />
    <glyph glyph-name="five.dnom" horiz-adv-x="380" 
d="M322.5 245q38.5 -36 38.5 -100q0 -69 -49 -109.5t-126 -40.5q-40 0 -83.5 11t-72.5 28l22 94q55 -33 121 -33q35 0 51 11t16 33q0 44 -63 44q-34 0 -76 -16h-57v260h291v-100h-176v-59q29 13 66 13q59 0 97.5 -36z" />
    <glyph glyph-name="six.dnom" horiz-adv-x="380" 
d="M321.5 241q38.5 -34 38.5 -99q0 -69 -45.5 -107.5t-116.5 -38.5q-81 0 -129 52.5t-48 158.5q0 107 54.5 165.5t144.5 58.5q32 0 67 -9.5t66 -29.5l-21 -94q-57 34 -110 34q-37 0 -56.5 -20t-23.5 -65q34 28 84 28q57 0 95.5 -34zM250 136q0 25 -13 38.5t-37 13.5
q-25 0 -38.5 -13.5t-13.5 -38.5t13 -38.5t37 -13.5q52 0 52 52z" />
    <glyph glyph-name="seven.dnom" horiz-adv-x="380" 
d="M28 427h325v-104l-169 -324l-146 1l175 322h-185v105z" />
    </font>
</defs>
</svg>
