<?xml version="1.0" standalone="no"?>
<!DOCTYPE svg PUBLIC "-//W3C//DTD SVG 1.1//EN" "http://www.w3.org/Graphics/SVG/1.1/DTD/svg11.dtd" >
<svg xmlns="http://www.w3.org/2000/svg" xmlns:xlink="http://www.w3.org/1999/xlink" version="1.1">
<metadata>
Created by FontForge 20161013 at Thu Oct  6 17:43:01 2016
 By ,,,
Copyright 2016 The Muli Project Authors (contact@sansoxygen.com)
</metadata>
<defs>
<font id="Muli-ExtraLight" horiz-adv-x="0" >
  <font-face 
    font-family="Muli ExtraLight"
    font-weight="275"
    font-stretch="normal"
    units-per-em="1000"
    panose-1="0 0 3 0 0 0 0 0 0 0"
    ascent="800"
    descent="-200"
    x-height="500"
    cap-height="712"
    bbox="-314 -273 1264 1085"
    underline-thickness="50"
    underline-position="-150"
    unicode-range="U+000D-FB02"
  />
<missing-glyph horiz-adv-x="476" 
d="M390 736v-952h-301v952h301zM317 672h-157v-31h62v-35h-63v-32h158v32h-63v35h63v31zM254 549h-95v-99h158v33h-63v66zM222 517v-34h-32v34h32zM317 425h-158v-32h63v-35h-63v-31h95v66h63v32zM317 368h-31v-63h-127v-33h158v96zM317 251h-95v-53h32v22h32v-45h-96v76
h-31v-107h158v107zM317 87h-158v-108h158v108zM286 55v-44h-96v44h96zM317 -43h-158v-31h67l-67 -45v-31h158v31h-97l67 45h30v31z" />
    <glyph glyph-name="fi" unicode="fi" horiz-adv-x="525" 
d="M150 500h289v-500h-42v464h-247v-464h-42v464h-100v36h100v82q0 83 38.5 120t131.5 37h26v-37h-25q-55 0 -81.5 -10.5t-37 -39t-10.5 -87.5v-65zM385 705h65v-66h-65v66z" />
    <glyph glyph-name="fl" unicode="fl" horiz-adv-x="529" 
d="M173 675.5q-23 -23.5 -23 -86.5v-89h133v-36h-133v-464h-42v464h-100v36h100v102q0 70 34 104t93 34q28 0 58 -8v-41q-27 8 -53 8q-44 0 -67 -23.5zM399 0v736h41v-736h-41z" />
    <glyph glyph-name=".notdef" horiz-adv-x="476" 
d="M390 736v-952h-301v952h301zM317 672h-157v-31h62v-35h-63v-32h158v32h-63v35h63v31zM254 549h-95v-99h158v33h-63v66zM222 517v-34h-32v34h32zM317 425h-158v-32h63v-35h-63v-31h95v66h63v32zM317 368h-31v-63h-127v-33h158v96zM317 251h-95v-53h32v22h32v-45h-96v76
h-31v-107h158v107zM317 87h-158v-108h158v108zM286 55v-44h-96v44h96zM317 -43h-158v-31h67l-67 -45v-31h158v31h-97l67 45h30v31z" />
    <glyph glyph-name=".null" 
 />
    <glyph glyph-name="nonmarkingreturn" unicode="&#xd;" horiz-adv-x="250" 
 />
    <glyph glyph-name="NULL" 
 />
    <glyph glyph-name="NULL" 
 />
    <glyph glyph-name="space" unicode=" " horiz-adv-x="250" 
 />
    <glyph glyph-name="exclam" unicode="!" horiz-adv-x="214" 
d="M93 164l-13 548h53l-13 -548h-27zM73 71h68v-71h-68v71z" />
    <glyph glyph-name="quotedbl" unicode="&#x22;" horiz-adv-x="397" 
d="M88 444l-13 268h52l-11 -268h-28zM283 444l-13 268h52l-11 -268h-28z" />
    <glyph glyph-name="numbersign" unicode="#" horiz-adv-x="606" 
d="M579 487h-113l-49 -254h143v-40h-151l-37 -193h-43l37 193h-190l-37 -193h-43l37 193h-107v40h115l49 254h-144v40h152l36 185h43l-36 -185h190l36 185h43l-36 -185h105v-40zM374 233l49 254h-190l-49 -254h190z" />
    <glyph glyph-name="dollar" unicode="$" horiz-adv-x="600" 
d="M482 53.5q-58 -52.5 -151 -60.5v-109h-42v108q-69 2 -129 27.5t-106 71.5l21 36q51 -46 101.5 -68.5t111.5 -25.5v296q-68 17 -113 36.5t-75 57t-30 99.5q0 55 27.5 99t77.5 70t114 29v108h42v-109q60 -5 113 -29t92 -66l-21 -35q-74 80 -183 89v-316q66 -16 109 -34
t71 -52.5t28 -90.5q0 -79 -58 -131.5zM136 447.5q23 -28.5 60 -44.5t92 -30v306q-82 -5 -128.5 -46.5t-46.5 -111.5q0 -45 23 -73.5zM452.5 80q43.5 40 43.5 106q0 56 -42 84t-122 48v-284q77 6 120.5 46z" />
    <glyph glyph-name="percent" unicode="%" horiz-adv-x="926" 
d="M109 338.5q-43 54.5 -43 162.5q0 109 43 163.5t121 54.5t121.5 -54.5t43.5 -162.5q0 -109 -43.5 -163.5t-121.5 -54.5t-121 54.5zM283 0h-51l411 712h50zM319 365q29 44 29 137q0 91 -29 135t-89 44t-89.5 -44t-29.5 -135q0 -92 29.5 -136.5t89.5 -44.5t89 44zM574.5 48
q-43.5 55 -43.5 163q0 109 43.5 163t121.5 54t121.5 -54t43.5 -163q0 -108 -44 -163t-121 -55q-78 0 -121.5 55zM785 74.5q29 43.5 29 136.5q0 92 -29 135.5t-89 43.5t-89.5 -43.5t-29.5 -135.5t29.5 -136t89.5 -44t89 43.5z" />
    <glyph glyph-name="ampersand" unicode="&#x26;" horiz-adv-x="655" 
d="M654 21l-28 -29q-80 46 -133 104q-40 -50 -94.5 -76.5t-119.5 -26.5q-63 0 -111.5 22.5t-75.5 63t-27 93.5q0 62 37 112.5t125 108.5l13 9q-52 62 -70.5 98t-18.5 74q0 66 43 105.5t115 39.5q66 0 105 -36t39 -97q0 -35 -13 -62.5t-45.5 -58t-93.5 -72.5l190 -230
q53 97 54 245h43q-4 -168 -70 -277l2 -3q52 -60 134 -107zM213 510.5q16 -30.5 62 -86.5q77 53 105 86t28 72q0 44 -27 70.5t-72 26.5q-51 0 -81.5 -29t-30.5 -76q0 -33 16 -63.5zM468 127l-202 243q-2 -1 -4 -3t-6 -4q-84 -56 -116.5 -98t-32.5 -94q0 -64 47 -101.5
t127 -37.5q115 0 187 95z" />
    <glyph glyph-name="quotesingle" unicode="'" horiz-adv-x="202" 
d="M88 444l-13 268h52l-11 -268h-28z" />
    <glyph glyph-name="parenleft" unicode="(" horiz-adv-x="284" 
d="M107 266q0 234 103 446h39q-99 -224 -99 -446q0 -221 99 -448h-38q-104 211 -104 448z" />
    <glyph glyph-name="parenright" unicode=")" horiz-adv-x="284" 
d="M35 -182q98 228 98 448q0 221 -98 446h39q103 -215 103 -446q0 -234 -104 -448h-38z" />
    <glyph glyph-name="asterisk" unicode="*" horiz-adv-x="452" 
d="M129 376l-31 23l101 133l-160 50l13 37l157 -55l-4 166h39l-3 -167l159 56l11 -37l-159 -50l101 -133l-32 -23l-95 139z" />
    <glyph glyph-name="plus" unicode="+" horiz-adv-x="600" 
d="M546 306v-40h-227v-226h-38v226h-227v40h227v227h38v-227h227z" />
    <glyph glyph-name="comma" unicode="," horiz-adv-x="214" 
d="M141 71v-56q0 -71 -44 -114l-26 20q19 21 25.5 39.5t7.5 39.5h-31v71h68z" />
    <glyph glyph-name="hyphen" unicode="-" horiz-adv-x="420" 
d="M77 248v39h266v-39h-266z" />
    <glyph glyph-name="period" unicode="." horiz-adv-x="214" 
d="M73 71h68v-71h-68v71z" />
    <glyph glyph-name="slash" unicode="/" horiz-adv-x="259" 
d="M25 -52h-46l254 798h47z" />
    <glyph glyph-name="zero" unicode="0" horiz-adv-x="600" 
d="M121 84.5q-61 92.5 -61 271.5t61 271.5t179 92.5q119 0 179.5 -91.5t60.5 -271.5q0 -179 -61 -272t-179 -93t-179 92.5zM447 112.5q48 79.5 48 244.5t-47.5 243.5t-147.5 78.5q-99 0 -147 -79t-48 -243t48 -244t147 -80t147 79.5z" />
    <glyph glyph-name="one" unicode="1" horiz-adv-x="600" 
d="M343 38h158v-38h-359v38h159v613l-148 -99v48l148 99v7l4 -4l15 10h23v-674z" />
    <glyph glyph-name="two" unicode="2" horiz-adv-x="600" 
d="M534 38v-38h-441v32l256 289q58 65 83 115.5t25 101.5q0 68 -39 105t-111 37q-56 0 -107 -22t-102 -67l-21 35q42 43 104 68.5t124 25.5q91 0 143.5 -48.5t52.5 -132.5q0 -61 -29 -120t-94 -132l-226 -249h382z" />
    <glyph glyph-name="three" unicode="3" horiz-adv-x="600" 
d="M483 303.5q33 -44.5 33 -111.5q0 -92 -59 -145.5t-158 -53.5q-67 0 -128 24.5t-105 69.5l21 35q50 -45 102 -67t111 -22q81 0 126.5 40.5t45.5 115.5q0 76 -47.5 114.5t-139.5 38.5h-71v40h56q88 0 137 42.5t49 119.5q0 65 -39 100.5t-110 35.5q-55 0 -106 -22t-103 -67
l-21 35q42 45 102.5 69.5t126.5 24.5q89 0 142 -47.5t53 -129.5q0 -63 -31 -110t-84 -67q64 -18 97 -62.5z" />
    <glyph glyph-name="four" unicode="4" horiz-adv-x="600" 
d="M558 207v-39h-113v-168h-42v168h-319l-1 -2v2h-25v33l351 511h36v-505h113zM111 207h292v422z" />
    <glyph glyph-name="five" unicode="5" horiz-adv-x="600" 
d="M484 377.5q59 -61.5 59 -162.5q0 -64 -27 -114.5t-77.5 -79t-118.5 -28.5q-63 0 -124 25t-105 69l21 35q100 -89 208 -89q82 0 130.5 50t48.5 133q0 81 -47.5 131.5t-124.5 50.5q-61 0 -104 -24.5t-75 -76.5h-40v415h410v-39h-367v-313q29 38 73.5 58.5t98.5 20.5
q102 0 161 -61.5z" />
    <glyph glyph-name="six" unicode="6" horiz-adv-x="600" 
d="M436 410q51 -28 79 -78.5t28 -116.5q0 -64 -28.5 -114.5t-78.5 -79.5t-114 -29q-124 0 -191 89t-67 253q0 184 68.5 285t192.5 101q60 0 116 -24.5t101 -69.5l-21 -35q-51 46 -98.5 67.5t-98.5 21.5q-102 0 -159.5 -92t-57.5 -255v-37q23 66 80 104t131 38q67 0 118 -28z
M450 82.5q49 50.5 49 133.5q0 82 -50 132t-130 50q-54 0 -96.5 -23t-66 -64.5t-23.5 -94.5q0 -82 52 -133t136 -51q80 0 129 50.5z" />
    <glyph glyph-name="seven" unicode="7" horiz-adv-x="600" 
d="M76 712h447v-31l-342 -681h-46l341 674h-400v38z" />
    <glyph glyph-name="eight" unicode="8" horiz-adv-x="600" 
d="M506 299.5q39 -47.5 39 -113.5q0 -90 -65.5 -141.5t-179.5 -51.5t-179.5 51.5t-65.5 141.5q0 65 40 112.5t109 66.5q-65 19 -99 62.5t-34 104.5q0 56 28.5 99t80.5 66t120 23t120 -23t80.5 -66t28.5 -99q0 -60 -34.5 -104t-98.5 -63q71 -18 110 -65.5zM166 427.5
q50 -40.5 134 -48.5q84 8 134 48.5t50 104.5q0 69 -48 108.5t-136 39.5t-136 -39.5t-48 -108.5q0 -64 50 -104.5zM449 72.5q51 39.5 51 114.5q0 68 -55 108.5t-145 47.5q-90 -7 -145 -47.5t-55 -108.5q0 -75 51 -114.5t149 -39.5t149 39.5z" />
    <glyph glyph-name="nine" unicode="9" horiz-adv-x="600" 
d="M470 631q67 -89 67 -253q0 -184 -68.5 -285t-192.5 -101q-60 0 -116 24.5t-101 69.5l21 35q52 -46 99 -67.5t98 -21.5q102 0 159.5 92t57.5 255v38q-23 -67 -80 -105t-131 -38q-67 0 -118 28t-79 78.5t-28 116.5q0 64 28.5 114.5t79 79.5t113.5 29q124 0 191 -89z
M378.5 337q42.5 23 66 64.5t23.5 94.5q0 82 -52 133t-135 51q-80 0 -129.5 -50.5t-49.5 -133.5q0 -82 50 -132t130 -50q54 0 96.5 23z" />
    <glyph glyph-name="colon" unicode=":" horiz-adv-x="214" 
d="M73 489h68v-71h-68v71zM73 71h68v-71h-68v71z" />
    <glyph glyph-name="semicolon" unicode=";" horiz-adv-x="214" 
d="M73 489h68v-71h-68v71zM73 71h68v-56q0 -71 -44 -114l-26 20q19 21 25.5 39.5t7.5 39.5h-31v71z" />
    <glyph glyph-name="less" unicode="&#x3c;" horiz-adv-x="600" 
d="M546 538v-43l-442 -208l442 -209v-45l-492 235v36z" />
    <glyph glyph-name="equal" unicode="=" horiz-adv-x="600" 
d="M546 407v-40h-492v40h492zM546 205v-40h-492v40h492z" />
    <glyph glyph-name="greater" unicode="&#x3e;" horiz-adv-x="600" 
d="M54 538l492 -234v-36l-492 -235v45l442 209l-442 208v43z" />
    <glyph glyph-name="question" unicode="?" horiz-adv-x="433" 
d="M154 710q36 9 69 9q80 0 129 -41t49 -109q0 -53 -22 -93.5t-67 -96.5q-45 -55 -70 -100t-30 -105l-1 -10h-26v11q0 69 24.5 118.5t70.5 109.5q39 52 57.5 87t18.5 79q0 50 -35.5 80t-96.5 30q-68 0 -137 -41v46q31 17 67 26zM164 0v71h68v-71h-68z" />
    <glyph glyph-name="at" unicode="@" horiz-adv-x="928" 
d="M253 -95.5q-95 53.5 -146.5 150.5t-51.5 225q0 129 55 228.5t150.5 154t213.5 54.5q128 0 218.5 -55t136 -139.5t45.5 -173.5q0 -105 -31 -168.5t-76.5 -89.5t-92.5 -26q-55 0 -83.5 23.5t-29.5 69.5h-2q-25 -43 -65.5 -68t-90.5 -25q-62 0 -102.5 45t-40.5 128
q0 68 26.5 129t75 98.5t112.5 37.5q52 0 89.5 -26t45.5 -65h1l12 77h43l-51 -293q-3 -18 -3 -33q0 -35 18 -48t53 -13q34 0 68 24t57.5 79.5t23.5 143.5q0 77 -39 152t-120 124t-198 49q-106 0 -192.5 -48.5t-136 -138t-49.5 -207.5q0 -117 45.5 -204t131 -134.5
t202.5 -47.5q91 0 158.5 28t104.5 78h58q-45 -70 -128.5 -109.5t-192.5 -39.5q-127 0 -222 53.5zM508.5 135.5q41.5 33.5 63 87t21.5 112.5q0 63 -32 96.5t-85 33.5t-93.5 -32t-62 -83t-21.5 -107q0 -69 32.5 -105t79.5 -36q56 0 97.5 33.5z" />
    <glyph glyph-name="A" unicode="A" horiz-adv-x="721" 
d="M642 0l-85 197h-394l-84 -197h-45l306 712h41l306 -712h-45zM180 237h360l-180 420z" />
    <glyph glyph-name="B" unicode="B" horiz-adv-x="672" 
d="M567 304.5q34 -44.5 34 -111.5q0 -95 -59.5 -144t-170.5 -49h-274v712h263q108 0 166.5 -48t58.5 -139q0 -58 -29.5 -99t-83.5 -61q61 -16 95 -60.5zM139 382h216q91 0 138 38t47 111q0 142 -185 142h-216v-291zM510.5 75.5q45.5 36.5 45.5 112.5q0 153 -186 153h-231
v-302h231q95 0 140.5 36.5z" />
    <glyph glyph-name="C" unicode="C" horiz-adv-x="684" 
d="M216 35.5q-71 43.5 -109.5 126t-38.5 195.5t38.5 194.5t109.5 125t169 43.5q150 0 242 -96l-21 -35q-53 48 -104.5 69t-117.5 21q-129 0 -200.5 -84.5t-71.5 -237.5q0 -154 71 -239t201 -85q66 0 117.5 21t104.5 69l21 -35q-92 -96 -242 -96q-98 0 -169 43.5z" />
    <glyph glyph-name="D" unicode="D" horiz-adv-x="733" 
d="M97 712h219q168 0 258.5 -92t90.5 -263t-91 -264t-258 -93h-219v712zM315 38q151 0 227.5 80.5t76.5 238.5t-76.5 237.5t-227.5 79.5h-177v-636h177z" />
    <glyph glyph-name="E" unicode="E" horiz-adv-x="582" 
d="M97 0v712h428v-39h-386v-292h366v-40h-366v-302h386v-39h-428z" />
    <glyph glyph-name="F" unicode="F" horiz-adv-x="554" 
d="M97 0v712h418v-39h-377v-292h357v-39h-357v-342h-41z" />
    <glyph glyph-name="G" unicode="G" horiz-adv-x="723" 
d="M634 359v-319q-37 -21 -104 -34.5t-136 -13.5q-102 0 -175.5 43.5t-112 125.5t-38.5 196t38.5 195.5t111 124.5t172.5 43q149 0 239 -96l-21 -35q-52 48 -104 69t-117 21q-131 0 -203 -84t-72 -238q0 -157 73 -241t209 -84q55 0 107.5 10t93.5 27v249h-197v41h236z" />
    <glyph glyph-name="H" unicode="H" horiz-adv-x="759" 
d="M139 712v-331h479v-39h-479v-342h-42v712h42zM619 712h43v-712h-43v712z" />
    <glyph glyph-name="I" unicode="I" horiz-adv-x="235" 
d="M97 0v712h41v-712h-41z" />
    <glyph glyph-name="J" unicode="J" horiz-adv-x="300" 
d="M-8 -137q42 -9 72 -9q53 0 75.5 32.5t22.5 108.5v717h41v-719q0 -96 -32 -137.5t-104 -41.5q-30 0 -75 8v41z" />
    <glyph glyph-name="K" unicode="K" horiz-adv-x="605" 
d="M599 0h-62l-399 344v-344h-41v712h41v-333l378 333h60l-395 -350z" />
    <glyph glyph-name="L" unicode="L" horiz-adv-x="532" 
d="M97 0v712h41v-674h379v-38h-420z" />
    <glyph glyph-name="M" unicode="M" horiz-adv-x="848" 
d="M715 712h36v-712h-41l1 610l-269 -610h-34l-271 605l1 -605h-41v712h36l292 -663z" />
    <glyph glyph-name="N" unicode="N" horiz-adv-x="739" 
d="M603 712h39v-712h-34l-472 641v-641h-39v712h35l471 -639v639z" />
    <glyph glyph-name="O" unicode="O" horiz-adv-x="759" 
d="M213.5 36q-70.5 44 -108 126t-37.5 194t37.5 194t107.5 126t166 44t166.5 -44t108 -125.5t37.5 -193.5t-37.5 -194.5t-108 -126.5t-166.5 -44q-95 0 -165.5 44zM575 118q70 85 70 239t-69.5 238t-196.5 84t-196.5 -84.5t-69.5 -237.5t70 -238.5t196 -85.5t196 85z" />
    <glyph glyph-name="P" unicode="P" horiz-adv-x="638" 
d="M97 712h263q105 0 165 -51t60 -141t-60.5 -142t-164.5 -52h-222v-326h-41v712zM359 367q88 0 134.5 40t46.5 113t-46.5 113t-134.5 40h-221v-306h221z" />
    <glyph glyph-name="Q" unicode="Q" horiz-adv-x="759" 
d="M600 -154l-29 -37q-37 29 -77.5 79.5t-72.5 105.5q-28 -2 -42 -2q-95 0 -165.5 44t-108 126t-37.5 194t37.5 194t107.5 126t166 44t166.5 -44t108 -125.5t37.5 -193.5q0 -140 -58 -232.5t-163 -120.5q50 -90 130 -158zM183 118.5q70 -85.5 196 -85.5t196 85t70 239
t-69.5 238t-196.5 84t-196.5 -84.5t-69.5 -237.5t70 -238.5z" />
    <glyph glyph-name="R" unicode="R" horiz-adv-x="684" 
d="M633 0h-43l-87 237q-19 52 -50.5 69.5t-93.5 17.5h-221v-324h-41v712h265q110 0 170 -49.5t60 -142.5q0 -69 -36.5 -115t-103.5 -64q31 -5 53 -26.5t36 -62.5zM363 364q91 0 137.5 40t46.5 117q0 152 -184 152h-224v-309h224z" />
    <glyph glyph-name="S" unicode="S" horiz-adv-x="604" 
d="M164.5 15q-62.5 23 -112.5 73l21 35q53 -49 107 -69.5t131 -20.5q95 0 147.5 40.5t52.5 113.5q0 42 -26 68.5t-64.5 40t-102.5 28.5q-85 20 -132.5 37t-84.5 56t-37 106q0 59 30 103.5t85.5 69t130.5 24.5q148 0 239 -96l-21 -35q-51 47 -103 68.5t-115 21.5
q-96 0 -149.5 -41.5t-53.5 -116.5q0 -64 46.5 -95t130.5 -52l45 -11q73 -17 118 -33.5t76.5 -51.5t31.5 -94q0 -56 -30 -99.5t-85.5 -68t-128.5 -24.5q-84 0 -146.5 23z" />
    <glyph glyph-name="T" unicode="T" horiz-adv-x="590" 
d="M274 0v674h-262v38h566v-38h-263v-674h-41z" />
    <glyph glyph-name="U" unicode="U" horiz-adv-x="722" 
d="M160.5 62.5q-68.5 70.5 -68.5 207.5v442h41v-449q0 -230 229 -230q112 0 169.5 58t57.5 172v449h42v-442q0 -137 -68.5 -207.5t-200.5 -70.5q-133 0 -201.5 70.5z" />
    <glyph glyph-name="V" unicode="V" horiz-adv-x="677" 
d="M621 712h45l-307 -712h-42l-305 712h44l283 -658z" />
    <glyph glyph-name="W" unicode="W" horiz-adv-x="1104" 
d="M1019 712h43l-247 -712h-39l-224 643l-225 -643h-38l-247 712h42l224 -652l225 652l37 -1l224 -650z" />
    <glyph glyph-name="X" unicode="X" horiz-adv-x="636" 
d="M343 365l269 -365h-49l-244 333l-244 -333h-51l271 367l-255 345h50l230 -313l228 313h49z" />
    <glyph glyph-name="Y" unicode="Y" horiz-adv-x="587" 
d="M585 712l-271 -416v-296h-42v298l-271 414h50l243 -375l243 375h48z" />
    <glyph glyph-name="Z" unicode="Z" horiz-adv-x="585" 
d="M546 39v-39h-479l-1 -2v2h-24v31l444 642h-444v39h471l1 2v-2h22v-31l-442 -642h452z" />
    <glyph glyph-name="bracketleft" unicode="[" horiz-adv-x="284" 
d="M113 -182v894h167v-37h-124v-819h124v-38h-167z" />
    <glyph glyph-name="backslash" unicode="\" horiz-adv-x="259" 
d="M233 -52l-254 798h46l255 -798h-47z" />
    <glyph glyph-name="bracketright" unicode="]" horiz-adv-x="284" 
d="M171 -182h-167v38h124v819h-124v37h167v-894z" />
    <glyph glyph-name="asciicircum" unicode="^" horiz-adv-x="600" 
d="M552 141h-43l-209 441l-209 -441h-42l233 493h36z" />
    <glyph glyph-name="underscore" unicode="_" horiz-adv-x="505" 
d="M4 -33v33h497v-33h-497z" />
    <glyph glyph-name="grave" unicode="`" horiz-adv-x="300" 
d="M133 555l-127 202h63l101 -202h-37z" />
    <glyph glyph-name="a" unicode="a" horiz-adv-x="583" 
d="M495 500v-500h-42v100q-22 -52 -67.5 -79.5t-108.5 -27.5q-67 0 -117.5 31.5t-78 90t-27.5 136.5t28 137t78.5 91.5t116.5 32.5q63 0 108.5 -27t67.5 -79v94h42zM407 91.5q46 57.5 46 161.5q0 105 -46 161.5t-130 56.5t-131 -58t-47 -162q0 -103 47.5 -160t131.5 -57
q83 0 129 57.5z" />
    <glyph glyph-name="b" unicode="b" horiz-adv-x="583" 
d="M423 480.5q51 -31.5 78.5 -90t27.5 -135.5q0 -78 -28 -137.5t-78.5 -92t-116.5 -32.5q-64 0 -108.5 28t-67.5 81v-102h-42v736h41v-335q22 54 67.5 82.5t109.5 28.5q66 0 117 -31.5zM436.5 92.5q46.5 58.5 46.5 162.5q0 103 -46.5 159.5t-130.5 56.5q-85 0 -130.5 -56.5
t-45.5 -161.5t45.5 -162t131.5 -57q83 0 129.5 58.5z" />
    <glyph glyph-name="c" unicode="c" horiz-adv-x="487" 
d="M162.5 25q-51.5 32 -80 90.5t-28.5 135.5t28.5 136.5t80.5 92t121 32.5q50 0 95 -18t75 -49l-20 -36q-41 33 -76 48t-74 15q-86 0 -135.5 -59.5t-49.5 -162.5q0 -102 49 -159t135 -57q39 0 74.5 14.5t76.5 47.5l20 -35q-32 -32 -77.5 -50t-93.5 -18q-69 0 -120.5 32z" />
    <glyph glyph-name="d" unicode="d" horiz-adv-x="583" 
d="M495 736v-736h-42v100q-22 -52 -67.5 -79.5t-108.5 -27.5q-66 0 -116.5 32.5t-78.5 92t-28 137.5q0 77 27.5 135.5t78 90t117.5 31.5q63 0 108.5 -27t67.5 -79v330h42zM407 91.5q46 57.5 46 161.5t-46 161t-129 57q-84 0 -131.5 -56.5t-47.5 -159.5q0 -104 47.5 -162.5
t130.5 -58.5q84 0 130 57.5z" />
    <glyph glyph-name="e" unicode="e" horiz-adv-x="541" 
d="M101 261v-9q0 -105 49.5 -161.5t141.5 -56.5q47 0 88 15.5t81 49.5l20 -36q-32 -32 -82.5 -51t-104.5 -19q-111 0 -175.5 69t-64.5 190q0 77 29 136t81.5 91.5t120.5 32.5q96 0 150.5 -63t54.5 -176v-12h-389zM163.5 428.5q-47.5 -45.5 -59.5 -126.5h344q-6 83 -48 127.5
t-115 44.5q-74 0 -121.5 -45.5z" />
    <glyph glyph-name="f" unicode="f" horiz-adv-x="311" 
d="M173 675.5q-23 -23.5 -23 -86.5v-89h133v-36h-133v-464h-42v464h-100v36h100v102q0 70 34 104t93 34q28 0 58 -8v-41q-27 8 -53 8q-44 0 -67 -23.5z" />
    <glyph glyph-name="g" unicode="g" horiz-adv-x="587" 
d="M499 500v-507q0 -107 -50.5 -161.5t-149.5 -54.5q-112 0 -192 56l9 40q50 -30 90 -42.5t95 -12.5q77 0 117 43.5t40 126.5v137q-22 -54 -68 -82t-111 -28q-66 0 -117 31.5t-79.5 88t-28.5 129.5t28.5 129.5t79.5 87.5t117 31q64 0 109.5 -27t68.5 -79v94h42zM409.5 112.5
q47.5 55.5 47.5 151.5q0 97 -47.5 152t-130.5 55q-84 0 -132 -55t-48 -152t48 -152t132 -55q83 0 130.5 55.5z" />
    <glyph glyph-name="h" unicode="h" horiz-adv-x="570" 
d="M485 322v-322h-42v318q0 80 -32.5 117t-103.5 37q-81 0 -129.5 -49t-48.5 -132v-291h-41v736h41v-326q22 50 68 76t106 26q182 0 182 -190z" />
    <glyph glyph-name="i" unicode="i" horiz-adv-x="218" 
d="M88 0v500h41v-500h-41zM77 700h65v-64h-65v64z" />
    <glyph glyph-name="j" unicode="j" horiz-adv-x="218" 
d="M0 -178q41 0 64.5 24t23.5 87v567h41v-580q0 -70 -33.5 -104t-90.5 -34q-21 0 -54 7v42q26 -9 49 -9zM77 700h65v-64h-65v64z" />
    <glyph glyph-name="k" unicode="k" horiz-adv-x="482" 
d="M483 0h-62l-292 248v-248h-41v736h41v-471l264 235h59l-273 -240z" />
    <glyph glyph-name="l" unicode="l" horiz-adv-x="218" 
d="M88 0v736h41v-736h-41z" />
    <glyph glyph-name="m" unicode="m" horiz-adv-x="860" 
d="M775 322v-322h-42v318q0 80 -29 117t-92 37q-73 0 -116 -49t-43 -132v-291h-42v318q0 80 -29 117t-93 37q-74 0 -117 -49t-43 -132v-291h-41v362q0 78 -8 138h40l7 -94q20 51 61.5 78.5t97.5 27.5q122 0 156 -99q21 47 65.5 73t102.5 26q165 0 165 -190z" />
    <glyph glyph-name="n" unicode="n" horiz-adv-x="570" 
d="M485 322v-322h-42v318q0 80 -32.5 117t-103.5 37q-81 0 -129.5 -49t-48.5 -132v-291h-41v362q0 78 -8 138h40l7 -95q21 52 68 79.5t108 27.5q182 0 182 -190z" />
    <glyph glyph-name="o" unicode="o" horiz-adv-x="553" 
d="M160 25q-51 32 -78.5 91t-27.5 137t27.5 136.5t78.5 90.5t117 32t116.5 -32t78 -90.5t27.5 -136.5t-27.5 -137t-78 -91t-116.5 -32t-117 32zM407.5 91q46.5 57 46.5 162q0 102 -47 160t-130 58t-130.5 -57.5t-47.5 -160.5q0 -106 46 -162.5t131 -56.5t131.5 57z" />
    <glyph glyph-name="p" unicode="p" horiz-adv-x="583" 
d="M422.5 479.5q50.5 -32.5 78.5 -91.5t28 -137t-27.5 -136t-78.5 -90t-117 -32q-65 0 -110 28.5t-67 83.5v-321h-41v578q0 78 -8 138h40l8 -102q21 55 67 84.5t111 29.5q66 0 116.5 -32.5zM436.5 91q46.5 57 46.5 160q0 104 -46.5 162t-129.5 58q-86 0 -131.5 -56.5
t-45.5 -161.5t45.5 -162t130.5 -57q84 0 130.5 57z" />
    <glyph glyph-name="q" unicode="q" horiz-adv-x="583" 
d="M502 500q-7 -63 -7 -138v-578h-42v316q-22 -52 -67.5 -79.5t-108.5 -27.5q-67 0 -117.5 31.5t-78 90t-27.5 136.5t28 137t78.5 91.5t116.5 32.5q64 0 109.5 -28.5t68.5 -81.5l9 98h38zM407 91.5q46 57.5 46 161.5q0 105 -46 161.5t-130 56.5t-131 -58t-47 -162
q0 -103 47.5 -160t131.5 -57q83 0 129 57.5z" />
    <glyph glyph-name="r" unicode="r" horiz-adv-x="336" 
d="M329 509l-3 -38q-12 2 -40 2q-55 0 -90 -25.5t-51 -65t-16 -82.5v-300h-41v362q0 78 -8 138h40l7 -94q20 52 62.5 79t97.5 27q28 0 42 -3z" />
    <glyph glyph-name="s" unicode="s" horiz-adv-x="492" 
d="M58 61l19 35q40 -34 78.5 -47.5t91.5 -13.5q67 0 102 23.5t35 68.5q0 36 -23 57.5t-74 34.5l-85 20q-57 13 -92 49t-35 82q0 64 48.5 103t130.5 39q53 0 97.5 -17.5t71.5 -49.5l-20 -36q-34 31 -70 46.5t-79 15.5q-63 0 -97.5 -25t-34.5 -70q0 -38 22 -61t68 -34l86 -21
q66 -15 99 -48t33 -82q0 -61 -50.5 -99t-135.5 -38q-118 0 -186 68z" />
    <glyph glyph-name="t" unicode="t" horiz-adv-x="324" 
d="M150 464v-319q0 -64 23.5 -87.5t69.5 -23.5q30 0 56 9v-41q-30 -8 -60 -8q-60 0 -95.5 33.5t-35.5 103.5v333h-100v36h100v136l42 18v-154h152v-36h-152z" />
    <glyph glyph-name="u" unicode="u" horiz-adv-x="561" 
d="M473 500v-500h-40v95q-24 -49 -69.5 -75.5t-102.5 -26.5q-86 0 -131 48.5t-45 142.5v316h41v-312q0 -79 32.5 -116.5t99.5 -37.5q79 0 126.5 49.5t47.5 131.5v285h41z" />
    <glyph glyph-name="v" unicode="v" horiz-adv-x="520" 
d="M454 500h43l-213 -500h-49l-211 500h45l192 -462z" />
    <glyph glyph-name="w" unicode="w" horiz-adv-x="857" 
d="M772 500h44l-177 -500h-50l-160 449l-161 -449h-51l-175 500h46l153 -451l163 451h52l158 -450z" />
    <glyph glyph-name="x" unicode="x" horiz-adv-x="522" 
d="M289 258l203 -258h-53l-178 222l-177 -222h-54l205 258l-195 242h55l166 -208l166 208h55z" />
    <glyph glyph-name="y" unicode="y" horiz-adv-x="520" 
d="M497 500l-236 -557q-34 -80 -84 -117t-125 -53l-8 34q72 17 110 45t63 89l21 53l-214 506h45l192 -462l193 462h43z" />
    <glyph glyph-name="z" unicode="z" horiz-adv-x="512" 
d="M109 37h355v-37h-413v28l349 436h-334v36h386v-34z" />
    <glyph glyph-name="braceleft" unicode="{" horiz-adv-x="321" 
d="M173.5 296.5q-19.5 -24.5 -48.5 -30.5q29 -7 48.5 -31.5t19.5 -67.5v-237q0 -36 16.5 -55t47.5 -19h60v-38h-56q-55 0 -83 29.5t-28 84.5v234q0 40 -17 60t-59 27l-19 4v18l19 3q43 7 59.5 27t16.5 61v232q0 54 31 84t80 30h56v-37h-60q-31 0 -47.5 -19t-16.5 -56v-235
q0 -44 -19.5 -68.5z" />
    <glyph glyph-name="bar" unicode="|" horiz-adv-x="248" 
d="M102 -182v894h44v-894h-44z" />
    <glyph glyph-name="braceright" unicode="}" horiz-adv-x="322" 
d="M267 275v-18l-19 -4q-43 -7 -60 -27t-17 -60v-234q0 -55 -28 -84.5t-82 -29.5h-57v38h60q31 0 47.5 19t16.5 55v237q0 43 19.5 67.5t49.5 31.5q-29 6 -49 30.5t-20 68.5v235q0 37 -16.5 56t-47.5 19h-60v37h57q48 0 79 -30t31 -84v-232q0 -41 17 -61t60 -27z" />
    <glyph glyph-name="asciitilde" unicode="~" horiz-adv-x="600" 
d="M546 316q-21 -46 -51.5 -69.5t-74.5 -23.5q-34 0 -64 12t-76 37q-35 20 -56.5 29t-41.5 9q-35 0 -56.5 -19t-36.5 -51l-35 16q40 92 126 92q34 0 64 -12t76 -37q38 -20 58 -28.5t40 -8.5q35 0 56.5 18.5t36.5 50.5z" />
    <glyph glyph-name="uni00A0" unicode="&#xa0;" horiz-adv-x="250" 
 />
    <glyph glyph-name="exclamdown" unicode="&#xa1;" horiz-adv-x="214" 
d="M73 418v71h68v-71h-68zM93 326h27l13 -508h-53z" />
    <glyph glyph-name="cent" unicode="&#xa2;" horiz-adv-x="600" 
d="M408 50.5q33 14.5 73 45.5l19 -35q-29 -30 -71.5 -48t-89.5 -20v-112h-41v114q-90 11 -144.5 80.5t-54.5 175.5q0 107 54.5 177t144.5 82v114h41v-112q47 -2 90 -19.5t71 -47.5l-19 -36q-40 31 -73.5 46.5t-68.5 16.5v-438q36 2 69 16.5zM185 103q41 -56 113 -67v434
q-72 -11 -113 -69.5t-41 -150.5q0 -91 41 -147z" />
    <glyph glyph-name="sterling" unicode="&#xa3;" horiz-adv-x="600" 
d="M186 99.5q-18 -38.5 -61 -61.5h433v-38h-509v30q60 28 86.5 64.5t26.5 92.5v149h-113v41h113v153q0 89 47.5 139.5t132.5 50.5q61 0 117 -24.5t101 -71.5l-22 -35q-41 44 -92 67.5t-106 23.5q-65 0 -100.5 -40t-35.5 -114v-149h193v-41h-193v-129q0 -69 -18 -107.5z" />
    <glyph glyph-name="currency" unicode="&#xa4;" horiz-adv-x="600" 
d="M528.5 162.5q-14.5 -40.5 -40.5 -73.5l53 -55l-36 -36l-53 54q-31 -26 -70 -40.5t-81 -14.5q-43 0 -82.5 15t-71.5 42l-55 -56l-35 36l55 57q-53 69 -53 156t53 156l-55 58l35 36l54 -57q32 28 72 43t83 15q42 0 81 -14.5t70 -40.5l53 54l36 -36l-53 -55q55 -70 55 -159
q0 -44 -14.5 -84.5zM399.5 64.5q45.5 28.5 72 76.5t26.5 106t-26.5 106.5t-72 76.5t-99.5 28t-99.5 -28.5t-72 -76.5t-26.5 -106q0 -57 26.5 -105.5t72 -77t99.5 -28.5t99.5 28.5z" />
    <glyph glyph-name="yen" unicode="&#xa5;" horiz-adv-x="600" 
d="M598 712l-246 -333h174v-41h-205v-111h205v-40h-205v-187h-42v187h-205v40h205v111h-205v41h175l-247 333h51l245 -333h5l244 333h51z" />
    <glyph glyph-name="brokenbar" unicode="&#xa6;" horiz-adv-x="248" 
d="M102 375v337h44v-337h-44zM102 -182v338h44v-338h-44z" />
    <glyph glyph-name="section" unicode="&#xa7;" horiz-adv-x="518" 
d="M456 112.5q-15 -32.5 -39 -55.5q14 -32 14 -78q0 -75 -48.5 -121.5t-127.5 -46.5q-111 0 -187 66l20 36q43 -33 81 -46.5t86 -13.5q64 0 98.5 33.5t34.5 94.5q0 50 -24 83t-82 62l-78 41q-86 43 -121.5 85t-35.5 100q0 34 14.5 68t38.5 56q-12 29 -12 75q0 76 49 122
t130 46q44 0 88 -18.5t70 -48.5l-20 -36q-39 32 -73.5 47t-67.5 15q-65 0 -99.5 -33.5t-34.5 -95.5q0 -49 23.5 -81t82.5 -63l78 -41q87 -46 122 -87.5t35 -98.5q0 -33 -15 -65.5zM394 93q32 38 32 91q0 38 -26.5 67.5t-94.5 66.5l-72 40q-79 42 -110 79q-31 -37 -31 -91
q0 -37 26.5 -66.5t94.5 -67.5l71 -39q77 -43 110 -80z" />
    <glyph glyph-name="dieresis" unicode="&#xa8;" horiz-adv-x="300" 
d="M39 687h62v-61h-62v61zM202 687h62v-61h-62v61z" />
    <glyph glyph-name="copyright" unicode="&#xa9;" horiz-adv-x="823" 
d="M229 43q-83 48 -130.5 130.5t-47.5 183.5t47.5 183t130 129.5t183.5 47.5t183.5 -47.5t130 -130t47.5 -182.5q0 -101 -47.5 -183.5t-130.5 -130.5t-183 -48t-183 48zM576 73q74 43 116.5 118t42.5 166t-42.5 165t-116.5 117t-164 43t-164.5 -43t-117 -117t-42.5 -165
t42.5 -166t117 -118t164.5 -43t164 43zM272 197q-53 59 -53 160q0 100 53 158.5t144 58.5q41 0 80.5 -15.5t68.5 -42.5l-19 -32q-35 28 -65.5 40t-66.5 12q-72 0 -110.5 -46t-38.5 -133q0 -88 38.5 -134.5t110.5 -46.5q36 0 66.5 12t65.5 40l19 -32q-29 -27 -68.5 -42.5
t-80.5 -15.5q-91 0 -144 59z" />
    <glyph glyph-name="ordfeminine" unicode="&#xaa;" horiz-adv-x="328" 
d="M275 604v-185h-43v45q-13 -23 -36.5 -36.5t-52.5 -13.5q-45 0 -75.5 25.5t-30.5 61.5q0 34 17 52.5t56 26.5t109 8h13v20q0 40 -16 57t-49 17q-53 0 -101 -34l-17 32q24 16 55 26.5t62 10.5q109 0 109 -113zM207 474q25 25 25 67v19h-11q-58 0 -87.5 -6t-40 -17
t-10.5 -31q0 -24 17.5 -40.5t44.5 -16.5q37 0 62 25z" />
    <glyph glyph-name="guillemotleft" unicode="&#xab;" horiz-adv-x="398" 
d="M159 89l-130 178l132 180h47l-128 -179l124 -179h-45zM319 89l-130 178l132 180h47l-128 -179l124 -179h-45z" />
    <glyph glyph-name="logicalnot" unicode="&#xac;" horiz-adv-x="600" 
d="M546 413v-253h-36v214h-456v39h492z" />
    <glyph glyph-name="uni00AD" unicode="&#xad;" horiz-adv-x="420" 
d="M77 248v39h266v-39h-266z" />
    <glyph glyph-name="registered" unicode="&#xae;" horiz-adv-x="823" 
d="M595.5 669.5q82.5 -47.5 130 -130t47.5 -182.5q0 -101 -47.5 -183.5t-130.5 -130.5t-183 -48t-183 48t-130.5 130.5t-47.5 183.5t47.5 183t130 129.5t183.5 47.5t183.5 -47.5zM576 73q74 43 116.5 118t42.5 166t-42.5 165t-116.5 117t-164 43t-164.5 -43t-117 -117
t-42.5 -165t42.5 -166t117 -118t164.5 -43t164 43zM513 284l90 -141h-47l-86 136q-17 26 -35 35.5t-50 9.5h-69v-181h-42v426h165q66 0 102.5 -32t36.5 -90q0 -51 -30 -81.5t-85 -36.5q27 -8 50 -45zM434 363q52 0 76.5 20.5t24.5 63.5q0 44 -24.5 64.5t-76.5 20.5h-118
v-169h118z" />
    <glyph glyph-name="macron" unicode="&#xaf;" horiz-adv-x="300" 
d="M4 635v44h295v-44h-295z" />
    <glyph glyph-name="degree" unicode="&#xb0;" horiz-adv-x="368" 
d="M111.5 449q-32.5 19 -51.5 52t-19 73t19 72.5t52 51.5t72 19t71.5 -19t51 -51.5t18.5 -72.5t-18.5 -73t-51 -52t-71.5 -19q-40 0 -72.5 19zM255.5 499.5q27.5 28.5 27.5 74.5q0 45 -28 74t-71 29q-44 0 -71.5 -29t-27.5 -74q0 -46 27.5 -74.5t71.5 -28.5t71.5 28.5z" />
    <glyph glyph-name="plusminus" unicode="&#xb1;" horiz-adv-x="600" 
d="M319 343h227v-39h-227v-190h-38v190h-227v39h227v190h38v-190zM54 0v40h492v-40h-492z" />
    <glyph glyph-name="uni00B2" unicode="&#xb2;" horiz-adv-x="380" 
d="M329 322v-37h-271v32l149 168q31 34 46 62t15 57q0 36 -21 55.5t-57 19.5q-27 0 -59.5 -14t-61.5 -38l-28 31q30 26 68.5 42t79.5 16q58 0 90 -31t32 -80q0 -36 -17 -71t-53 -74l-126 -138h214z" />
    <glyph glyph-name="uni00B3" unicode="&#xb3;" horiz-adv-x="380" 
d="M298 468q20 -26 20 -67q0 -57 -37 -88t-97 -31q-42 0 -80.5 16.5t-67.5 42.5l28 30q29 -24 61 -37.5t59 -13.5q42 0 67.5 20t25.5 62q0 82 -102 82h-48v36h38q47 0 74 21.5t27 62.5q0 36 -21.5 55.5t-55.5 19.5q-59 0 -120 -52l-28 31q30 26 68.5 42t79.5 16q57 0 89 -30
t32 -79q0 -37 -19.5 -63.5t-49.5 -39.5q37 -10 57 -36z" />
    <glyph glyph-name="acute" unicode="&#xb4;" horiz-adv-x="300" 
d="M170 555h-37l101 202h63z" />
    <glyph glyph-name="uni00B5" unicode="&#xb5;" horiz-adv-x="561" 
d="M473 500v-500h-40v95q-24 -49 -69.5 -75.5t-102.5 -26.5q-89 0 -135 47v-256h-41v716h41v-312q0 -79 32.5 -116.5t99.5 -37.5q79 0 126.5 49.5t47.5 131.5v285h41z" />
    <glyph glyph-name="paragraph" unicode="&#xb6;" horiz-adv-x="561" 
d="M464 -182h-49v849h-126v-849h-50v520q-56 0 -98 24t-65 67t-23 96q0 54 23 96.5t65.5 66.5t99.5 24h223v-894z" />
    <glyph glyph-name="periodcentered" unicode="&#xb7;" horiz-adv-x="214" 
d="M73 303h68v-71h-68v71z" />
    <glyph glyph-name="cedilla" unicode="&#xb8;" horiz-adv-x="300" 
d="M245.5 -58.5q22.5 -17.5 22.5 -52.5q0 -36 -28.5 -58.5t-77.5 -22.5q-22 0 -45.5 4.5t-40.5 14.5l14 35q32 -14 74 -14q30 0 45.5 11t15.5 30q0 15 -9 23t-27 8q-24 0 -52 -11l-19 14l10 97h43l-6 -65q13 4 30 4q28 0 50.5 -17.5z" />
    <glyph glyph-name="uni00B9" unicode="&#xb9;" horiz-adv-x="380" 
d="M235 322h74v-37h-189v37h75v339l-70 -47v49l75 49h35v-390z" />
    <glyph glyph-name="ordmasculine" unicode="&#xba;" horiz-adv-x="328" 
d="M63.5 455q-37.5 41 -37.5 111t37.5 110.5t99.5 40.5t100 -40.5t38 -110.5t-38 -111t-100 -41t-99.5 41zM233.5 479.5q23.5 29.5 23.5 86.5q0 55 -24 85.5t-70 30.5q-45 0 -68.5 -30.5t-23.5 -85.5q0 -116 92 -116q47 0 70.5 29.5z" />
    <glyph glyph-name="guillemotright" unicode="&#xbb;" horiz-adv-x="398" 
d="M79 89h-46l125 179l-128 179h47l132 -180zM239 89h-46l125 179l-128 179h47l132 -180z" />
    <glyph glyph-name="onequarter" unicode="&#xbc;" horiz-adv-x="920" 
d="M235 322h74v-37h-189v37h75v339l-70 -47v49l75 49h35v-390zM267 -22l-39 21l426 735l37 -21zM890 132v-37h-64v-95h-46v95h-197v33l206 299h37v-295h64zM631 132h149v216z" />
    <glyph glyph-name="onehalf" unicode="&#xbd;" horiz-adv-x="920" 
d="M235 322h74v-37h-189v37h75v339l-70 -47v49l75 49h35v-390zM267 -22l-39 21l426 735l37 -21zM869 37v-37h-271v32l149 168q31 34 46 62t15 57q0 36 -21 55.5t-57 19.5q-27 0 -59.5 -14t-61.5 -38l-28 31q30 26 68.5 42t79.5 16q58 0 90 -31t32 -80q0 -36 -17 -71t-53 -74
l-126 -138h214z" />
    <glyph glyph-name="threequarters" unicode="&#xbe;" horiz-adv-x="920" 
d="M298 468q20 -26 20 -67q0 -57 -37 -88t-97 -31q-42 0 -80.5 16.5t-67.5 42.5l28 30q29 -24 61 -37.5t59 -13.5q42 0 67.5 20t25.5 62q0 82 -102 82h-48v36h38q47 0 74 21.5t27 62.5q0 36 -21.5 55.5t-55.5 19.5q-59 0 -120 -52l-28 31q30 26 68.5 42t79.5 16q57 0 89 -30
t32 -79q0 -37 -19.5 -63.5t-49.5 -39.5q37 -10 57 -36zM267 -22l-39 21l426 735l37 -21zM890 132v-37h-64v-95h-46v95h-197v33l206 299h37v-295h64zM631 132h149v216z" />
    <glyph glyph-name="questiondown" unicode="&#xbf;" horiz-adv-x="433" 
d="M200 418v71h70v-71h-70zM80.5 -148q-49.5 41 -49.5 107q0 37 12 66.5t29 51t48 53.5t50 55t33.5 56t17.5 75v9h28v-11q0 -46 -13 -82t-32 -62t-50 -59q-40 -44 -59 -75.5t-19 -76.5q0 -48 36.5 -77.5t95.5 -29.5q69 0 138 40v-47q-65 -34 -136 -34q-80 0 -129.5 41z" />
    <glyph glyph-name="Agrave" unicode="&#xc0;" horiz-adv-x="721" 
d="M642 0l-85 197h-394l-84 -197h-45l306 712h41l306 -712h-45zM180 237h360l-180 420zM342 773l-125 150h61l101 -150h-37z" />
    <glyph glyph-name="Aacute" unicode="&#xc1;" horiz-adv-x="721" 
d="M642 0l-85 197h-394l-84 -197h-45l306 712h41l306 -712h-45zM180 237h360l-180 420zM379 773h-37l101 150h61z" />
    <glyph glyph-name="Acircumflex" unicode="&#xc2;" horiz-adv-x="721" 
d="M642 0l-85 197h-394l-84 -197h-45l306 712h41l306 -712h-45zM180 237h360l-180 420zM281 773h-52l113 150h37l113 -150h-52l-79 114z" />
    <glyph glyph-name="Atilde" unicode="&#xc3;" horiz-adv-x="721" 
d="M642 0l-85 197h-394l-84 -197h-45l306 712h41l306 -712h-45zM180 237h360l-180 420zM226 873.5q21 26.5 59 26.5q22 0 40.5 -8.5t47.5 -26.5q20 -13 33.5 -19.5t25.5 -6.5q25 0 38 17.5t12 40.5h34q0 -44 -21 -71t-59 -27q-22 0 -42 9t-46 26q-22 13 -35 19t-24 6
q-25 0 -38 -17t-12 -40h-34q0 45 21 71.5z" />
    <glyph glyph-name="Adieresis" unicode="&#xc4;" horiz-adv-x="721" 
d="M642 0l-85 197h-394l-84 -197h-45l306 712h41l306 -712h-45zM180 237h360l-180 420zM248 880h62v-61h-62v61zM411 880h62v-61h-62v61z" />
    <glyph glyph-name="Aring" unicode="&#xc5;" horiz-adv-x="721" 
d="M557 197h-394l-84 -197h-45l296 688q-30 9 -48.5 33.5t-18.5 56.5q0 40 28.5 68t69.5 28q40 0 69 -28t29 -68q0 -32 -19 -56.5t-49 -33.5l296 -688h-45zM323.5 739.5q14.5 -15.5 37.5 -15.5q22 0 36.5 15.5t14.5 38.5t-14.5 38t-36.5 15q-23 0 -37.5 -15t-14.5 -38
t14.5 -38.5zM180 237h360l-180 420z" />
    <glyph glyph-name="AE" unicode="&#xc6;" horiz-adv-x="996" 
d="M939 672h-403l29 -291h354v-40h-350l29 -301h341v-40h-374l-19 197h-370l-117 -197h-45l424 712h501v-40zM542 237l-43 435h-42l-258 -435h343z" />
    <glyph glyph-name="Ccedilla" unicode="&#xc7;" horiz-adv-x="684" 
d="M501.5 54q51.5 21 104.5 69l21 -35q-90 -93 -231 -96l-3 -37q13 4 30 4q28 0 50.5 -17.5t22.5 -52.5q0 -36 -28.5 -58.5t-77.5 -22.5q-22 0 -45.5 4.5t-40.5 14.5l14 35q32 -14 74 -14q30 0 45.5 11t15.5 30q0 15 -9 23t-27 8q-24 0 -52 -11l-19 14l7 70q-88 7 -152 52.5
t-98.5 125t-34.5 186.5q0 113 38.5 194.5t109.5 125t169 43.5q150 0 242 -96l-21 -35q-53 48 -104.5 69t-117.5 21q-129 0 -200.5 -84.5t-71.5 -237.5q0 -154 71 -239t201 -85q66 0 117.5 21z" />
    <glyph glyph-name="Egrave" unicode="&#xc8;" horiz-adv-x="582" 
d="M97 0v712h428v-39h-386v-292h366v-40h-366v-302h386v-39h-428zM304 773l-125 150h61l101 -150h-37z" />
    <glyph glyph-name="Eacute" unicode="&#xc9;" horiz-adv-x="582" 
d="M97 0v712h428v-39h-386v-292h366v-40h-366v-302h386v-39h-428zM341 773h-37l101 150h61z" />
    <glyph glyph-name="Ecircumflex" unicode="&#xca;" horiz-adv-x="582" 
d="M97 0v712h428v-39h-386v-292h366v-40h-366v-302h386v-39h-428zM243 773h-52l113 150h37l113 -150h-52l-79 114z" />
    <glyph glyph-name="Edieresis" unicode="&#xcb;" horiz-adv-x="582" 
d="M97 0v712h428v-39h-386v-292h366v-40h-366v-302h386v-39h-428zM210 880h62v-61h-62v61zM373 880h62v-61h-62v61z" />
    <glyph glyph-name="Igrave" unicode="&#xcc;" horiz-adv-x="235" 
d="M97 0v712h41v-712h-41zM99 773l-125 150h61l101 -150h-37z" />
    <glyph glyph-name="Iacute" unicode="&#xcd;" horiz-adv-x="235" 
d="M97 0v712h41v-712h-41zM136 773h-37l101 150h61z" />
    <glyph glyph-name="Icircumflex" unicode="&#xce;" horiz-adv-x="235" 
d="M97 0v712h41v-712h-41zM38 773h-52l113 150h37l113 -150h-52l-79 114z" />
    <glyph glyph-name="Idieresis" unicode="&#xcf;" horiz-adv-x="235" 
d="M97 0v712h41v-712h-41zM5 880h62v-61h-62v61zM168 880h62v-61h-62v61z" />
    <glyph glyph-name="Eth" unicode="&#xd0;" horiz-adv-x="737" 
d="M578.5 620.5q90.5 -91.5 90.5 -263.5q0 -171 -91 -264t-258 -93h-219v343h-97v38h97v331h219q168 0 258.5 -91.5zM546.5 118.5q76.5 80.5 76.5 238.5t-76.5 237.5t-227.5 79.5h-176v-293h198v-38h-198v-305h176q151 0 227.5 80.5z" />
    <glyph glyph-name="Ntilde" unicode="&#xd1;" horiz-adv-x="739" 
d="M603 712h39v-712h-34l-472 641v-641h-39v712h35l471 -639v639zM235 873.5q21 26.5 59 26.5q22 0 40.5 -8.5t47.5 -26.5q20 -13 33.5 -19.5t25.5 -6.5q25 0 38 17.5t12 40.5h34q0 -44 -21 -71t-59 -27q-22 0 -42 9t-46 26q-22 13 -35 19t-24 6q-25 0 -38 -17t-12 -40h-34
q0 45 21 71.5z" />
    <glyph glyph-name="Ograve" unicode="&#xd2;" horiz-adv-x="759" 
d="M213.5 36q-70.5 44 -108 126t-37.5 194t37.5 194t107.5 126t166 44t166.5 -44t108 -125.5t37.5 -193.5t-37.5 -194.5t-108 -126.5t-166.5 -44q-95 0 -165.5 44zM575 118q70 85 70 239t-69.5 238t-196.5 84t-196.5 -84.5t-69.5 -237.5t70 -238.5t196 -85.5t196 85z
M360 773l-125 150h61l101 -150h-37z" />
    <glyph glyph-name="Oacute" unicode="&#xd3;" horiz-adv-x="759" 
d="M213.5 36q-70.5 44 -108 126t-37.5 194t37.5 194t107.5 126t166 44t166.5 -44t108 -125.5t37.5 -193.5t-37.5 -194.5t-108 -126.5t-166.5 -44q-95 0 -165.5 44zM575 118q70 85 70 239t-69.5 238t-196.5 84t-196.5 -84.5t-69.5 -237.5t70 -238.5t196 -85.5t196 85z
M397 773h-37l101 150h61z" />
    <glyph glyph-name="Ocircumflex" unicode="&#xd4;" horiz-adv-x="759" 
d="M213.5 36q-70.5 44 -108 126t-37.5 194t37.5 194t107.5 126t166 44t166.5 -44t108 -125.5t37.5 -193.5t-37.5 -194.5t-108 -126.5t-166.5 -44q-95 0 -165.5 44zM575 118q70 85 70 239t-69.5 238t-196.5 84t-196.5 -84.5t-69.5 -237.5t70 -238.5t196 -85.5t196 85z
M299 773h-52l113 150h37l113 -150h-52l-79 114z" />
    <glyph glyph-name="Otilde" unicode="&#xd5;" horiz-adv-x="759" 
d="M213.5 36q-70.5 44 -108 126t-37.5 194t37.5 194t107.5 126t166 44t166.5 -44t108 -125.5t37.5 -193.5t-37.5 -194.5t-108 -126.5t-166.5 -44q-95 0 -165.5 44zM575 118q70 85 70 239t-69.5 238t-196.5 84t-196.5 -84.5t-69.5 -237.5t70 -238.5t196 -85.5t196 85z
M244 873.5q21 26.5 59 26.5q22 0 40.5 -8.5t47.5 -26.5q20 -13 33.5 -19.5t25.5 -6.5q25 0 38 17.5t12 40.5h34q0 -44 -21 -71t-59 -27q-22 0 -42 9t-46 26q-22 13 -35 19t-24 6q-25 0 -38 -17t-12 -40h-34q0 45 21 71.5z" />
    <glyph glyph-name="Odieresis" unicode="&#xd6;" horiz-adv-x="759" 
d="M213.5 36q-70.5 44 -108 126t-37.5 194t37.5 194t107.5 126t166 44t166.5 -44t108 -125.5t37.5 -193.5t-37.5 -194.5t-108 -126.5t-166.5 -44q-95 0 -165.5 44zM575 118q70 85 70 239t-69.5 238t-196.5 84t-196.5 -84.5t-69.5 -237.5t70 -238.5t196 -85.5t196 85z
M266 880h62v-61h-62v61zM429 880h62v-61h-62v61z" />
    <glyph glyph-name="multiply" unicode="&#xd7;" horiz-adv-x="600" 
d="M536 495l-208 -208l208 -209l-28 -27l-208 208l-208 -208l-28 27l208 209l-208 208l28 28l208 -208l208 208z" />
    <glyph glyph-name="Oslash" unicode="&#xd8;" horiz-adv-x="759" 
d="M661.5 532q29.5 -76 29.5 -175q0 -112 -37.5 -194.5t-108 -126.5t-166.5 -44q-95 0 -165 44l-41 -71l-34 18l44 75q-55 47 -85 123t-30 175q0 112 37.5 194t107.5 126t166 44q95 0 166 -43l41 70l33 -18l-43 -74q56 -47 85.5 -123zM136.5 202.5q23.5 -66.5 68.5 -107.5
l319 546q-61 38 -145 38q-127 0 -196.5 -84.5t-69.5 -237.5q0 -88 23.5 -154.5zM575 118q70 85 70 239q0 88 -23 154t-68 107l-319 -546q60 -39 144 -39q126 0 196 85z" />
    <glyph glyph-name="Ugrave" unicode="&#xd9;" horiz-adv-x="722" 
d="M160.5 62.5q-68.5 70.5 -68.5 207.5v442h41v-449q0 -230 229 -230q112 0 169.5 58t57.5 172v449h42v-442q0 -137 -68.5 -207.5t-200.5 -70.5q-133 0 -201.5 70.5zM343 773l-125 150h61l101 -150h-37z" />
    <glyph glyph-name="Uacute" unicode="&#xda;" horiz-adv-x="722" 
d="M160.5 62.5q-68.5 70.5 -68.5 207.5v442h41v-449q0 -230 229 -230q112 0 169.5 58t57.5 172v449h42v-442q0 -137 -68.5 -207.5t-200.5 -70.5q-133 0 -201.5 70.5zM380 773h-37l101 150h61z" />
    <glyph glyph-name="Ucircumflex" unicode="&#xdb;" horiz-adv-x="722" 
d="M160.5 62.5q-68.5 70.5 -68.5 207.5v442h41v-449q0 -230 229 -230q112 0 169.5 58t57.5 172v449h42v-442q0 -137 -68.5 -207.5t-200.5 -70.5q-133 0 -201.5 70.5zM282 773h-52l113 150h37l113 -150h-52l-79 114z" />
    <glyph glyph-name="Udieresis" unicode="&#xdc;" horiz-adv-x="722" 
d="M160.5 62.5q-68.5 70.5 -68.5 207.5v442h41v-449q0 -230 229 -230q112 0 169.5 58t57.5 172v449h42v-442q0 -137 -68.5 -207.5t-200.5 -70.5q-133 0 -201.5 70.5zM249 880h62v-61h-62v61zM412 880h62v-61h-62v61z" />
    <glyph glyph-name="Yacute" unicode="&#xdd;" horiz-adv-x="587" 
d="M585 712l-271 -416v-296h-42v298l-271 414h50l243 -375l243 375h48zM311 773h-37l101 150h61z" />
    <glyph glyph-name="Thorn" unicode="&#xde;" horiz-adv-x="638" 
d="M528 500q57 -48 57 -136q0 -90 -57.5 -139t-162.5 -49h-226v-176h-42v712h42v-164h226q106 0 163 -48zM540 364q0 74 -43 109.5t-132 35.5h-226v-294h226q175 0 175 149z" />
    <glyph glyph-name="germandbls" unicode="&#xdf;" horiz-adv-x="599" 
d="M501 282.5q61 -56.5 61 -130.5t-47 -116.5t-128 -42.5q-52 0 -99.5 18t-80.5 50l21 35q43 -33 80 -47t78 -15q64 0 97.5 29.5t33.5 87.5q0 63 -58.5 109.5t-204.5 86.5v36q98 40 137.5 89.5t39.5 115.5q0 54 -32.5 82.5t-94.5 28.5q-86 0 -130.5 -46.5t-44.5 -139.5v-513
h-41v511q0 111 56 169.5t159 58.5q80 0 125 -40t45 -113q0 -71 -38.5 -124t-125.5 -91q131 -32 192 -88.5z" />
    <glyph glyph-name="agrave" unicode="&#xe0;" horiz-adv-x="583" 
d="M495 500v-500h-42v100q-22 -52 -67.5 -79.5t-108.5 -27.5q-67 0 -117.5 31.5t-78 90t-27.5 136.5t28 137t78.5 91.5t116.5 32.5q63 0 108.5 -27t67.5 -79v94h42zM407 91.5q46 57.5 46 161.5q0 105 -46 161.5t-130 56.5t-131 -58t-47 -162q0 -103 47.5 -160t131.5 -57
q83 0 129 57.5zM274 566l-127 202h63l101 -202h-37z" />
    <glyph glyph-name="aacute" unicode="&#xe1;" horiz-adv-x="583" 
d="M495 500v-500h-42v100q-22 -52 -67.5 -79.5t-108.5 -27.5q-67 0 -117.5 31.5t-78 90t-27.5 136.5t28 137t78.5 91.5t116.5 32.5q63 0 108.5 -27t67.5 -79v94h42zM407 91.5q46 57.5 46 161.5q0 105 -46 161.5t-130 56.5t-131 -58t-47 -162q0 -103 47.5 -160t131.5 -57
q83 0 129 57.5zM311 566h-37l101 202h63z" />
    <glyph glyph-name="acircumflex" unicode="&#xe2;" horiz-adv-x="583" 
d="M495 500v-500h-42v100q-22 -52 -67.5 -79.5t-108.5 -27.5q-67 0 -117.5 31.5t-78 90t-27.5 136.5t28 137t78.5 91.5t116.5 32.5q63 0 108.5 -27t67.5 -79v94h42zM407 91.5q46 57.5 46 161.5q0 105 -46 161.5t-130 56.5t-131 -58t-47 -162q0 -103 47.5 -160t131.5 -57
q83 0 129 57.5zM213 566h-52l112 202h39l112 -202h-52l-79 159z" />
    <glyph glyph-name="atilde" unicode="&#xe3;" horiz-adv-x="583" 
d="M495 500v-500h-42v100q-22 -52 -67.5 -79.5t-108.5 -27.5q-67 0 -117.5 31.5t-78 90t-27.5 136.5t28 137t78.5 91.5t116.5 32.5q63 0 108.5 -27t67.5 -79v94h42zM407 91.5q46 57.5 46 161.5q0 105 -46 161.5t-130 56.5t-131 -58t-47 -162q0 -103 47.5 -160t131.5 -57
q83 0 129 57.5zM158 692q21 27 59 27q22 0 40.5 -8.5t47.5 -26.5q20 -13 33.5 -19.5t25.5 -6.5q25 0 38 17.5t12 40.5h34q0 -45 -21 -71.5t-59 -26.5q-22 0 -40.5 8.5t-47.5 26.5q-20 13 -33.5 19.5t-25.5 6.5q-25 0 -38 -17.5t-12 -40.5h-34q0 44 21 71z" />
    <glyph glyph-name="adieresis" unicode="&#xe4;" horiz-adv-x="583" 
d="M495 500v-500h-42v100q-22 -52 -67.5 -79.5t-108.5 -27.5q-67 0 -117.5 31.5t-78 90t-27.5 136.5t28 137t78.5 91.5t116.5 32.5q63 0 108.5 -27t67.5 -79v94h42zM407 91.5q46 57.5 46 161.5q0 105 -46 161.5t-130 56.5t-131 -58t-47 -162q0 -103 47.5 -160t131.5 -57
q83 0 129 57.5zM180 698h62v-61h-62v61zM343 698h62v-61h-62v61z" />
    <glyph glyph-name="aring" unicode="&#xe5;" horiz-adv-x="583" 
d="M495 500v-500h-42v100q-22 -52 -67.5 -79.5t-108.5 -27.5q-67 0 -117.5 31.5t-78 90t-27.5 136.5t28 137t78.5 91.5t116.5 32.5q63 0 108.5 -27t67.5 -79v94h42zM407 91.5q46 57.5 46 161.5q0 105 -46 161.5t-130 56.5t-131 -58t-47 -162q0 -103 47.5 -160t131.5 -57
q83 0 129 57.5zM224 599q-28 28 -28 68t28 67.5t69 27.5q40 0 68 -27.5t28 -67.5t-28 -68t-68 -28q-41 0 -69 28zM329.5 628.5q14.5 15.5 14.5 38.5t-14.5 38t-36.5 15t-37 -15t-15 -38t15 -38.5t37 -15.5t36.5 15.5z" />
    <glyph glyph-name="ae" unicode="&#xe6;" horiz-adv-x="890" 
d="M458 261v-7q0 -107 49 -163.5t140 -56.5q82 0 164 65l19 -36q-31 -31 -81 -50.5t-100 -19.5q-79 0 -133.5 38.5t-79.5 110.5q-17 -70 -66 -109.5t-121 -39.5q-50 0 -90 20t-63.5 55t-23.5 80q0 56 29 89.5t94 49t176 15.5h43v22q0 78 -29.5 112.5t-96.5 34.5
q-45 0 -87 -13.5t-88 -41.5l-20 35q36 29 87 45t103 16q138 0 167 -111q28 52 76.5 81.5t109.5 29.5q96 0 149.5 -63.5t53.5 -177.5v-10h-381zM518.5 428q-46.5 -46 -57.5 -126h336q-6 83 -47.5 127.5t-112.5 44.5q-72 0 -118.5 -46zM334 58q37 23 58.5 64t21.5 94v45h-41
q-98 0 -152.5 -11t-77.5 -35t-23 -65q0 -52 36 -83.5t94 -31.5q47 0 84 23z" />
    <glyph glyph-name="ccedilla" unicode="&#xe7;" horiz-adv-x="487" 
d="M381 13q-43 -18 -89 -20l-3 -38q13 4 30 4q28 0 50.5 -17.5t22.5 -52.5q0 -36 -28.5 -58.5t-77.5 -22.5q-22 0 -45.5 4.5t-40.5 14.5l14 35q32 -14 74 -14q30 0 45.5 11t15.5 30q0 15 -9 23t-27 8q-24 0 -52 -11l-19 14l7 72q-89 11 -142 80.5t-53 175.5q0 77 28.5 136.5
t80.5 92t121 32.5q50 0 95 -18t75 -49l-20 -36q-41 33 -76 48t-74 15q-86 0 -135.5 -59.5t-49.5 -162.5q0 -102 49 -159t135 -57q39 0 74.5 14.5t76.5 47.5l20 -35q-30 -30 -73 -48z" />
    <glyph glyph-name="egrave" unicode="&#xe8;" horiz-adv-x="541" 
d="M101 261v-9q0 -105 49.5 -161.5t141.5 -56.5q47 0 88 15.5t81 49.5l20 -36q-32 -32 -82.5 -51t-104.5 -19q-111 0 -175.5 69t-64.5 190q0 77 29 136t81.5 91.5t120.5 32.5q96 0 150.5 -63t54.5 -176v-12h-389zM163.5 428.5q-47.5 -45.5 -59.5 -126.5h344q-6 83 -48 127.5
t-115 44.5q-74 0 -121.5 -45.5zM266 566l-127 202h63l101 -202h-37z" />
    <glyph glyph-name="eacute" unicode="&#xe9;" horiz-adv-x="541" 
d="M101 261v-9q0 -105 49.5 -161.5t141.5 -56.5q47 0 88 15.5t81 49.5l20 -36q-32 -32 -82.5 -51t-104.5 -19q-111 0 -175.5 69t-64.5 190q0 77 29 136t81.5 91.5t120.5 32.5q96 0 150.5 -63t54.5 -176v-12h-389zM163.5 428.5q-47.5 -45.5 -59.5 -126.5h344q-6 83 -48 127.5
t-115 44.5q-74 0 -121.5 -45.5zM303 566h-37l101 202h63z" />
    <glyph glyph-name="ecircumflex" unicode="&#xea;" horiz-adv-x="541" 
d="M101 261v-9q0 -105 49.5 -161.5t141.5 -56.5q47 0 88 15.5t81 49.5l20 -36q-32 -32 -82.5 -51t-104.5 -19q-111 0 -175.5 69t-64.5 190q0 77 29 136t81.5 91.5t120.5 32.5q96 0 150.5 -63t54.5 -176v-12h-389zM163.5 428.5q-47.5 -45.5 -59.5 -126.5h344q-6 83 -48 127.5
t-115 44.5q-74 0 -121.5 -45.5zM205 566h-52l112 202h39l112 -202h-52l-79 159z" />
    <glyph glyph-name="edieresis" unicode="&#xeb;" horiz-adv-x="541" 
d="M101 261v-9q0 -105 49.5 -161.5t141.5 -56.5q47 0 88 15.5t81 49.5l20 -36q-32 -32 -82.5 -51t-104.5 -19q-111 0 -175.5 69t-64.5 190q0 77 29 136t81.5 91.5t120.5 32.5q96 0 150.5 -63t54.5 -176v-12h-389zM163.5 428.5q-47.5 -45.5 -59.5 -126.5h344q-6 83 -48 127.5
t-115 44.5q-74 0 -121.5 -45.5zM172 698h62v-61h-62v61zM335 698h62v-61h-62v61z" />
    <glyph glyph-name="igrave" unicode="&#xec;" horiz-adv-x="218" 
d="M88 0v500h41v-500h-41zM91 566l-127 202h63l101 -202h-37z" />
    <glyph glyph-name="iacute" unicode="&#xed;" horiz-adv-x="218" 
d="M88 0v500h41v-500h-41zM128 566h-37l101 202h63z" />
    <glyph glyph-name="icircumflex" unicode="&#xee;" horiz-adv-x="218" 
d="M88 0v500h41v-500h-41zM30 566h-52l112 202h39l112 -202h-52l-79 159z" />
    <glyph glyph-name="idieresis" unicode="&#xef;" horiz-adv-x="218" 
d="M88 0v500h41v-500h-41zM-3 698h62v-61h-62v61zM160 698h62v-61h-62v61z" />
    <glyph glyph-name="eth" unicode="&#xf0;" horiz-adv-x="556" 
d="M502 291q0 -148 -56.5 -223t-168.5 -75q-67 0 -117.5 29.5t-78 83.5t-27.5 125q0 72 28 126t79.5 83.5t118.5 29.5q61 0 105.5 -24t70.5 -71q-18 139 -109 229l-157 -66l-15 36l139 58q-63 47 -147 74l13 35q103 -33 174 -92l132 56l14 -37l-114 -48q116 -119 116 -329z
M406.5 86.5q47.5 52.5 47.5 144.5q0 93 -47 145t-130 52q-84 0 -131 -52t-47 -145q0 -94 46 -145.5t131 -51.5q83 0 130.5 52.5z" />
    <glyph glyph-name="ntilde" unicode="&#xf1;" horiz-adv-x="570" 
d="M485 322v-322h-42v318q0 80 -32.5 117t-103.5 37q-81 0 -129.5 -49t-48.5 -132v-291h-41v362q0 78 -8 138h40l7 -95q21 52 68 79.5t108 27.5q182 0 182 -190zM151 692q21 27 59 27q22 0 40.5 -8.5t47.5 -26.5q20 -13 33.5 -19.5t25.5 -6.5q25 0 38 17.5t12 40.5h34
q0 -45 -21 -71.5t-59 -26.5q-22 0 -40.5 8.5t-47.5 26.5q-20 13 -33.5 19.5t-25.5 6.5q-25 0 -38 -17.5t-12 -40.5h-34q0 44 21 71z" />
    <glyph glyph-name="ograve" unicode="&#xf2;" horiz-adv-x="553" 
d="M160 25q-51 32 -78.5 91t-27.5 137t27.5 136.5t78.5 90.5t117 32t116.5 -32t78 -90.5t27.5 -136.5t-27.5 -137t-78 -91t-116.5 -32t-117 32zM407.5 91q46.5 57 46.5 162q0 102 -47 160t-130 58t-130.5 -57.5t-47.5 -160.5q0 -106 46 -162.5t131 -56.5t131.5 57zM258 566
l-127 202h63l101 -202h-37z" />
    <glyph glyph-name="oacute" unicode="&#xf3;" horiz-adv-x="553" 
d="M160 25q-51 32 -78.5 91t-27.5 137t27.5 136.5t78.5 90.5t117 32t116.5 -32t78 -90.5t27.5 -136.5t-27.5 -137t-78 -91t-116.5 -32t-117 32zM407.5 91q46.5 57 46.5 162q0 102 -47 160t-130 58t-130.5 -57.5t-47.5 -160.5q0 -106 46 -162.5t131 -56.5t131.5 57zM295 566
h-37l101 202h63z" />
    <glyph glyph-name="ocircumflex" unicode="&#xf4;" horiz-adv-x="553" 
d="M160 25q-51 32 -78.5 91t-27.5 137t27.5 136.5t78.5 90.5t117 32t116.5 -32t78 -90.5t27.5 -136.5t-27.5 -137t-78 -91t-116.5 -32t-117 32zM407.5 91q46.5 57 46.5 162q0 102 -47 160t-130 58t-130.5 -57.5t-47.5 -160.5q0 -106 46 -162.5t131 -56.5t131.5 57zM197 566
h-52l112 202h39l112 -202h-52l-79 159z" />
    <glyph glyph-name="otilde" unicode="&#xf5;" horiz-adv-x="553" 
d="M160 25q-51 32 -78.5 91t-27.5 137t27.5 136.5t78.5 90.5t117 32t116.5 -32t78 -90.5t27.5 -136.5t-27.5 -137t-78 -91t-116.5 -32t-117 32zM407.5 91q46.5 57 46.5 162q0 102 -47 160t-130 58t-130.5 -57.5t-47.5 -160.5q0 -106 46 -162.5t131 -56.5t131.5 57zM142 692
q21 27 59 27q22 0 40.5 -8.5t47.5 -26.5q20 -13 33.5 -19.5t25.5 -6.5q25 0 38 17.5t12 40.5h34q0 -45 -21 -71.5t-59 -26.5q-22 0 -40.5 8.5t-47.5 26.5q-20 13 -33.5 19.5t-25.5 6.5q-25 0 -38 -17.5t-12 -40.5h-34q0 44 21 71z" />
    <glyph glyph-name="odieresis" unicode="&#xf6;" horiz-adv-x="553" 
d="M160 25q-51 32 -78.5 91t-27.5 137t27.5 136.5t78.5 90.5t117 32t116.5 -32t78 -90.5t27.5 -136.5t-27.5 -137t-78 -91t-116.5 -32t-117 32zM407.5 91q46.5 57 46.5 162q0 102 -47 160t-130 58t-130.5 -57.5t-47.5 -160.5q0 -106 46 -162.5t131 -56.5t131.5 57zM164 698
h62v-61h-62v61zM327 698h62v-61h-62v61z" />
    <glyph glyph-name="divide" unicode="&#xf7;" horiz-adv-x="600" 
d="M254 449v83h80v-83h-80zM546 306v-40h-492v40h492zM254 41v83h80v-83h-80z" />
    <glyph glyph-name="oslash" unicode="&#xf8;" horiz-adv-x="553" 
d="M478.5 372q20.5 -53 20.5 -119q0 -78 -27.5 -137t-78 -91t-116.5 -32q-62 0 -110 28l-34 -58l-37 21l36 62q-37 34 -57.5 87t-20.5 120q0 78 27.5 136.5t78.5 90.5t117 32q60 0 110 -28l33 57l37 -19l-36 -63q37 -34 57.5 -87zM153 82l213 366q-38 23 -89 23
q-83 0 -130 -58t-47 -160q0 -115 53 -171zM407.5 91q46.5 57 46.5 162q0 55 -14 98t-41 71l-212 -366q35 -22 89 -22q85 0 131.5 57z" />
    <glyph glyph-name="ugrave" unicode="&#xf9;" horiz-adv-x="561" 
d="M473 500v-500h-40v95q-24 -49 -69.5 -75.5t-102.5 -26.5q-86 0 -131 48.5t-45 142.5v316h41v-312q0 -79 32.5 -116.5t99.5 -37.5q79 0 126.5 49.5t47.5 131.5v285h41zM262 566l-127 202h63l101 -202h-37z" />
    <glyph glyph-name="uacute" unicode="&#xfa;" horiz-adv-x="561" 
d="M473 500v-500h-40v95q-24 -49 -69.5 -75.5t-102.5 -26.5q-86 0 -131 48.5t-45 142.5v316h41v-312q0 -79 32.5 -116.5t99.5 -37.5q79 0 126.5 49.5t47.5 131.5v285h41zM299 566h-37l101 202h63z" />
    <glyph glyph-name="ucircumflex" unicode="&#xfb;" horiz-adv-x="561" 
d="M473 500v-500h-40v95q-24 -49 -69.5 -75.5t-102.5 -26.5q-86 0 -131 48.5t-45 142.5v316h41v-312q0 -79 32.5 -116.5t99.5 -37.5q79 0 126.5 49.5t47.5 131.5v285h41zM201 566h-52l112 202h39l112 -202h-52l-79 159z" />
    <glyph glyph-name="udieresis" unicode="&#xfc;" horiz-adv-x="561" 
d="M473 500v-500h-40v95q-24 -49 -69.5 -75.5t-102.5 -26.5q-86 0 -131 48.5t-45 142.5v316h41v-312q0 -79 32.5 -116.5t99.5 -37.5q79 0 126.5 49.5t47.5 131.5v285h41zM168 698h62v-61h-62v61zM331 698h62v-61h-62v61z" />
    <glyph glyph-name="yacute" unicode="&#xfd;" horiz-adv-x="520" 
d="M497 500l-236 -557q-34 -80 -84 -117t-125 -53l-8 34q72 17 110 45t63 89l21 53l-214 506h45l192 -462l193 462h43zM278 566h-37l101 202h63z" />
    <glyph glyph-name="thorn" unicode="&#xfe;" horiz-adv-x="583" 
d="M420.5 480.5q50.5 -31.5 79.5 -90.5t29 -139t-29 -138.5t-79.5 -89t-114.5 -30.5q-65 0 -110 28.5t-67 83.5v-321h-41v952h41v-334q22 53 67.5 81.5t109.5 28.5t114.5 -31.5zM437 91.5q46 57.5 46 159.5t-46 161t-130 59q-86 0 -131.5 -56.5t-45.5 -161.5t45.5 -162
t130.5 -57t131 57.5z" />
    <glyph glyph-name="ydieresis" unicode="&#xff;" horiz-adv-x="520" 
d="M497 500l-236 -557q-34 -80 -84 -117t-125 -53l-8 34q72 17 110 45t63 89l21 53l-214 506h45l192 -462l193 462h43zM147 698h62v-61h-62v61zM310 698h62v-61h-62v61z" />
    <glyph glyph-name="Amacron" unicode="&#x100;" horiz-adv-x="721" 
d="M642 0l-85 197h-394l-84 -197h-45l306 712h41l306 -712h-45zM180 237h360l-180 420zM213 828v43h295v-43h-295z" />
    <glyph glyph-name="amacron" unicode="&#x101;" horiz-adv-x="583" 
d="M495 500v-500h-42v100q-22 -52 -67.5 -79.5t-108.5 -27.5q-67 0 -117.5 31.5t-78 90t-27.5 136.5t28 137t78.5 91.5t116.5 32.5q63 0 108.5 -27t67.5 -79v94h42zM407 91.5q46 57.5 46 161.5q0 105 -46 161.5t-130 56.5t-131 -58t-47 -162q0 -103 47.5 -160t131.5 -57
q83 0 129 57.5zM145 646v44h295v-44h-295z" />
    <glyph glyph-name="Abreve" unicode="&#x102;" horiz-adv-x="721" 
d="M642 0l-85 197h-394l-84 -197h-45l306 712h41l306 -712h-45zM180 237h360l-180 420zM268 810.5q-41 24.5 -63 81.5l40 18q26 -48 52.5 -65.5t63.5 -17.5q36 0 62.5 17.5t52.5 65.5l40 -18q-43 -106 -155 -106q-52 0 -93 24.5z" />
    <glyph glyph-name="abreve" unicode="&#x103;" horiz-adv-x="583" 
d="M495 500v-500h-42v100q-22 -52 -67.5 -79.5t-108.5 -27.5q-67 0 -117.5 31.5t-78 90t-27.5 136.5t28 137t78.5 91.5t116.5 32.5q63 0 108.5 -27t67.5 -79v94h42zM407 91.5q46 57.5 46 161.5q0 105 -46 161.5t-130 56.5t-131 -58t-47 -162q0 -103 47.5 -160t131.5 -57
q83 0 129 57.5zM201 628.5q-41 27.5 -64 89.5l41 17q22 -50 50.5 -72t64.5 -22t64 22t50 72l41 -16q-22 -62 -63 -90t-92 -28t-92 27.5z" />
    <glyph glyph-name="Aogonek" unicode="&#x104;" horiz-adv-x="721" 
d="M736 -169q-32 -23 -78 -23q-50 0 -81.5 29t-31.5 74q0 39 21.5 69.5t63.5 47.5l-73 169h-394l-84 -197h-45l306 712h41l306 -712h-2q-48 0 -71.5 -24t-23.5 -61q0 -32 19 -50t51 -18q27 0 60 19zM180 237h360l-180 420z" />
    <glyph glyph-name="aogonek" unicode="&#x105;" horiz-adv-x="583" 
d="M545 -173q-32 -23 -81 -23q-51 0 -82.5 29t-31.5 76q0 43 27.5 76t75.5 47v68q-22 -52 -67.5 -79.5t-108.5 -27.5q-67 0 -117.5 31.5t-78 90t-27.5 136.5t28 137t78.5 91.5t116.5 32.5q63 0 108.5 -27t67.5 -79v94h42v-500h-4q-42 0 -69 -24.5t-27 -62.5
q0 -32 19.5 -51.5t51.5 -19.5q26 0 62 21zM407 91.5q46 57.5 46 161.5q0 105 -46 161.5t-130 56.5t-131 -58t-47 -162q0 -103 47.5 -160t131.5 -57q83 0 129 57.5z" />
    <glyph glyph-name="Cacute" unicode="&#x106;" horiz-adv-x="684" 
d="M216 35.5q-71 43.5 -109.5 126t-38.5 195.5t38.5 194.5t109.5 125t169 43.5q150 0 242 -96l-21 -35q-53 48 -104.5 69t-117.5 21q-129 0 -200.5 -84.5t-71.5 -237.5q0 -154 71 -239t201 -85q66 0 117.5 21t104.5 69l21 -35q-92 -96 -242 -96q-98 0 -169 43.5zM404 773
h-37l101 150h61z" />
    <glyph glyph-name="cacute" unicode="&#x107;" horiz-adv-x="487" 
d="M162.5 25q-51.5 32 -80 90.5t-28.5 135.5t28.5 136.5t80.5 92t121 32.5q50 0 95 -18t75 -49l-20 -36q-41 33 -76 48t-74 15q-86 0 -135.5 -59.5t-49.5 -162.5q0 -102 49 -159t135 -57q39 0 74.5 14.5t76.5 47.5l20 -35q-32 -32 -77.5 -50t-93.5 -18q-69 0 -120.5 32z
M300 566h-37l101 202h63z" />
    <glyph glyph-name="Ccircumflex" unicode="&#x108;" horiz-adv-x="684" 
d="M216 35.5q-71 43.5 -109.5 126t-38.5 195.5t38.5 194.5t109.5 125t169 43.5q150 0 242 -96l-21 -35q-53 48 -104.5 69t-117.5 21q-129 0 -200.5 -84.5t-71.5 -237.5q0 -154 71 -239t201 -85q66 0 117.5 21t104.5 69l21 -35q-92 -96 -242 -96q-98 0 -169 43.5zM306 773
h-52l113 150h37l113 -150h-52l-79 114z" />
    <glyph glyph-name="ccircumflex" unicode="&#x109;" horiz-adv-x="487" 
d="M162.5 25q-51.5 32 -80 90.5t-28.5 135.5t28.5 136.5t80.5 92t121 32.5q50 0 95 -18t75 -49l-20 -36q-41 33 -76 48t-74 15q-86 0 -135.5 -59.5t-49.5 -162.5q0 -102 49 -159t135 -57q39 0 74.5 14.5t76.5 47.5l20 -35q-32 -32 -77.5 -50t-93.5 -18q-69 0 -120.5 32z
M202 566h-52l112 202h39l112 -202h-52l-79 159z" />
    <glyph glyph-name="Cdotaccent" unicode="&#x10a;" horiz-adv-x="684" 
d="M216 35.5q-71 43.5 -109.5 126t-38.5 195.5t38.5 194.5t109.5 125t169 43.5q150 0 242 -96l-21 -35q-53 48 -104.5 69t-117.5 21q-129 0 -200.5 -84.5t-71.5 -237.5q0 -154 71 -239t201 -85q66 0 117.5 21t104.5 69l21 -35q-92 -96 -242 -96q-98 0 -169 43.5zM353 881h65
v-64h-65v64z" />
    <glyph glyph-name="cdotaccent" unicode="&#x10b;" horiz-adv-x="487" 
d="M162.5 25q-51.5 32 -80 90.5t-28.5 135.5t28.5 136.5t80.5 92t121 32.5q50 0 95 -18t75 -49l-20 -36q-41 33 -76 48t-74 15q-86 0 -135.5 -59.5t-49.5 -162.5q0 -102 49 -159t135 -57q39 0 74.5 14.5t76.5 47.5l20 -35q-32 -32 -77.5 -50t-93.5 -18q-69 0 -120.5 32z
M249 700h65v-64h-65v64z" />
    <glyph glyph-name="Ccaron" unicode="&#x10c;" horiz-adv-x="684" 
d="M216 35.5q-71 43.5 -109.5 126t-38.5 195.5t38.5 194.5t109.5 125t169 43.5q150 0 242 -96l-21 -35q-53 48 -104.5 69t-117.5 21q-129 0 -200.5 -84.5t-71.5 -237.5q0 -154 71 -239t201 -85q66 0 117.5 21t104.5 69l21 -35q-92 -96 -242 -96q-98 0 -169 43.5zM465 923h52
l-113 -150h-37l-113 150h52l80 -114z" />
    <glyph glyph-name="ccaron" unicode="&#x10d;" horiz-adv-x="487" 
d="M162.5 25q-51.5 32 -80 90.5t-28.5 135.5t28.5 136.5t80.5 92t121 32.5q50 0 95 -18t75 -49l-20 -36q-41 33 -76 48t-74 15q-86 0 -135.5 -59.5t-49.5 -162.5q0 -102 49 -159t135 -57q39 0 74.5 14.5t76.5 47.5l20 -35q-32 -32 -77.5 -50t-93.5 -18q-69 0 -120.5 32z
M361 768h52l-112 -202h-39l-112 202h52l80 -160z" />
    <glyph glyph-name="Dcaron" unicode="&#x10e;" horiz-adv-x="733" 
d="M97 712h219q168 0 258.5 -92t90.5 -263t-91 -264t-258 -93h-219v712zM315 38q151 0 227.5 80.5t76.5 238.5t-76.5 237.5t-227.5 79.5h-177v-636h177zM445 923h52l-113 -150h-37l-113 150h52l80 -114z" />
    <glyph glyph-name="dcaron" unicode="&#x10f;" horiz-adv-x="583" 
d="M453 736h42v-736h-42v100q-22 -52 -67.5 -79.5t-108.5 -27.5q-66 0 -116.5 32.5t-78.5 92t-28 137.5q0 77 27.5 135.5t78 90t117.5 31.5q63 0 108.5 -27t67.5 -79v330zM533 736h58l-27 -194h-31v194zM407 91.5q46 57.5 46 161.5t-46 161t-129 57q-84 0 -131.5 -56.5
t-47.5 -159.5q0 -104 47.5 -162.5t130.5 -58.5q84 0 130 57.5z" />
    <glyph glyph-name="Dcroat" unicode="&#x110;" horiz-adv-x="737" 
d="M578.5 620.5q90.5 -91.5 90.5 -263.5q0 -171 -91 -264t-258 -93h-219v343h-97v38h97v331h219q168 0 258.5 -91.5zM546.5 118.5q76.5 80.5 76.5 238.5t-76.5 237.5t-227.5 79.5h-176v-293h198v-38h-198v-305h176q151 0 227.5 80.5z" />
    <glyph glyph-name="dcroat" unicode="&#x111;" horiz-adv-x="583" 
d="M594 595h-99v-595h-42v100q-22 -52 -67.5 -79.5t-108.5 -27.5q-66 0 -116.5 32.5t-78.5 92t-28 137.5q0 77 27.5 135.5t78 90t117.5 31.5q63 0 108.5 -27t67.5 -79v189h-203v36h203v105h42v-105h99v-36zM407 91.5q46 57.5 46 161.5t-46 161t-129 57q-84 0 -131.5 -56.5
t-47.5 -159.5q0 -104 47.5 -162.5t130.5 -58.5q84 0 130 57.5z" />
    <glyph glyph-name="Emacron" unicode="&#x112;" horiz-adv-x="582" 
d="M97 0v712h428v-39h-386v-292h366v-40h-366v-302h386v-39h-428zM175 828v43h295v-43h-295z" />
    <glyph glyph-name="emacron" unicode="&#x113;" horiz-adv-x="541" 
d="M101 261v-9q0 -105 49.5 -161.5t141.5 -56.5q47 0 88 15.5t81 49.5l20 -36q-32 -32 -82.5 -51t-104.5 -19q-111 0 -175.5 69t-64.5 190q0 77 29 136t81.5 91.5t120.5 32.5q96 0 150.5 -63t54.5 -176v-12h-389zM163.5 428.5q-47.5 -45.5 -59.5 -126.5h344q-6 83 -48 127.5
t-115 44.5q-74 0 -121.5 -45.5zM137 646v44h295v-44h-295z" />
    <glyph glyph-name="Ebreve" unicode="&#x114;" horiz-adv-x="582" 
d="M97 0v712h428v-39h-386v-292h366v-40h-366v-302h386v-39h-428zM230 810.5q-41 24.5 -63 81.5l40 18q26 -48 52.5 -65.5t63.5 -17.5q36 0 62.5 17.5t52.5 65.5l40 -18q-43 -106 -155 -106q-52 0 -93 24.5z" />
    <glyph glyph-name="ebreve" unicode="&#x115;" horiz-adv-x="541" 
d="M101 261v-9q0 -105 49.5 -161.5t141.5 -56.5q47 0 88 15.5t81 49.5l20 -36q-32 -32 -82.5 -51t-104.5 -19q-111 0 -175.5 69t-64.5 190q0 77 29 136t81.5 91.5t120.5 32.5q96 0 150.5 -63t54.5 -176v-12h-389zM163.5 428.5q-47.5 -45.5 -59.5 -126.5h344q-6 83 -48 127.5
t-115 44.5q-74 0 -121.5 -45.5zM193 628.5q-41 27.5 -64 89.5l41 17q22 -50 50.5 -72t64.5 -22t64 22t50 72l41 -16q-22 -62 -63 -90t-92 -28t-92 27.5z" />
    <glyph glyph-name="Edotaccent" unicode="&#x116;" horiz-adv-x="582" 
d="M97 0v712h428v-39h-386v-292h366v-40h-366v-302h386v-39h-428zM290 881h65v-64h-65v64z" />
    <glyph glyph-name="edotaccent" unicode="&#x117;" horiz-adv-x="541" 
d="M101 261v-9q0 -105 49.5 -161.5t141.5 -56.5q47 0 88 15.5t81 49.5l20 -36q-32 -32 -82.5 -51t-104.5 -19q-111 0 -175.5 69t-64.5 190q0 77 29 136t81.5 91.5t120.5 32.5q96 0 150.5 -63t54.5 -176v-12h-389zM163.5 428.5q-47.5 -45.5 -59.5 -126.5h344q-6 83 -48 127.5
t-115 44.5q-74 0 -121.5 -45.5zM252 700h65v-64h-65v64z" />
    <glyph glyph-name="Eogonek" unicode="&#x118;" horiz-adv-x="582" 
d="M557 -169q-34 -23 -78 -23q-51 0 -82 28.5t-31 74.5q0 53 42 89h-311v712h428v-39h-386v-292h366v-40h-366v-302h386v-39h-12q-50 0 -76 -23.5t-26 -61.5q0 -32 19 -50t51 -18q26 0 59 19z" />
    <glyph glyph-name="eogonek" unicode="&#x119;" horiz-adv-x="541" 
d="M101 261v-9q0 -105 49.5 -161.5t141.5 -56.5q47 0 88 15.5t81 49.5l20 -35q-8 -9 -17 -16t-32 -19q-55 -31 -77.5 -57.5t-22.5 -58.5t19 -51.5t52 -19.5q26 0 62 21l16 -36q-31 -23 -79 -23q-51 0 -83 29t-32 76q0 52 40 87q-15 -3 -33 -3q-111 0 -175.5 69t-64.5 190
q0 77 29 136t81.5 91.5t120.5 32.5q96 0 150.5 -63t54.5 -176v-12h-389zM163.5 428.5q-47.5 -45.5 -59.5 -126.5h344q-6 83 -48 127.5t-115 44.5q-74 0 -121.5 -45.5z" />
    <glyph glyph-name="Ecaron" unicode="&#x11a;" horiz-adv-x="582" 
d="M97 0v712h428v-39h-386v-292h366v-40h-366v-302h386v-39h-428zM402 923h52l-113 -150h-37l-113 150h52l80 -114z" />
    <glyph glyph-name="ecaron" unicode="&#x11b;" horiz-adv-x="541" 
d="M101 261v-9q0 -105 49.5 -161.5t141.5 -56.5q47 0 88 15.5t81 49.5l20 -36q-32 -32 -82.5 -51t-104.5 -19q-111 0 -175.5 69t-64.5 190q0 77 29 136t81.5 91.5t120.5 32.5q96 0 150.5 -63t54.5 -176v-12h-389zM163.5 428.5q-47.5 -45.5 -59.5 -126.5h344q-6 83 -48 127.5
t-115 44.5q-74 0 -121.5 -45.5zM364 768h52l-112 -202h-39l-112 202h52l80 -160z" />
    <glyph glyph-name="Gcircumflex" unicode="&#x11c;" horiz-adv-x="723" 
d="M634 359v-319q-37 -21 -104 -34.5t-136 -13.5q-102 0 -175.5 43.5t-112 125.5t-38.5 196t38.5 195.5t111 124.5t172.5 43q149 0 239 -96l-21 -35q-52 48 -104 69t-117 21q-131 0 -203 -84t-72 -238q0 -157 73 -241t209 -84q55 0 107.5 10t93.5 27v249h-197v41h236z
M307 773h-52l113 150h37l113 -150h-52l-79 114z" />
    <glyph glyph-name="gcircumflex" unicode="&#x11d;" horiz-adv-x="587" 
d="M499 500v-507q0 -107 -50.5 -161.5t-149.5 -54.5q-112 0 -192 56l9 40q50 -30 90 -42.5t95 -12.5q77 0 117 43.5t40 126.5v137q-22 -54 -68 -82t-111 -28q-66 0 -117 31.5t-79.5 88t-28.5 129.5t28.5 129.5t79.5 87.5t117 31q64 0 109.5 -27t68.5 -79v94h42zM409.5 112.5
q47.5 55.5 47.5 151.5q0 97 -47.5 152t-130.5 55q-84 0 -132 -55t-48 -152t48 -152t132 -55q83 0 130.5 55.5zM217 566h-52l112 202h39l112 -202h-52l-79 159z" />
    <glyph glyph-name="Gbreve" unicode="&#x11e;" horiz-adv-x="723" 
d="M634 359v-319q-37 -21 -104 -34.5t-136 -13.5q-102 0 -175.5 43.5t-112 125.5t-38.5 196t38.5 195.5t111 124.5t172.5 43q149 0 239 -96l-21 -35q-52 48 -104 69t-117 21q-131 0 -203 -84t-72 -238q0 -157 73 -241t209 -84q55 0 107.5 10t93.5 27v249h-197v41h236z
M294 810.5q-41 24.5 -63 81.5l40 18q26 -48 52.5 -65.5t63.5 -17.5q36 0 62.5 17.5t52.5 65.5l40 -18q-43 -106 -155 -106q-52 0 -93 24.5z" />
    <glyph glyph-name="gbreve" unicode="&#x11f;" horiz-adv-x="587" 
d="M499 500v-507q0 -107 -50.5 -161.5t-149.5 -54.5q-112 0 -192 56l9 40q50 -30 90 -42.5t95 -12.5q77 0 117 43.5t40 126.5v137q-22 -54 -68 -82t-111 -28q-66 0 -117 31.5t-79.5 88t-28.5 129.5t28.5 129.5t79.5 87.5t117 31q64 0 109.5 -27t68.5 -79v94h42zM409.5 112.5
q47.5 55.5 47.5 151.5q0 97 -47.5 152t-130.5 55q-84 0 -132 -55t-48 -152t48 -152t132 -55q83 0 130.5 55.5zM205 628.5q-41 27.5 -64 89.5l41 17q22 -50 50.5 -72t64.5 -22t64 22t50 72l41 -16q-22 -62 -63 -90t-92 -28t-92 27.5z" />
    <glyph glyph-name="Gdotaccent" unicode="&#x120;" horiz-adv-x="723" 
d="M634 359v-319q-37 -21 -104 -34.5t-136 -13.5q-102 0 -175.5 43.5t-112 125.5t-38.5 196t38.5 195.5t111 124.5t172.5 43q149 0 239 -96l-21 -35q-52 48 -104 69t-117 21q-131 0 -203 -84t-72 -238q0 -157 73 -241t209 -84q55 0 107.5 10t93.5 27v249h-197v41h236z
M354 881h65v-64h-65v64z" />
    <glyph glyph-name="gdotaccent" unicode="&#x121;" horiz-adv-x="587" 
d="M499 500v-507q0 -107 -50.5 -161.5t-149.5 -54.5q-112 0 -192 56l9 40q50 -30 90 -42.5t95 -12.5q77 0 117 43.5t40 126.5v137q-22 -54 -68 -82t-111 -28q-66 0 -117 31.5t-79.5 88t-28.5 129.5t28.5 129.5t79.5 87.5t117 31q64 0 109.5 -27t68.5 -79v94h42zM409.5 112.5
q47.5 55.5 47.5 151.5q0 97 -47.5 152t-130.5 55q-84 0 -132 -55t-48 -152t48 -152t132 -55q83 0 130.5 55.5zM264 700h65v-64h-65v64z" />
    <glyph glyph-name="Gcommaaccent" unicode="&#x122;" horiz-adv-x="723" 
d="M634 359v-319q-37 -21 -104 -34.5t-136 -13.5q-102 0 -175.5 43.5t-112 125.5t-38.5 196t38.5 195.5t111 124.5t172.5 43q149 0 239 -96l-21 -35q-52 48 -104 69t-117 21q-131 0 -203 -84t-72 -238q0 -157 73 -241t209 -84q55 0 107.5 10t93.5 27v249h-197v41h236z
M429 -77v-54q0 -37 -10.5 -66.5t-36.5 -55.5l-27 22q20 23 27.5 43t8.5 46h-33v65h71z" />
    <glyph glyph-name="gcommaaccent" unicode="&#x123;" horiz-adv-x="587" 
d="M499 500v-507q0 -107 -50.5 -161.5t-149.5 -54.5q-112 0 -192 56l9 40q50 -30 90 -42.5t95 -12.5q77 0 117 43.5t40 126.5v137q-22 -54 -68 -82t-111 -28q-66 0 -117 31.5t-79.5 88t-28.5 129.5t28.5 129.5t79.5 87.5t117 31q64 0 109.5 -27t68.5 -79v94h42zM409.5 112.5
q47.5 55.5 47.5 151.5q0 97 -47.5 152t-130.5 55q-84 0 -132 -55t-48 -152t48 -152t132 -55q83 0 130.5 55.5zM307.5 706q-7.5 -20 -8.5 -46h33v-65h-71v54q0 37 10.5 66.5t36.5 56.5l27 -23q-20 -23 -27.5 -43z" />
    <glyph glyph-name="Hcircumflex" unicode="&#x124;" horiz-adv-x="759" 
d="M139 712v-331h479v-39h-479v-342h-42v712h42zM619 712h43v-712h-43v712zM299 773h-52l113 150h37l113 -150h-52l-79 114z" />
    <glyph glyph-name="hcircumflex" unicode="&#x125;" horiz-adv-x="570" 
d="M485 322v-322h-42v318q0 80 -32.5 117t-103.5 37q-81 0 -129.5 -49t-48.5 -132v-291h-41v736h41v-326q22 50 68 76t106 26q182 0 182 -190zM29 797h-52l113 150h37l113 -150h-52l-79 114z" />
    <glyph glyph-name="Hbar" unicode="&#x126;" horiz-adv-x="767" 
d="M763 571v-39h-97v-532h-43v342h-479v-342h-43v532h-97v39h97v141h43v-141h479v141h43v-141h97zM623 381v151h-479v-151h479z" />
    <glyph glyph-name="hbar" unicode="&#x127;" horiz-adv-x="570" 
d="M485 322v-322h-42v318q0 80 -32.5 117t-103.5 37q-81 0 -129.5 -49t-48.5 -132v-291h-41v595h-99v36h99v105h41v-105h204v-36h-204v-185q22 50 68 76t106 26q182 0 182 -190z" />
    <glyph glyph-name="Itilde" unicode="&#x128;" horiz-adv-x="235" 
d="M97 0v712h41v-712h-41zM-17 873.5q21 26.5 59 26.5q22 0 40.5 -8.5t47.5 -26.5q20 -13 33.5 -19.5t25.5 -6.5q25 0 38 17.5t12 40.5h34q0 -44 -21 -71t-59 -27q-22 0 -42 9t-46 26q-22 13 -35 19t-24 6q-25 0 -38 -17t-12 -40h-34q0 45 21 71.5z" />
    <glyph glyph-name="itilde" unicode="&#x129;" horiz-adv-x="218" 
d="M88 0v500h41v-500h-41zM-25 692q21 27 59 27q22 0 40.5 -8.5t47.5 -26.5q20 -13 33.5 -19.5t25.5 -6.5q25 0 38 17.5t12 40.5h34q0 -45 -21 -71.5t-59 -26.5q-22 0 -40.5 8.5t-47.5 26.5q-20 13 -33.5 19.5t-25.5 6.5q-25 0 -38 -17.5t-12 -40.5h-34q0 44 21 71z" />
    <glyph glyph-name="Imacron" unicode="&#x12a;" horiz-adv-x="235" 
d="M97 0v712h41v-712h-41zM-30 828v43h295v-43h-295z" />
    <glyph glyph-name="imacron" unicode="&#x12b;" horiz-adv-x="218" 
d="M88 0v500h41v-500h-41zM-38 646v44h295v-44h-295z" />
    <glyph glyph-name="Ibreve" unicode="&#x12c;" horiz-adv-x="235" 
d="M97 0v712h41v-712h-41zM25 810.5q-41 24.5 -63 81.5l40 18q26 -48 52.5 -65.5t63.5 -17.5q36 0 62.5 17.5t52.5 65.5l40 -18q-43 -106 -155 -106q-52 0 -93 24.5z" />
    <glyph glyph-name="ibreve" unicode="&#x12d;" horiz-adv-x="218" 
d="M88 0v500h41v-500h-41zM18 628.5q-41 27.5 -64 89.5l41 17q22 -50 50.5 -72t64.5 -22t64 22t50 72l41 -16q-22 -62 -63 -90t-92 -28t-92 27.5z" />
    <glyph glyph-name="Iogonek" unicode="&#x12e;" horiz-adv-x="235" 
d="M188 -169q-32 -23 -79 -23q-50 0 -81 29t-31 74q0 41 26 73t74 47v681h41v-712h-3q-43 0 -67.5 -24.5t-24.5 -60.5q0 -32 18.5 -50t49.5 -18q12 0 29 5t32 14z" />
    <glyph glyph-name="iogonek" unicode="&#x12f;" horiz-adv-x="218" 
d="M142 704v-64h-66v64h66zM180 -173q-34 -23 -80 -23q-52 0 -83.5 29.5t-31.5 75.5q0 42 27 75t76 48v468h41v-500h-2q-46 0 -72 -25t-26 -62q0 -34 20.5 -52.5t53.5 -18.5q28 0 61 21z" />
    <glyph glyph-name="Idotaccent" unicode="&#x130;" horiz-adv-x="235" 
d="M97 0v712h41v-712h-41zM85 881h65v-64h-65v64z" />
    <glyph glyph-name="dotlessi" unicode="&#x131;" horiz-adv-x="218" 
d="M88 0v500h41v-500h-41z" />
    <glyph glyph-name="Jcircumflex" unicode="&#x134;" horiz-adv-x="300" 
d="M-8 -137q42 -9 72 -9q53 0 75.5 32.5t22.5 108.5v717h41v-719q0 -96 -32 -137.5t-104 -41.5q-30 0 -75 8v41zM103 773h-52l113 150h37l113 -150h-52l-79 114z" />
    <glyph glyph-name="jcircumflex" unicode="&#x135;" horiz-adv-x="218" 
d="M0 -178q41 0 64.5 24t23.5 87v567h41v-580q0 -70 -33.5 -104t-90.5 -34q-21 0 -54 7v42q26 -9 49 -9zM30 566h-52l112 202h39l112 -202h-52l-79 159z" />
    <glyph glyph-name="Kcommaaccent" unicode="&#x136;" horiz-adv-x="605" 
d="M599 0h-62l-399 344v-344h-41v712h41v-333l378 333h60l-395 -350zM340 -77v-54q0 -37 -10.5 -66.5t-36.5 -55.5l-27 22q20 23 27.5 43t8.5 46h-33v65h71z" />
    <glyph glyph-name="kcommaaccent" unicode="&#x137;" horiz-adv-x="482" 
d="M483 0h-62l-292 248v-248h-41v736h41v-471l264 235h59l-273 -240zM276 -77v-54q0 -37 -10.5 -66.5t-36.5 -55.5l-27 22q20 23 27.5 43t8.5 46h-33v65h71z" />
    <glyph glyph-name="kgreenlandic" unicode="&#x138;" horiz-adv-x="482" 
d="M483 0h-62l-292 248v-248h-41v500h41v-235l264 235h59l-273 -240z" />
    <glyph glyph-name="Lacute" unicode="&#x139;" horiz-adv-x="532" 
d="M97 0v712h41v-674h379v-38h-420zM136 773h-37l101 150h61z" />
    <glyph glyph-name="lacute" unicode="&#x13a;" horiz-adv-x="218" 
d="M88 0v736h41v-736h-41zM128 797h-37l101 150h61z" />
    <glyph glyph-name="Lcommaaccent" unicode="&#x13b;" horiz-adv-x="532" 
d="M97 0v712h41v-674h379v-38h-420zM344 -77v-54q0 -37 -10.5 -66.5t-36.5 -55.5l-27 22q20 23 27.5 43t8.5 46h-33v65h71z" />
    <glyph glyph-name="lcommaaccent" unicode="&#x13c;" horiz-adv-x="218" 
d="M88 0v736h41v-736h-41zM145 -77v-54q0 -37 -10.5 -66.5t-36.5 -55.5l-27 22q20 23 27.5 43t8.5 46h-33v65h71z" />
    <glyph glyph-name="Lcaron" unicode="&#x13d;" horiz-adv-x="532" 
d="M97 0v712h41v-674h379v-38h-420zM251 522h-28v190h54z" />
    <glyph glyph-name="lcaron" unicode="&#x13e;" horiz-adv-x="218" 
d="M88 0v736h41v-736h-41zM203 542h-30v194h57z" />
    <glyph glyph-name="Ldot" unicode="&#x13f;" horiz-adv-x="532" 
d="M97 0v712h41v-674h379v-38h-420zM295 391h70v-69h-70v69z" />
    <glyph glyph-name="ldot" unicode="&#x140;" horiz-adv-x="205" 
d="M88 0v736h41v-736h-41zM170 393h70v-69h-70v69z" />
    <glyph glyph-name="Lslash" unicode="&#x141;" horiz-adv-x="536" 
d="M143 38h378v-38h-420v327l-93 -54v45l93 54v340h42v-316l191 110v-45l-191 -110v-313z" />
    <glyph glyph-name="lslash" unicode="&#x142;" horiz-adv-x="250" 
d="M254 420l-108 -63v-357h-42v333l-85 -49l-21 34l106 61v357h42v-332l87 50z" />
    <glyph glyph-name="Nacute" unicode="&#x143;" horiz-adv-x="739" 
d="M603 712h39v-712h-34l-472 641v-641h-39v712h35l471 -639v639zM388 773h-37l101 150h61z" />
    <glyph glyph-name="nacute" unicode="&#x144;" horiz-adv-x="570" 
d="M485 322v-322h-42v318q0 80 -32.5 117t-103.5 37q-81 0 -129.5 -49t-48.5 -132v-291h-41v362q0 78 -8 138h40l7 -95q21 52 68 79.5t108 27.5q182 0 182 -190zM304 566h-37l101 202h63z" />
    <glyph glyph-name="Ncommaaccent" unicode="&#x145;" horiz-adv-x="739" 
d="M603 712h39v-712h-34l-472 641v-641h-39v712h35l471 -639v639zM405 -77v-54q0 -37 -10.5 -66.5t-36.5 -55.5l-27 22q20 23 27.5 43t8.5 46h-33v65h71z" />
    <glyph glyph-name="ncommaaccent" unicode="&#x146;" horiz-adv-x="570" 
d="M485 322v-322h-42v318q0 80 -32.5 117t-103.5 37q-81 0 -129.5 -49t-48.5 -132v-291h-41v362q0 78 -8 138h40l7 -95q21 52 68 79.5t108 27.5q182 0 182 -190zM321 -77v-54q0 -37 -10.5 -66.5t-36.5 -55.5l-27 22q20 23 27.5 43t8.5 46h-33v65h71z" />
    <glyph glyph-name="Ncaron" unicode="&#x147;" horiz-adv-x="739" 
d="M603 712h39v-712h-34l-472 641v-641h-39v712h35l471 -639v639zM449 923h52l-113 -150h-37l-113 150h52l80 -114z" />
    <glyph glyph-name="ncaron" unicode="&#x148;" horiz-adv-x="570" 
d="M485 322v-322h-42v318q0 80 -32.5 117t-103.5 37q-81 0 -129.5 -49t-48.5 -132v-291h-41v362q0 78 -8 138h40l7 -95q21 52 68 79.5t108 27.5q182 0 182 -190zM365 768h52l-112 -202h-39l-112 202h52l80 -160z" />
    <glyph glyph-name="napostrophe" unicode="&#x149;" horiz-adv-x="570" 
d="M184 758v-55q0 -36 -10.5 -66t-36.5 -55l-27 21q20 22 27.5 43t8.5 46h-33v66h71zM485 322v-322h-42v318q0 80 -32.5 117t-103.5 37q-81 0 -129.5 -49t-48.5 -132v-291h-41v362q0 78 -8 138h40l7 -95q21 52 68 79.5t108 27.5q182 0 182 -190z" />
    <glyph glyph-name="Eng" unicode="&#x14a;" horiz-adv-x="739" 
d="M642 712v-726q0 -75 -38 -119.5t-120 -50.5l-52 -4l-3 40l51 3q123 11 123 128v24l-467 634v-641h-39v712h35l471 -639v639h39z" />
    <glyph glyph-name="eng" unicode="&#x14b;" horiz-adv-x="570" 
d="M485 322v-383q0 -86 -33 -121.5t-91 -35.5q-24 0 -54 7v42q24 -9 48 -9q43 0 65.5 27t22.5 105v364q0 80 -32.5 117t-103.5 37q-81 0 -129.5 -49t-48.5 -132v-291h-41v362q0 78 -8 138h40l7 -95q21 52 68 79.5t108 27.5q182 0 182 -190z" />
    <glyph glyph-name="Omacron" unicode="&#x14c;" horiz-adv-x="759" 
d="M213.5 36q-70.5 44 -108 126t-37.5 194t37.5 194t107.5 126t166 44t166.5 -44t108 -125.5t37.5 -193.5t-37.5 -194.5t-108 -126.5t-166.5 -44q-95 0 -165.5 44zM575 118q70 85 70 239t-69.5 238t-196.5 84t-196.5 -84.5t-69.5 -237.5t70 -238.5t196 -85.5t196 85z
M231 828v43h295v-43h-295z" />
    <glyph glyph-name="omacron" unicode="&#x14d;" horiz-adv-x="553" 
d="M160 25q-51 32 -78.5 91t-27.5 137t27.5 136.5t78.5 90.5t117 32t116.5 -32t78 -90.5t27.5 -136.5t-27.5 -137t-78 -91t-116.5 -32t-117 32zM407.5 91q46.5 57 46.5 162q0 102 -47 160t-130 58t-130.5 -57.5t-47.5 -160.5q0 -106 46 -162.5t131 -56.5t131.5 57zM129 646
v44h295v-44h-295z" />
    <glyph glyph-name="Obreve" unicode="&#x14e;" horiz-adv-x="759" 
d="M213.5 36q-70.5 44 -108 126t-37.5 194t37.5 194t107.5 126t166 44t166.5 -44t108 -125.5t37.5 -193.5t-37.5 -194.5t-108 -126.5t-166.5 -44q-95 0 -165.5 44zM575 118q70 85 70 239t-69.5 238t-196.5 84t-196.5 -84.5t-69.5 -237.5t70 -238.5t196 -85.5t196 85z
M286 810.5q-41 24.5 -63 81.5l40 18q26 -48 52.5 -65.5t63.5 -17.5q36 0 62.5 17.5t52.5 65.5l40 -18q-43 -106 -155 -106q-52 0 -93 24.5z" />
    <glyph glyph-name="obreve" unicode="&#x14f;" horiz-adv-x="553" 
d="M160 25q-51 32 -78.5 91t-27.5 137t27.5 136.5t78.5 90.5t117 32t116.5 -32t78 -90.5t27.5 -136.5t-27.5 -137t-78 -91t-116.5 -32t-117 32zM407.5 91q46.5 57 46.5 162q0 102 -47 160t-130 58t-130.5 -57.5t-47.5 -160.5q0 -106 46 -162.5t131 -56.5t131.5 57z
M185 628.5q-41 27.5 -64 89.5l41 17q22 -50 50.5 -72t64.5 -22t64 22t50 72l41 -16q-22 -62 -63 -90t-92 -28t-92 27.5z" />
    <glyph glyph-name="Ohungarumlaut" unicode="&#x150;" horiz-adv-x="759" 
d="M213.5 36q-70.5 44 -108 126t-37.5 194t37.5 194t107.5 126t166 44t166.5 -44t108 -125.5t37.5 -193.5t-37.5 -194.5t-108 -126.5t-166.5 -44q-95 0 -165.5 44zM575 118q70 85 70 239t-69.5 238t-196.5 84t-196.5 -84.5t-69.5 -237.5t70 -238.5t196 -85.5t196 85z
M310 773l70 150h55l-98 -150h-27zM420 773l71 150h53l-97 -150h-27z" />
    <glyph glyph-name="ohungarumlaut" unicode="&#x151;" horiz-adv-x="553" 
d="M160 25q-51 32 -78.5 91t-27.5 137t27.5 136.5t78.5 90.5t117 32t116.5 -32t78 -90.5t27.5 -136.5t-27.5 -137t-78 -91t-116.5 -32t-117 32zM407.5 91q46.5 57 46.5 162q0 102 -47 160t-130 58t-130.5 -57.5t-47.5 -160.5q0 -106 46 -162.5t131 -56.5t131.5 57zM235 566
h-28l51 202h57zM346 566h-28l52 202h57z" />
    <glyph glyph-name="OE" unicode="&#x152;" horiz-adv-x="1057" 
d="M614 673v-292h366v-40h-366v-302h386v-39h-428v50q-79 -58 -191 -58q-96 0 -166.5 44t-108.5 126t-38 194q0 113 37.5 195t108 125.5t167.5 43.5q112 0 191 -57v49h428v-39h-386zM572 102v508q-72 69 -193 69q-126 0 -196 -85t-70 -237q0 -153 70 -238.5t196 -85.5
q121 0 193 69z" />
    <glyph glyph-name="oe" unicode="&#x153;" horiz-adv-x="936" 
d="M885 246h-385q2 -102 51.5 -157t140.5 -55q84 0 164 65l21 -36q-31 -31 -82 -50.5t-102 -19.5q-80 0 -135.5 39.5t-79.5 112.5q-23 -72 -75.5 -112t-124.5 -40q-67 0 -117.5 32t-78.5 91t-28 137t28 136.5t79 90.5t117 32q71 0 123 -38.5t75 -108.5q24 68 78.5 107.5
t127.5 39.5q96 0 149.5 -62.5t53.5 -176.5v-27zM556.5 424q-47.5 -50 -55.5 -138h344q-2 91 -44.5 139.5t-118.5 48.5q-78 0 -125.5 -50zM408 90.5q46 56.5 46 162.5q0 103 -47 160.5t-130 57.5t-130.5 -57.5t-47.5 -160.5q0 -106 46 -162.5t131 -56.5q86 0 132 56.5z" />
    <glyph glyph-name="Racute" unicode="&#x154;" horiz-adv-x="684" 
d="M633 0h-43l-87 237q-19 52 -50.5 69.5t-93.5 17.5h-221v-324h-41v712h265q110 0 170 -49.5t60 -142.5q0 -69 -36.5 -115t-103.5 -64q31 -5 53 -26.5t36 -62.5zM363 364q91 0 137.5 40t46.5 117q0 152 -184 152h-224v-309h224zM355 773h-37l101 150h61z" />
    <glyph glyph-name="racute" unicode="&#x155;" horiz-adv-x="336" 
d="M329 509l-3 -38q-12 2 -40 2q-55 0 -90 -25.5t-51 -65t-16 -82.5v-300h-41v362q0 78 -8 138h40l7 -94q20 52 62.5 79t97.5 27q28 0 42 -3zM228 566h-37l101 202h63z" />
    <glyph glyph-name="Rcommaaccent" unicode="&#x156;" horiz-adv-x="684" 
d="M633 0h-43l-87 237q-19 52 -50.5 69.5t-93.5 17.5h-221v-324h-41v712h265q110 0 170 -49.5t60 -142.5q0 -69 -36.5 -115t-103.5 -64q31 -5 53 -26.5t36 -62.5zM363 364q91 0 137.5 40t46.5 117q0 152 -184 152h-224v-309h224zM372 -77v-54q0 -37 -10.5 -66.5t-36.5 -55.5
l-27 22q20 23 27.5 43t8.5 46h-33v65h71z" />
    <glyph glyph-name="rcommaaccent" unicode="&#x157;" horiz-adv-x="336" 
d="M329 509l-3 -38q-12 2 -40 2q-55 0 -90 -25.5t-51 -65t-16 -82.5v-300h-41v362q0 78 -8 138h40l7 -94q20 52 62.5 79t97.5 27q28 0 42 -3zM145 -77v-54q0 -37 -10.5 -66.5t-36.5 -55.5l-27 22q20 23 27.5 43t8.5 46h-33v65h71z" />
    <glyph glyph-name="Rcaron" unicode="&#x158;" horiz-adv-x="684" 
d="M633 0h-43l-87 237q-19 52 -50.5 69.5t-93.5 17.5h-221v-324h-41v712h265q110 0 170 -49.5t60 -142.5q0 -69 -36.5 -115t-103.5 -64q31 -5 53 -26.5t36 -62.5zM363 364q91 0 137.5 40t46.5 117q0 152 -184 152h-224v-309h224zM416 923h52l-113 -150h-37l-113 150h52
l80 -114z" />
    <glyph glyph-name="rcaron" unicode="&#x159;" horiz-adv-x="336" 
d="M329 509l-3 -38q-12 2 -40 2q-55 0 -90 -25.5t-51 -65t-16 -82.5v-300h-41v362q0 78 -8 138h40l7 -94q20 52 62.5 79t97.5 27q28 0 42 -3zM289 768h52l-112 -202h-39l-112 202h52l80 -160z" />
    <glyph glyph-name="Sacute" unicode="&#x15a;" horiz-adv-x="604" 
d="M164.5 15q-62.5 23 -112.5 73l21 35q53 -49 107 -69.5t131 -20.5q95 0 147.5 40.5t52.5 113.5q0 42 -26 68.5t-64.5 40t-102.5 28.5q-85 20 -132.5 37t-84.5 56t-37 106q0 59 30 103.5t85.5 69t130.5 24.5q148 0 239 -96l-21 -35q-51 47 -103 68.5t-115 21.5
q-96 0 -149.5 -41.5t-53.5 -116.5q0 -64 46.5 -95t130.5 -52l45 -11q73 -17 118 -33.5t76.5 -51.5t31.5 -94q0 -56 -30 -99.5t-85.5 -68t-128.5 -24.5q-84 0 -146.5 23zM320 773h-37l101 150h61z" />
    <glyph glyph-name="sacute" unicode="&#x15b;" horiz-adv-x="492" 
d="M58 61l19 35q40 -34 78.5 -47.5t91.5 -13.5q67 0 102 23.5t35 68.5q0 36 -23 57.5t-74 34.5l-85 20q-57 13 -92 49t-35 82q0 64 48.5 103t130.5 39q53 0 97.5 -17.5t71.5 -49.5l-20 -36q-34 31 -70 46.5t-79 15.5q-63 0 -97.5 -25t-34.5 -70q0 -38 22 -61t68 -34l86 -21
q66 -15 99 -48t33 -82q0 -61 -50.5 -99t-135.5 -38q-118 0 -186 68zM272 566h-37l101 202h63z" />
    <glyph glyph-name="Scircumflex" unicode="&#x15c;" horiz-adv-x="604" 
d="M164.5 15q-62.5 23 -112.5 73l21 35q53 -49 107 -69.5t131 -20.5q95 0 147.5 40.5t52.5 113.5q0 42 -26 68.5t-64.5 40t-102.5 28.5q-85 20 -132.5 37t-84.5 56t-37 106q0 59 30 103.5t85.5 69t130.5 24.5q148 0 239 -96l-21 -35q-51 47 -103 68.5t-115 21.5
q-96 0 -149.5 -41.5t-53.5 -116.5q0 -64 46.5 -95t130.5 -52l45 -11q73 -17 118 -33.5t76.5 -51.5t31.5 -94q0 -56 -30 -99.5t-85.5 -68t-128.5 -24.5q-84 0 -146.5 23zM222 773h-52l113 150h37l113 -150h-52l-79 114z" />
    <glyph glyph-name="scircumflex" unicode="&#x15d;" horiz-adv-x="492" 
d="M58 61l19 35q40 -34 78.5 -47.5t91.5 -13.5q67 0 102 23.5t35 68.5q0 36 -23 57.5t-74 34.5l-85 20q-57 13 -92 49t-35 82q0 64 48.5 103t130.5 39q53 0 97.5 -17.5t71.5 -49.5l-20 -36q-34 31 -70 46.5t-79 15.5q-63 0 -97.5 -25t-34.5 -70q0 -38 22 -61t68 -34l86 -21
q66 -15 99 -48t33 -82q0 -61 -50.5 -99t-135.5 -38q-118 0 -186 68zM174 566h-52l112 202h39l112 -202h-52l-79 159z" />
    <glyph glyph-name="Scedilla" unicode="&#x15e;" horiz-adv-x="604" 
d="M526 86q-29 -43 -82 -68t-124 -26l-3 -37q13 4 30 4q28 0 50.5 -17.5t22.5 -52.5q0 -36 -28.5 -58.5t-77.5 -22.5q-22 0 -45.5 4.5t-40.5 14.5l14 35q32 -14 74 -14q30 0 45.5 11t15.5 30q0 15 -9 23t-27 8q-24 0 -52 -11l-19 14l7 70q-70 4 -125 27t-100 68l21 35
q53 -49 107 -69.5t131 -20.5q95 0 147.5 40.5t52.5 113.5q0 42 -26 68.5t-64.5 40t-102.5 28.5q-85 20 -132.5 37t-84.5 56t-37 106q0 59 30 103.5t85.5 69t130.5 24.5q148 0 239 -96l-21 -35q-51 47 -103 68.5t-115 21.5q-96 0 -149.5 -41.5t-53.5 -116.5q0 -64 46.5 -95
t130.5 -52l45 -11q73 -17 118 -33.5t76.5 -51.5t31.5 -94q0 -55 -29 -98z" />
    <glyph glyph-name="scedilla" unicode="&#x15f;" horiz-adv-x="492" 
d="M383 33.5q-47 -37.5 -127 -40.5l-3 -38q13 4 30 4q28 0 50.5 -17.5t22.5 -52.5q0 -36 -28.5 -58.5t-77.5 -22.5q-22 0 -45.5 4.5t-40.5 14.5l14 35q32 -14 74 -14q30 0 45.5 11t15.5 30q0 15 -9 23t-27 8q-24 0 -52 -11l-19 14l7 71q-97 9 -155 67l19 35
q40 -34 78.5 -47.5t91.5 -13.5q67 0 102 23.5t35 68.5q0 36 -23 57.5t-74 34.5l-85 20q-57 13 -92 49t-35 82q0 64 48.5 103t130.5 39q53 0 97.5 -17.5t71.5 -49.5l-20 -36q-34 31 -70 46.5t-79 15.5q-63 0 -97.5 -25t-34.5 -70q0 -38 22 -61t68 -34l86 -21q66 -15 99 -48
t33 -82q0 -59 -47 -96.5z" />
    <glyph glyph-name="Scaron" unicode="&#x160;" horiz-adv-x="604" 
d="M164.5 15q-62.5 23 -112.5 73l21 35q53 -49 107 -69.5t131 -20.5q95 0 147.5 40.5t52.5 113.5q0 42 -26 68.5t-64.5 40t-102.5 28.5q-85 20 -132.5 37t-84.5 56t-37 106q0 59 30 103.5t85.5 69t130.5 24.5q148 0 239 -96l-21 -35q-51 47 -103 68.5t-115 21.5
q-96 0 -149.5 -41.5t-53.5 -116.5q0 -64 46.5 -95t130.5 -52l45 -11q73 -17 118 -33.5t76.5 -51.5t31.5 -94q0 -56 -30 -99.5t-85.5 -68t-128.5 -24.5q-84 0 -146.5 23zM381 923h52l-113 -150h-37l-113 150h52l80 -114z" />
    <glyph glyph-name="scaron" unicode="&#x161;" horiz-adv-x="492" 
d="M58 61l19 35q40 -34 78.5 -47.5t91.5 -13.5q67 0 102 23.5t35 68.5q0 36 -23 57.5t-74 34.5l-85 20q-57 13 -92 49t-35 82q0 64 48.5 103t130.5 39q53 0 97.5 -17.5t71.5 -49.5l-20 -36q-34 31 -70 46.5t-79 15.5q-63 0 -97.5 -25t-34.5 -70q0 -38 22 -61t68 -34l86 -21
q66 -15 99 -48t33 -82q0 -61 -50.5 -99t-135.5 -38q-118 0 -186 68zM333 768h52l-112 -202h-39l-112 202h52l80 -160z" />
    <glyph glyph-name="uni0162" unicode="&#x162;" horiz-adv-x="590" 
d="M308 0l-4 -45q13 4 30 4q28 0 50.5 -17.5t22.5 -52.5q0 -36 -28.5 -58.5t-77.5 -22.5q-22 0 -45.5 4.5t-40.5 14.5l14 35q32 -14 74 -14q30 0 45.5 11t15.5 30q0 15 -9 23t-27 8q-24 0 -52 -11l-19 14l10 97h7v654h-262v38h566v-38h-263v-674h-7z" />
    <glyph glyph-name="uni0163" unicode="&#x163;" horiz-adv-x="324" 
d="M300.5 -58.5q22.5 -17.5 22.5 -52.5q0 -36 -28.5 -58.5t-77.5 -22.5q-22 0 -45.5 4.5t-40.5 14.5l14 35q32 -14 74 -14q30 0 45.5 11t15.5 30q0 15 -9 23t-27 8q-24 0 -52 -11l-19 14l8 81q-34 13 -53.5 44.5t-19.5 82.5v333h-100v36h100v136l42 18v-154h152v-36h-152
v-319q0 -64 23.5 -87.5t69.5 -23.5q30 0 56 9v-41q-30 -8 -60 -8q-10 0 -15 1l-4 -40q13 4 30 4q28 0 50.5 -17.5z" />
    <glyph glyph-name="Tcaron" unicode="&#x164;" horiz-adv-x="590" 
d="M274 0v674h-262v38h566v-38h-263v-674h-41zM374 923h52l-113 -150h-37l-113 150h52l80 -114z" />
    <glyph glyph-name="tcaron" unicode="&#x165;" horiz-adv-x="324" 
d="M261 714l-26 -171h-27v171h53zM150 464v-319q0 -64 23.5 -87.5t69.5 -23.5q30 0 56 9v-41q-30 -8 -60 -8q-60 0 -95.5 33.5t-35.5 103.5v333h-100v36h100v136l42 18v-154h152v-36h-152z" />
    <glyph glyph-name="Tbar" unicode="&#x166;" horiz-adv-x="590" 
d="M578 674h-263v-293h149v-38h-149v-343h-41v343h-148v38h148v293h-262v38h566v-38z" />
    <glyph glyph-name="tbar" unicode="&#x167;" horiz-adv-x="334" 
d="M155 464v-155h131v-37h-131v-127q0 -64 24 -87.5t69 -23.5q30 0 56 9v-41q-30 -8 -60 -8q-61 0 -95.5 33.5t-34.5 103.5v141h-80v37h80v155h-101v36h101v136l41 18v-154h152v-36h-152z" />
    <glyph glyph-name="Utilde" unicode="&#x168;" horiz-adv-x="722" 
d="M160.5 62.5q-68.5 70.5 -68.5 207.5v442h41v-449q0 -230 229 -230q112 0 169.5 58t57.5 172v449h42v-442q0 -137 -68.5 -207.5t-200.5 -70.5q-133 0 -201.5 70.5zM227 873.5q21 26.5 59 26.5q22 0 40.5 -8.5t47.5 -26.5q20 -13 33.5 -19.5t25.5 -6.5q25 0 38 17.5
t12 40.5h34q0 -44 -21 -71t-59 -27q-22 0 -42 9t-46 26q-22 13 -35 19t-24 6q-25 0 -38 -17t-12 -40h-34q0 45 21 71.5z" />
    <glyph glyph-name="utilde" unicode="&#x169;" horiz-adv-x="561" 
d="M473 500v-500h-40v95q-24 -49 -69.5 -75.5t-102.5 -26.5q-86 0 -131 48.5t-45 142.5v316h41v-312q0 -79 32.5 -116.5t99.5 -37.5q79 0 126.5 49.5t47.5 131.5v285h41zM146 692q21 27 59 27q22 0 40.5 -8.5t47.5 -26.5q20 -13 33.5 -19.5t25.5 -6.5q25 0 38 17.5t12 40.5
h34q0 -45 -21 -71.5t-59 -26.5q-22 0 -40.5 8.5t-47.5 26.5q-20 13 -33.5 19.5t-25.5 6.5q-25 0 -38 -17.5t-12 -40.5h-34q0 44 21 71z" />
    <glyph glyph-name="Umacron" unicode="&#x16a;" horiz-adv-x="722" 
d="M160.5 62.5q-68.5 70.5 -68.5 207.5v442h41v-449q0 -230 229 -230q112 0 169.5 58t57.5 172v449h42v-442q0 -137 -68.5 -207.5t-200.5 -70.5q-133 0 -201.5 70.5zM214 828v43h295v-43h-295z" />
    <glyph glyph-name="umacron" unicode="&#x16b;" horiz-adv-x="561" 
d="M473 500v-500h-40v95q-24 -49 -69.5 -75.5t-102.5 -26.5q-86 0 -131 48.5t-45 142.5v316h41v-312q0 -79 32.5 -116.5t99.5 -37.5q79 0 126.5 49.5t47.5 131.5v285h41zM133 646v44h295v-44h-295z" />
    <glyph glyph-name="Ubreve" unicode="&#x16c;" horiz-adv-x="722" 
d="M160.5 62.5q-68.5 70.5 -68.5 207.5v442h41v-449q0 -230 229 -230q112 0 169.5 58t57.5 172v449h42v-442q0 -137 -68.5 -207.5t-200.5 -70.5q-133 0 -201.5 70.5zM269 810.5q-41 24.5 -63 81.5l40 18q26 -48 52.5 -65.5t63.5 -17.5q36 0 62.5 17.5t52.5 65.5l40 -18
q-43 -106 -155 -106q-52 0 -93 24.5z" />
    <glyph glyph-name="ubreve" unicode="&#x16d;" horiz-adv-x="561" 
d="M473 500v-500h-40v95q-24 -49 -69.5 -75.5t-102.5 -26.5q-86 0 -131 48.5t-45 142.5v316h41v-312q0 -79 32.5 -116.5t99.5 -37.5q79 0 126.5 49.5t47.5 131.5v285h41zM189 628.5q-41 27.5 -64 89.5l41 17q22 -50 50.5 -72t64.5 -22t64 22t50 72l41 -16q-22 -62 -63 -90
t-92 -28t-92 27.5z" />
    <glyph glyph-name="Uring" unicode="&#x16e;" horiz-adv-x="722" 
d="M160.5 62.5q-68.5 70.5 -68.5 207.5v442h41v-449q0 -230 229 -230q112 0 169.5 58t57.5 172v449h42v-442q0 -137 -68.5 -207.5t-200.5 -70.5q-133 0 -201.5 70.5zM293 795.5q-28 27.5 -28 68.5q0 40 28 67.5t69 27.5q40 0 68 -27.5t28 -67.5q0 -41 -28 -68.5t-68 -27.5
q-41 0 -69 27.5zM398.5 825.5q14.5 15.5 14.5 38.5q0 22 -14.5 37t-36.5 15t-37 -15t-15 -37q0 -23 15 -38.5t37 -15.5t36.5 15.5z" />
    <glyph glyph-name="uring" unicode="&#x16f;" horiz-adv-x="561" 
d="M473 500v-500h-40v95q-24 -49 -69.5 -75.5t-102.5 -26.5q-86 0 -131 48.5t-45 142.5v316h41v-312q0 -79 32.5 -116.5t99.5 -37.5q79 0 126.5 49.5t47.5 131.5v285h41zM212 599q-28 28 -28 68t28 67.5t69 27.5q40 0 68 -27.5t28 -67.5t-28 -68t-68 -28q-41 0 -69 28z
M317.5 628.5q14.5 15.5 14.5 38.5t-14.5 38t-36.5 15t-37 -15t-15 -38t15 -38.5t37 -15.5t36.5 15.5z" />
    <glyph glyph-name="Uhungarumlaut" unicode="&#x170;" horiz-adv-x="722" 
d="M160.5 62.5q-68.5 70.5 -68.5 207.5v442h41v-449q0 -230 229 -230q112 0 169.5 58t57.5 172v449h42v-442q0 -137 -68.5 -207.5t-200.5 -70.5q-133 0 -201.5 70.5zM293 773l70 150h55l-98 -150h-27zM403 773l71 150h53l-97 -150h-27z" />
    <glyph glyph-name="uhungarumlaut" unicode="&#x171;" horiz-adv-x="561" 
d="M473 500v-500h-40v95q-24 -49 -69.5 -75.5t-102.5 -26.5q-86 0 -131 48.5t-45 142.5v316h41v-312q0 -79 32.5 -116.5t99.5 -37.5q79 0 126.5 49.5t47.5 131.5v285h41zM239 566h-28l51 202h57zM350 566h-28l52 202h57z" />
    <glyph glyph-name="Uogonek" unicode="&#x172;" horiz-adv-x="722" 
d="M631 712v-442q0 -213 -162 -264q-48 -15 -69.5 -36.5t-21.5 -54.5q0 -32 18.5 -50t50.5 -18q23 0 61 19l15 -35q-31 -23 -78 -23q-50 0 -81 28.5t-31 74.5q0 51 39 81h-10q-133 0 -201.5 70.5t-68.5 207.5v442h41v-449q0 -230 229 -230q112 0 169.5 58t57.5 172v449h42z
" />
    <glyph glyph-name="uogonek" unicode="&#x173;" horiz-adv-x="561" 
d="M523 -173q-32 -23 -80 -23q-51 0 -82 29t-31 76q0 44 27 76.5t76 46.5v63q-24 -49 -69.5 -75.5t-102.5 -26.5q-86 0 -131 48.5t-45 142.5v316h41v-312q0 -79 32.5 -116.5t99.5 -37.5q79 0 126.5 49.5t47.5 131.5v285h41v-500h-3q-42 0 -69 -24.5t-27 -62.5
q0 -33 19.5 -52t52.5 -19q26 0 60 21z" />
    <glyph glyph-name="Wcircumflex" unicode="&#x174;" horiz-adv-x="1104" 
d="M1019 712h43l-247 -712h-39l-224 643l-225 -643h-38l-247 712h42l224 -652l225 652l37 -1l224 -650zM471 773h-52l113 150h37l113 -150h-52l-79 114z" />
    <glyph glyph-name="wcircumflex" unicode="&#x175;" horiz-adv-x="857" 
d="M772 500h44l-177 -500h-50l-160 449l-161 -449h-51l-175 500h46l153 -451l163 451h52l158 -450zM349 566h-52l112 202h39l112 -202h-52l-79 159z" />
    <glyph glyph-name="Ycircumflex" unicode="&#x176;" horiz-adv-x="587" 
d="M585 712l-271 -416v-296h-42v298l-271 414h50l243 -375l243 375h48zM213 773h-52l113 150h37l113 -150h-52l-79 114z" />
    <glyph glyph-name="ycircumflex" unicode="&#x177;" horiz-adv-x="520" 
d="M497 500l-236 -557q-34 -80 -84 -117t-125 -53l-8 34q72 17 110 45t63 89l21 53l-214 506h45l192 -462l193 462h43zM180 566h-52l112 202h39l112 -202h-52l-79 159z" />
    <glyph glyph-name="Ydieresis" unicode="&#x178;" horiz-adv-x="587" 
d="M585 712l-271 -416v-296h-42v298l-271 414h50l243 -375l243 375h48zM180 880h62v-61h-62v61zM343 880h62v-61h-62v61z" />
    <glyph glyph-name="Zacute" unicode="&#x179;" horiz-adv-x="585" 
d="M546 39v-39h-479l-1 -2v2h-24v31l444 642h-444v39h471l1 2v-2h22v-31l-442 -642h452zM309 773h-37l101 150h61z" />
    <glyph glyph-name="zacute" unicode="&#x17a;" horiz-adv-x="512" 
d="M109 37h355v-37h-413v28l349 436h-334v36h386v-34zM276 566h-37l101 202h63z" />
    <glyph glyph-name="Zdotaccent" unicode="&#x17b;" horiz-adv-x="585" 
d="M546 39v-39h-479l-1 -2v2h-24v31l444 642h-444v39h471l1 2v-2h22v-31l-442 -642h452zM258 881h65v-64h-65v64z" />
    <glyph glyph-name="zdotaccent" unicode="&#x17c;" horiz-adv-x="512" 
d="M109 37h355v-37h-413v28l349 436h-334v36h386v-34zM225 700h65v-64h-65v64z" />
    <glyph glyph-name="Zcaron" unicode="&#x17d;" horiz-adv-x="585" 
d="M546 39v-39h-479l-1 -2v2h-24v31l444 642h-444v39h471l1 2v-2h22v-31l-442 -642h452zM370 923h52l-113 -150h-37l-113 150h52l80 -114z" />
    <glyph glyph-name="zcaron" unicode="&#x17e;" horiz-adv-x="512" 
d="M109 37h355v-37h-413v28l349 436h-334v36h386v-34zM337 768h52l-112 -202h-39l-112 202h52l80 -160z" />
    <glyph glyph-name="uni018F" unicode="&#x18f;" horiz-adv-x="736" 
d="M517 676.5q73 -43.5 112 -125.5t39 -194q0 -113 -36.5 -195t-104.5 -126t-160 -44q-91 0 -158.5 44t-104 125t-36.5 190v32h554q-6 142 -78 219.5t-197 77.5q-132 0 -232 -91l-21 35q45 46 110.5 71t140.5 25q99 0 172 -43.5zM551.5 114q67.5 81 71.5 226h-511
q4 -145 71.5 -226t183.5 -81q117 0 184.5 81z" />
    <glyph glyph-name="florin" unicode="&#x192;" horiz-adv-x="600" 
d="M552 716v-37h-39q-53 0 -84 -26t-44 -89l-16 -75h134v-42h-143l-103 -485q-16 -73 -57.5 -111t-113.5 -38h-40v38h40q53 0 84 26t44 89l102 481h-130v42h139l17 79q16 73 57 110.5t114 37.5h39z" />
    <glyph glyph-name="Ohorn" unicode="&#x1a0;" horiz-adv-x="759" 
d="M653 715q-38 -38 -107 -41q71 -44 108 -125t37 -192q0 -112 -38 -194.5t-108.5 -126.5t-165.5 -44t-165 44t-108 126t-38 194t37.5 194t108.5 126t169 44q27 0 79 -4q48 -4 65 -4q67 1 95 27t28 88v13h41v-20q0 -67 -38 -105zM575.5 595q-69.5 84 -196.5 84t-196.5 -84.5
t-69.5 -237.5t70 -238.5t196 -85.5t196 85t70 239t-69.5 238z" />
    <glyph glyph-name="ohorn" unicode="&#x1a1;" horiz-adv-x="553" 
d="M472.5 387q26.5 -57 26.5 -134q0 -78 -27.5 -137t-78 -91t-116.5 -32t-117 32t-78.5 91t-27.5 137t28 136.5t78.5 90.5t117.5 32q20 0 38 -3q22 -2 29 -2q56 0 80 28t24 89v12h41v-20q0 -54 -24 -89.5t-69 -49.5q49 -33 75.5 -90zM407.5 91q46.5 57 46.5 162
q0 102 -47 160t-130 58t-130.5 -57.5t-47.5 -160.5q0 -106 46 -162.5t131 -56.5t131.5 57z" />
    <glyph glyph-name="Uhorn" unicode="&#x1af;" horiz-adv-x="722" 
d="M751 840v-20q0 -62 -30.5 -98.5t-89.5 -44.5v-407q0 -137 -68.5 -207.5t-200.5 -70.5q-133 0 -201.5 70.5t-68.5 207.5v442h41v-449q0 -230 229 -230q112 0 169.5 58t57.5 172v449h12q59 1 84.5 27.5t25.5 87.5v13h40z" />
    <glyph glyph-name="uhorn" unicode="&#x1b0;" horiz-adv-x="569" 
d="M597 636v-20q0 -65 -32 -103t-92 -45v-468h-40v95q-24 -49 -69.5 -75.5t-102.5 -26.5q-86 0 -131 48.5t-45 142.5v316h41v-312q0 -79 32.5 -116.5t99.5 -37.5q79 0 126.5 49.5t47.5 131.5v285h12q59 1 86 30.5t27 93.5v12h40z" />
    <glyph glyph-name="uni01C4" unicode="&#x1c4;" horiz-adv-x="1303" 
d="M97 712h219q168 0 258.5 -92t90.5 -263t-91 -264t-258 -93h-219v712zM315 38q151 0 227.5 80.5t76.5 238.5t-76.5 237.5t-227.5 79.5h-177v-636h177zM1264 39v-39h-479l-1 -2v2h-24v31l444 642h-444v39h471l1 2v-2h22v-31l-442 -642h452zM1088 923h52l-113 -150h-37
l-113 150h52l80 -114z" />
    <glyph glyph-name="uni01C5" unicode="&#x1c5;" horiz-adv-x="1245" 
d="M97 712h219q168 0 258.5 -92t90.5 -263t-91 -264t-258 -93h-219v712zM315 38q151 0 227.5 80.5t76.5 238.5t-76.5 237.5t-227.5 79.5h-177v-636h177zM842 37h355v-37h-413v28l349 436h-334v36h386v-34zM1070 768h52l-112 -202h-39l-112 202h52l80 -160z" />
    <glyph glyph-name="uni01C6" unicode="&#x1c6;" horiz-adv-x="1095" 
d="M495 736v-736h-42v100q-22 -52 -67.5 -79.5t-108.5 -27.5q-66 0 -116.5 32.5t-78.5 92t-28 137.5q0 77 27.5 135.5t78 90t117.5 31.5q63 0 108.5 -27t67.5 -79v330h42zM407 91.5q46 57.5 46 161.5t-46 161t-129 57q-84 0 -131.5 -56.5t-47.5 -159.5q0 -104 47.5 -162.5
t130.5 -58.5q84 0 130 57.5zM692 37h355v-37h-413v28l349 436h-334v36h386v-34zM920 768h52l-112 -202h-39l-112 202h52l80 -160z" />
    <glyph glyph-name="uni01C7" unicode="&#x1c7;" horiz-adv-x="740" 
d="M97 0v712h41v-674h349v-38h-390zM431 -137q42 -9 72 -9q53 0 75.5 32t22.5 109v717h43v-719q0 -95 -32.5 -137t-105.5 -42q-30 0 -75 8v41z" />
    <glyph glyph-name="uni01C8" unicode="&#x1c8;" horiz-adv-x="750" 
d="M97 0v712h41v-674h379v-38h-420zM532 -178q41 0 64.5 24t23.5 87v567h41v-580q0 -70 -33.5 -104t-90.5 -34q-21 0 -54 7v42q26 -9 49 -9zM609 700h65v-64h-65v64z" />
    <glyph glyph-name="uni01C9" unicode="&#x1c9;" horiz-adv-x="436" 
d="M88 0v736h41v-736h-41zM218 -178q41 0 64.5 24t23.5 87v567h41v-580q0 -70 -33.5 -104t-90.5 -34q-21 0 -54 7v42q26 -9 49 -9zM295 700h65v-64h-65v64z" />
    <glyph glyph-name="uni01CA" unicode="&#x1ca;" horiz-adv-x="1039" 
d="M603 712h39v-712h-34l-472 641v-641h-39v712h35l471 -639v639zM731 -137q42 -9 72 -9q53 0 75.5 32.5t22.5 108.5v717h41v-719q0 -96 -32 -137.5t-104 -41.5q-30 0 -75 8v41z" />
    <glyph glyph-name="uni01CB" unicode="&#x1cb;" horiz-adv-x="957" 
d="M603 712h39v-712h-34l-472 641v-641h-39v712h35l471 -639v639zM739 -178q41 0 64.5 24t23.5 87v567h41v-580q0 -70 -33.5 -104t-90.5 -34q-21 0 -54 7v42q26 -9 49 -9zM816 700h65v-64h-65v64z" />
    <glyph glyph-name="uni01CC" unicode="&#x1cc;" horiz-adv-x="788" 
d="M485 322v-322h-42v318q0 80 -32.5 117t-103.5 37q-81 0 -129.5 -49t-48.5 -132v-291h-41v362q0 78 -8 138h40l7 -95q21 52 68 79.5t108 27.5q182 0 182 -190zM570 -178q41 0 64.5 24t23.5 87v567h41v-580q0 -70 -33.5 -104t-90.5 -34q-21 0 -54 7v42q26 -9 49 -9z
M647 700h65v-64h-65v64z" />
    <glyph glyph-name="uni01CE" unicode="&#x1ce;" horiz-adv-x="583" 
d="M495 500v-500h-42v100q-22 -52 -67.5 -79.5t-108.5 -27.5q-67 0 -117.5 31.5t-78 90t-27.5 136.5t28 137t78.5 91.5t116.5 32.5q63 0 108.5 -27t67.5 -79v94h42zM407 91.5q46 57.5 46 161.5q0 105 -46 161.5t-130 56.5t-131 -58t-47 -162q0 -103 47.5 -160t131.5 -57
q83 0 129 57.5zM372 768h52l-112 -202h-39l-112 202h52l80 -160z" />
    <glyph glyph-name="Gcaron" unicode="&#x1e6;" horiz-adv-x="723" 
d="M634 359v-319q-37 -21 -104 -34.5t-136 -13.5q-102 0 -175.5 43.5t-112 125.5t-38.5 196t38.5 195.5t111 124.5t172.5 43q149 0 239 -96l-21 -35q-52 48 -104 69t-117 21q-131 0 -203 -84t-72 -238q0 -157 73 -241t209 -84q55 0 107.5 10t93.5 27v249h-197v41h236z
M466 923h52l-113 -150h-37l-113 150h52l80 -114z" />
    <glyph glyph-name="gcaron" unicode="&#x1e7;" horiz-adv-x="587" 
d="M499 500v-507q0 -107 -50.5 -161.5t-149.5 -54.5q-112 0 -192 56l9 40q50 -30 90 -42.5t95 -12.5q77 0 117 43.5t40 126.5v137q-22 -54 -68 -82t-111 -28q-66 0 -117 31.5t-79.5 88t-28.5 129.5t28.5 129.5t79.5 87.5t117 31q64 0 109.5 -27t68.5 -79v94h42zM409.5 112.5
q47.5 55.5 47.5 151.5q0 97 -47.5 152t-130.5 55q-84 0 -132 -55t-48 -152t48 -152t132 -55q83 0 130.5 55.5zM376 768h52l-112 -202h-39l-112 202h52l80 -160z" />
    <glyph glyph-name="uni01EA" unicode="&#x1ea;" horiz-adv-x="759" 
d="M388 -85q0 -32 18.5 -50t51.5 -18q23 0 59 19l16 -35q-31 -23 -77 -23q-50 0 -82 28.5t-32 74.5q0 45 34 81q-93 0 -163 44.5t-107.5 126.5t-37.5 193q0 112 37.5 194t107.5 126t166 44t166.5 -44t108 -125.5t37.5 -193.5q0 -141 -58.5 -233t-166.5 -121q-78 -21 -78 -88
zM183 118.5q70 -85.5 196 -85.5t196 85t70 239t-69.5 238t-196.5 84t-196.5 -84.5t-69.5 -237.5t70 -238.5z" />
    <glyph glyph-name="uni01EB" unicode="&#x1eb;" horiz-adv-x="553" 
d="M283 -29.5q-21 -21.5 -21 -57.5q0 -32 19.5 -51.5t51.5 -19.5q26 0 62 21l16 -36q-31 -23 -80 -23q-50 0 -82 29t-32 76q0 52 36 85q-91 8 -145 78t-54 181q0 78 27.5 136.5t78.5 90.5t117 32t116.5 -32t78 -90.5t27.5 -136.5q0 -93 -38 -158t-104 -87q-53 -16 -74 -37.5
zM145 90.5q46 -56.5 131 -56.5t131.5 57t46.5 162q0 102 -47 160t-130 58t-130.5 -57.5t-47.5 -160.5q0 -106 46 -162.5z" />
    <glyph glyph-name="Aringacute" unicode="&#x1fa;" horiz-adv-x="721" 
d="M557 197h-394l-84 -197h-45l296 688q-30 9 -48.5 33.5t-18.5 56.5q0 40 28.5 68t69.5 28q30 0 56 -18l89 91h65l-131 -112q19 -25 19 -57t-19 -56.5t-49 -33.5l296 -688h-45zM323.5 739.5q14.5 -15.5 37.5 -15.5q22 0 36.5 15.5t14.5 38.5t-14.5 38t-36.5 15
q-23 0 -37.5 -15t-14.5 -38t14.5 -38.5zM180 237h360l-180 420z" />
    <glyph glyph-name="aringacute" unicode="&#x1fb;" horiz-adv-x="583" 
d="M222.5 602.5q-29.5 28.5 -29.5 68.5q0 41 29.5 70t70.5 29q31 0 57 -18l86 126l63 -2l-125 -148q18 -26 18 -57q0 -40 -29 -68.5t-70 -28.5t-70.5 28.5zM255 710q-15 -16 -15 -39q0 -22 15 -38t38 -16q22 0 37 16t15 38q0 23 -15 39t-37 16q-23 0 -38 -16zM453 500h42
v-500h-42v100q-22 -52 -67.5 -79.5t-108.5 -27.5q-67 0 -117.5 31.5t-78 90t-27.5 136.5t28 137t78.5 91.5t116.5 32.5q63 0 108.5 -27t67.5 -79v94zM407 91.5q46 57.5 46 161.5q0 105 -46 161.5t-130 56.5t-131 -58t-47 -162q0 -103 47.5 -160t131.5 -57q83 0 129 57.5z
" />
    <glyph glyph-name="AEacute" unicode="&#x1fc;" horiz-adv-x="996" 
d="M939 672h-403l29 -291h354v-40h-350l29 -301h341v-40h-374l-19 197h-370l-117 -197h-45l424 712h501v-40zM542 237l-43 435h-42l-258 -435h343zM518 773h-37l101 150h61z" />
    <glyph glyph-name="aeacute" unicode="&#x1fd;" horiz-adv-x="890" 
d="M458 261v-7q0 -107 49 -163.5t140 -56.5q82 0 164 65l19 -36q-31 -31 -81 -50.5t-100 -19.5q-79 0 -133.5 38.5t-79.5 110.5q-17 -70 -66 -109.5t-121 -39.5q-50 0 -90 20t-63.5 55t-23.5 80q0 56 29 89.5t94 49t176 15.5h43v22q0 78 -29.5 112.5t-96.5 34.5
q-45 0 -87 -13.5t-88 -41.5l-20 35q36 29 87 45t103 16q138 0 167 -111q28 52 76.5 81.5t109.5 29.5q96 0 149.5 -63.5t53.5 -177.5v-10h-381zM518.5 428q-46.5 -46 -57.5 -126h336q-6 83 -47.5 127.5t-112.5 44.5q-72 0 -118.5 -46zM334 58q37 23 58.5 64t21.5 94v45h-41
q-98 0 -152.5 -11t-77.5 -35t-23 -65q0 -52 36 -83.5t94 -31.5q47 0 84 23zM455 566h-37l101 202h63z" />
    <glyph glyph-name="Oslashacute" unicode="&#x1fe;" horiz-adv-x="759" 
d="M661.5 532q29.5 -76 29.5 -175q0 -112 -37.5 -194.5t-108 -126.5t-166.5 -44q-95 0 -165 44l-41 -71l-34 18l44 75q-55 47 -85 123t-30 175q0 112 37.5 194t107.5 126t166 44q95 0 166 -43l41 70l33 -18l-43 -74q56 -47 85.5 -123zM136.5 202.5q23.5 -66.5 68.5 -107.5
l319 546q-61 38 -145 38q-127 0 -196.5 -84.5t-69.5 -237.5q0 -88 23.5 -154.5zM575 118q70 85 70 239q0 88 -23 154t-68 107l-319 -546q60 -39 144 -39q126 0 196 85zM397 773h-37l101 150h61z" />
    <glyph glyph-name="oslashacute" unicode="&#x1ff;" horiz-adv-x="553" 
d="M478.5 372q20.5 -53 20.5 -119q0 -78 -27.5 -137t-78 -91t-116.5 -32q-62 0 -110 28l-34 -58l-37 21l36 62q-37 34 -57.5 87t-20.5 120q0 78 27.5 136.5t78.5 90.5t117 32q60 0 110 -28l33 57l37 -19l-36 -63q37 -34 57.5 -87zM153 82l213 366q-38 23 -89 23
q-83 0 -130 -58t-47 -160q0 -115 53 -171zM407.5 91q46.5 57 46.5 162q0 55 -14 98t-41 71l-212 -366q35 -22 89 -22q85 0 131.5 57zM295 566h-37l101 202h63z" />
    <glyph glyph-name="uni0200" unicode="&#x200;" horiz-adv-x="721" 
d="M642 0l-85 197h-394l-84 -197h-45l306 712h41l306 -712h-45zM180 237h360l-180 420zM292 773l-97 150h53l71 -150h-27zM402 773l-98 150h55l70 -150h-27z" />
    <glyph glyph-name="uni0201" unicode="&#x201;" horiz-adv-x="583" 
d="M495 500v-500h-42v100q-22 -52 -67.5 -79.5t-108.5 -27.5q-67 0 -117.5 31.5t-78 90t-27.5 136.5t28 137t78.5 91.5t116.5 32.5q63 0 108.5 -27t67.5 -79v94h42zM407 91.5q46 57.5 46 161.5q0 105 -46 161.5t-130 56.5t-131 -58t-47 -162q0 -103 47.5 -160t131.5 -57
q83 0 129 57.5zM223 566l-81 202h57l52 -202h-28zM334 566l-80 202h57l51 -202h-28z" />
    <glyph glyph-name="uni0202" unicode="&#x202;" horiz-adv-x="721" 
d="M642 0l-85 197h-394l-84 -197h-45l306 712h41l306 -712h-45zM180 237h360l-180 420zM453 886.5q41 -24.5 63 -81.5l-40 -17q-26 47 -52.5 64.5t-62.5 17.5q-37 0 -63.5 -17.5t-52.5 -64.5l-40 17q43 106 156 106q51 0 92 -24.5z" />
    <glyph glyph-name="uni0203" unicode="&#x203;" horiz-adv-x="583" 
d="M495 500v-500h-42v100q-22 -52 -67.5 -79.5t-108.5 -27.5q-67 0 -117.5 31.5t-78 90t-27.5 136.5t28 137t78.5 91.5t116.5 32.5q63 0 108.5 -27t67.5 -79v94h42zM407 91.5q46 57.5 46 161.5q0 105 -46 161.5t-130 56.5t-131 -58t-47 -162q0 -103 47.5 -160t131.5 -57
q83 0 129 57.5zM384 707q41 -28 64 -89l-41 -18q-22 52 -50 73.5t-64 21.5q-37 0 -65 -21.5t-50 -73.5l-41 17q22 61 63.5 89.5t92.5 28.5q50 0 91 -28z" />
    <glyph glyph-name="uni0204" unicode="&#x204;" horiz-adv-x="582" 
d="M97 0v712h428v-39h-386v-292h366v-40h-366v-302h386v-39h-428zM254 773l-97 150h53l71 -150h-27zM364 773l-98 150h55l70 -150h-27z" />
    <glyph glyph-name="uni0205" unicode="&#x205;" horiz-adv-x="541" 
d="M101 261v-9q0 -105 49.5 -161.5t141.5 -56.5q47 0 88 15.5t81 49.5l20 -36q-32 -32 -82.5 -51t-104.5 -19q-111 0 -175.5 69t-64.5 190q0 77 29 136t81.5 91.5t120.5 32.5q96 0 150.5 -63t54.5 -176v-12h-389zM163.5 428.5q-47.5 -45.5 -59.5 -126.5h344q-6 83 -48 127.5
t-115 44.5q-74 0 -121.5 -45.5zM215 566l-81 202h57l52 -202h-28zM326 566l-80 202h57l51 -202h-28z" />
    <glyph glyph-name="uni0206" unicode="&#x206;" horiz-adv-x="582" 
d="M97 0v712h428v-39h-386v-292h366v-40h-366v-302h386v-39h-428zM415 886.5q41 -24.5 63 -81.5l-40 -17q-26 47 -52.5 64.5t-62.5 17.5q-37 0 -63.5 -17.5t-52.5 -64.5l-40 17q43 106 156 106q51 0 92 -24.5z" />
    <glyph glyph-name="uni0207" unicode="&#x207;" horiz-adv-x="541" 
d="M101 261v-9q0 -105 49.5 -161.5t141.5 -56.5q47 0 88 15.5t81 49.5l20 -36q-32 -32 -82.5 -51t-104.5 -19q-111 0 -175.5 69t-64.5 190q0 77 29 136t81.5 91.5t120.5 32.5q96 0 150.5 -63t54.5 -176v-12h-389zM163.5 428.5q-47.5 -45.5 -59.5 -126.5h344q-6 83 -48 127.5
t-115 44.5q-74 0 -121.5 -45.5zM376 707q41 -28 64 -89l-41 -18q-22 52 -50 73.5t-64 21.5q-37 0 -65 -21.5t-50 -73.5l-41 17q22 61 63.5 89.5t92.5 28.5q50 0 91 -28z" />
    <glyph glyph-name="uni0208" unicode="&#x208;" horiz-adv-x="235" 
d="M97 0v712h41v-712h-41zM49 773l-97 150h53l71 -150h-27zM159 773l-98 150h55l70 -150h-27z" />
    <glyph glyph-name="uni0209" unicode="&#x209;" horiz-adv-x="218" 
d="M88 0v500h41v-500h-41zM40 566l-81 202h57l52 -202h-28zM151 566l-80 202h57l51 -202h-28z" />
    <glyph glyph-name="uni020A" unicode="&#x20a;" horiz-adv-x="235" 
d="M97 0v712h41v-712h-41zM210 886.5q41 -24.5 63 -81.5l-40 -17q-26 47 -52.5 64.5t-62.5 17.5q-37 0 -63.5 -17.5t-52.5 -64.5l-40 17q43 106 156 106q51 0 92 -24.5z" />
    <glyph glyph-name="uni020B" unicode="&#x20b;" horiz-adv-x="218" 
d="M88 0v500h41v-500h-41zM201 707q41 -28 64 -89l-41 -18q-22 52 -50 73.5t-64 21.5q-37 0 -65 -21.5t-50 -73.5l-41 17q22 61 63.5 89.5t92.5 28.5q50 0 91 -28z" />
    <glyph glyph-name="uni020C" unicode="&#x20c;" horiz-adv-x="759" 
d="M213.5 36q-70.5 44 -108 126t-37.5 194t37.5 194t107.5 126t166 44t166.5 -44t108 -125.5t37.5 -193.5t-37.5 -194.5t-108 -126.5t-166.5 -44q-95 0 -165.5 44zM575 118q70 85 70 239t-69.5 238t-196.5 84t-196.5 -84.5t-69.5 -237.5t70 -238.5t196 -85.5t196 85z
M310 773l-97 150h53l71 -150h-27zM420 773l-98 150h55l70 -150h-27z" />
    <glyph glyph-name="uni020D" unicode="&#x20d;" horiz-adv-x="553" 
d="M160 25q-51 32 -78.5 91t-27.5 137t27.5 136.5t78.5 90.5t117 32t116.5 -32t78 -90.5t27.5 -136.5t-27.5 -137t-78 -91t-116.5 -32t-117 32zM407.5 91q46.5 57 46.5 162q0 102 -47 160t-130 58t-130.5 -57.5t-47.5 -160.5q0 -106 46 -162.5t131 -56.5t131.5 57zM207 566
l-81 202h57l52 -202h-28zM318 566l-80 202h57l51 -202h-28z" />
    <glyph glyph-name="uni020E" unicode="&#x20e;" horiz-adv-x="759" 
d="M213.5 36q-70.5 44 -108 126t-37.5 194t37.5 194t107.5 126t166 44t166.5 -44t108 -125.5t37.5 -193.5t-37.5 -194.5t-108 -126.5t-166.5 -44q-95 0 -165.5 44zM575 118q70 85 70 239t-69.5 238t-196.5 84t-196.5 -84.5t-69.5 -237.5t70 -238.5t196 -85.5t196 85z
M471 886.5q41 -24.5 63 -81.5l-40 -17q-26 47 -52.5 64.5t-62.5 17.5q-37 0 -63.5 -17.5t-52.5 -64.5l-40 17q43 106 156 106q51 0 92 -24.5z" />
    <glyph glyph-name="uni020F" unicode="&#x20f;" horiz-adv-x="553" 
d="M160 25q-51 32 -78.5 91t-27.5 137t27.5 136.5t78.5 90.5t117 32t116.5 -32t78 -90.5t27.5 -136.5t-27.5 -137t-78 -91t-116.5 -32t-117 32zM407.5 91q46.5 57 46.5 162q0 102 -47 160t-130 58t-130.5 -57.5t-47.5 -160.5q0 -106 46 -162.5t131 -56.5t131.5 57zM368 707
q41 -28 64 -89l-41 -18q-22 52 -50 73.5t-64 21.5q-37 0 -65 -21.5t-50 -73.5l-41 17q22 61 63.5 89.5t92.5 28.5q50 0 91 -28z" />
    <glyph glyph-name="uni0210" unicode="&#x210;" horiz-adv-x="684" 
d="M633 0h-43l-87 237q-19 52 -50.5 69.5t-93.5 17.5h-221v-324h-41v712h265q110 0 170 -49.5t60 -142.5q0 -69 -36.5 -115t-103.5 -64q31 -5 53 -26.5t36 -62.5zM363 364q91 0 137.5 40t46.5 117q0 152 -184 152h-224v-309h224zM268 773l-97 150h53l71 -150h-27zM378 773
l-98 150h55l70 -150h-27z" />
    <glyph glyph-name="uni0211" unicode="&#x211;" horiz-adv-x="336" 
d="M329 509l-3 -38q-12 2 -40 2q-55 0 -90 -25.5t-51 -65t-16 -82.5v-300h-41v362q0 78 -8 138h40l7 -94q20 52 62.5 79t97.5 27q28 0 42 -3zM140 566l-81 202h57l52 -202h-28zM251 566l-80 202h57l51 -202h-28z" />
    <glyph glyph-name="uni0212" unicode="&#x212;" horiz-adv-x="684" 
d="M633 0h-43l-87 237q-19 52 -50.5 69.5t-93.5 17.5h-221v-324h-41v712h265q110 0 170 -49.5t60 -142.5q0 -69 -36.5 -115t-103.5 -64q31 -5 53 -26.5t36 -62.5zM363 364q91 0 137.5 40t46.5 117q0 152 -184 152h-224v-309h224zM429 886.5q41 -24.5 63 -81.5l-40 -17
q-26 47 -52.5 64.5t-62.5 17.5q-37 0 -63.5 -17.5t-52.5 -64.5l-40 17q43 106 156 106q51 0 92 -24.5z" />
    <glyph glyph-name="uni0213" unicode="&#x213;" horiz-adv-x="336" 
d="M329 509l-3 -38q-12 2 -40 2q-55 0 -90 -25.5t-51 -65t-16 -82.5v-300h-41v362q0 78 -8 138h40l7 -94q20 52 62.5 79t97.5 27q28 0 42 -3zM301 707q41 -28 64 -89l-41 -18q-22 52 -50 73.5t-64 21.5q-37 0 -65 -21.5t-50 -73.5l-41 17q22 61 63.5 89.5t92.5 28.5
q50 0 91 -28z" />
    <glyph glyph-name="uni0214" unicode="&#x214;" horiz-adv-x="722" 
d="M160.5 62.5q-68.5 70.5 -68.5 207.5v442h41v-449q0 -230 229 -230q112 0 169.5 58t57.5 172v449h42v-442q0 -137 -68.5 -207.5t-200.5 -70.5q-133 0 -201.5 70.5zM293 773l-97 150h53l71 -150h-27zM403 773l-98 150h55l70 -150h-27z" />
    <glyph glyph-name="uni0215" unicode="&#x215;" horiz-adv-x="561" 
d="M473 500v-500h-40v95q-24 -49 -69.5 -75.5t-102.5 -26.5q-86 0 -131 48.5t-45 142.5v316h41v-312q0 -79 32.5 -116.5t99.5 -37.5q79 0 126.5 49.5t47.5 131.5v285h41zM211 566l-81 202h57l52 -202h-28zM322 566l-80 202h57l51 -202h-28z" />
    <glyph glyph-name="uni0216" unicode="&#x216;" horiz-adv-x="722" 
d="M160.5 62.5q-68.5 70.5 -68.5 207.5v442h41v-449q0 -230 229 -230q112 0 169.5 58t57.5 172v449h42v-442q0 -137 -68.5 -207.5t-200.5 -70.5q-133 0 -201.5 70.5zM454 886.5q41 -24.5 63 -81.5l-40 -17q-26 47 -52.5 64.5t-62.5 17.5q-37 0 -63.5 -17.5t-52.5 -64.5
l-40 17q43 106 156 106q51 0 92 -24.5z" />
    <glyph glyph-name="uni0217" unicode="&#x217;" horiz-adv-x="561" 
d="M473 500v-500h-40v95q-24 -49 -69.5 -75.5t-102.5 -26.5q-86 0 -131 48.5t-45 142.5v316h41v-312q0 -79 32.5 -116.5t99.5 -37.5q79 0 126.5 49.5t47.5 131.5v285h41zM372 707q41 -28 64 -89l-41 -18q-22 52 -50 73.5t-64 21.5q-37 0 -65 -21.5t-50 -73.5l-41 17
q22 61 63.5 89.5t92.5 28.5q50 0 91 -28z" />
    <glyph glyph-name="Scommaaccent" unicode="&#x218;" horiz-adv-x="604" 
d="M164.5 15q-62.5 23 -112.5 73l21 35q53 -49 107 -69.5t131 -20.5q95 0 147.5 40.5t52.5 113.5q0 42 -26 68.5t-64.5 40t-102.5 28.5q-85 20 -132.5 37t-84.5 56t-37 106q0 59 30 103.5t85.5 69t130.5 24.5q148 0 239 -96l-21 -35q-51 47 -103 68.5t-115 21.5
q-96 0 -149.5 -41.5t-53.5 -116.5q0 -64 46.5 -95t130.5 -52l45 -11q73 -17 118 -33.5t76.5 -51.5t31.5 -94q0 -56 -30 -99.5t-85.5 -68t-128.5 -24.5q-84 0 -146.5 23zM343 -77v-54q0 -37 -10.5 -66.5t-36.5 -55.5l-27 22q20 23 27.5 43t8.5 46h-33v65h71z" />
    <glyph glyph-name="scommaaccent" unicode="&#x219;" horiz-adv-x="492" 
d="M58 61l19 35q40 -34 78.5 -47.5t91.5 -13.5q67 0 102 23.5t35 68.5q0 36 -23 57.5t-74 34.5l-85 20q-57 13 -92 49t-35 82q0 64 48.5 103t130.5 39q53 0 97.5 -17.5t71.5 -49.5l-20 -36q-34 31 -70 46.5t-79 15.5q-63 0 -97.5 -25t-34.5 -70q0 -38 22 -61t68 -34l86 -21
q66 -15 99 -48t33 -82q0 -61 -50.5 -99t-135.5 -38q-118 0 -186 68zM279 -77v-54q0 -37 -10.5 -66.5t-36.5 -55.5l-27 22q20 23 27.5 43t8.5 46h-33v65h71z" />
    <glyph glyph-name="uni021A" unicode="&#x21a;" horiz-adv-x="590" 
d="M274 0v674h-262v38h566v-38h-263v-674h-41zM330 -77v-54q0 -37 -10.5 -66.5t-36.5 -55.5l-27 22q20 23 27.5 43t8.5 46h-33v65h71z" />
    <glyph glyph-name="uni021B" unicode="&#x21b;" horiz-adv-x="324" 
d="M150 464v-319q0 -64 23.5 -87.5t69.5 -23.5q30 0 56 9v-41q-30 -8 -60 -8q-60 0 -95.5 33.5t-35.5 103.5v333h-100v36h100v136l42 18v-154h152v-36h-152zM246 -77v-54q0 -37 -10.5 -66.5t-36.5 -55.5l-27 22q20 23 27.5 43t8.5 46h-33v65h71z" />
    <glyph glyph-name="uni0227" unicode="&#x227;" horiz-adv-x="583" 
d="M495 500v-500h-42v100q-22 -52 -67.5 -79.5t-108.5 -27.5q-67 0 -117.5 31.5t-78 90t-27.5 136.5t28 137t78.5 91.5t116.5 32.5q63 0 108.5 -27t67.5 -79v94h42zM407 91.5q46 57.5 46 161.5q0 105 -46 161.5t-130 56.5t-131 -58t-47 -162q0 -103 47.5 -160t131.5 -57
q83 0 129 57.5zM260 700h65v-64h-65v64z" />
    <glyph glyph-name="uni0228" unicode="&#x228;" horiz-adv-x="582" 
d="M139 673v-292h366v-40h-366v-302h386v-39h-189l-4 -45q13 4 30 4q28 0 50.5 -17.5t22.5 -52.5q0 -36 -28.5 -58.5t-77.5 -22.5q-22 0 -45.5 4.5t-40.5 14.5l14 35q32 -14 74 -14q30 0 45.5 11t15.5 30q0 15 -9 23t-27 8q-24 0 -52 -11l-19 14l8 77h-196v712h428v-39h-386
z" />
    <glyph glyph-name="uni022A" unicode="&#x22a;" horiz-adv-x="759" 
d="M213.5 36q-70.5 44 -108 126t-37.5 194t37.5 194t107.5 126t166 44t166.5 -44t108 -125.5t37.5 -193.5t-37.5 -194.5t-108 -126.5t-166.5 -44q-95 0 -165.5 44zM575 118q70 85 70 239t-69.5 238t-196.5 84t-196.5 -84.5t-69.5 -237.5t70 -238.5t196 -85.5t196 85z
M266 880h62v-61h-62v61zM429 880h62v-61h-62v61zM231 990v43h295v-43h-295z" />
    <glyph glyph-name="uni022B" unicode="&#x22b;" horiz-adv-x="553" 
d="M160 25q-51 32 -78.5 91t-27.5 137t27.5 136.5t78.5 90.5t117 32t116.5 -32t78 -90.5t27.5 -136.5t-27.5 -137t-78 -91t-116.5 -32t-117 32zM407.5 91q46.5 57 46.5 162q0 102 -47 160t-130 58t-130.5 -57.5t-47.5 -160.5q0 -106 46 -162.5t131 -56.5t131.5 57zM164 698
h62v-61h-62v61zM327 698h62v-61h-62v61zM129 844v44h295v-44h-295z" />
    <glyph glyph-name="uni022C" unicode="&#x22c;" horiz-adv-x="759" 
d="M213.5 36q-70.5 44 -108 126t-37.5 194t37.5 194t107.5 126t166 44t166.5 -44t108 -125.5t37.5 -193.5t-37.5 -194.5t-108 -126.5t-166.5 -44q-95 0 -165.5 44zM575 118q70 85 70 239t-69.5 238t-196.5 84t-196.5 -84.5t-69.5 -237.5t70 -238.5t196 -85.5t196 85z
M244 873.5q21 26.5 59 26.5q22 0 40.5 -8.5t47.5 -26.5q20 -13 33.5 -19.5t25.5 -6.5q25 0 38 17.5t12 40.5h34q0 -44 -21 -71t-59 -27q-22 0 -42 9t-46 26q-22 13 -35 19t-24 6q-25 0 -38 -17t-12 -40h-34q0 45 21 71.5zM231 990v43h295v-43h-295z" />
    <glyph glyph-name="uni022D" unicode="&#x22d;" horiz-adv-x="553" 
d="M160 25q-51 32 -78.5 91t-27.5 137t27.5 136.5t78.5 90.5t117 32t116.5 -32t78 -90.5t27.5 -136.5t-27.5 -137t-78 -91t-116.5 -32t-117 32zM407.5 91q46.5 57 46.5 162q0 102 -47 160t-130 58t-130.5 -57.5t-47.5 -160.5q0 -106 46 -162.5t131 -56.5t131.5 57zM142 692
q21 27 59 27q22 0 40.5 -8.5t47.5 -26.5q20 -13 33.5 -19.5t25.5 -6.5q25 0 38 17.5t12 40.5h34q0 -45 -21 -71.5t-59 -26.5q-22 0 -40.5 8.5t-47.5 26.5q-20 13 -33.5 19.5t-25.5 6.5q-25 0 -38 -17.5t-12 -40.5h-34q0 44 21 71zM129 844v44h295v-44h-295z" />
    <glyph glyph-name="uni0230" unicode="&#x230;" horiz-adv-x="759" 
d="M213.5 36q-70.5 44 -108 126t-37.5 194t37.5 194t107.5 126t166 44t166.5 -44t108 -125.5t37.5 -193.5t-37.5 -194.5t-108 -126.5t-166.5 -44q-95 0 -165.5 44zM575 118q70 85 70 239t-69.5 238t-196.5 84t-196.5 -84.5t-69.5 -237.5t70 -238.5t196 -85.5t196 85z
M346 881h65v-64h-65v64zM231 990v43h295v-43h-295z" />
    <glyph glyph-name="uni0231" unicode="&#x231;" horiz-adv-x="553" 
d="M160 25q-51 32 -78.5 91t-27.5 137t27.5 136.5t78.5 90.5t117 32t116.5 -32t78 -90.5t27.5 -136.5t-27.5 -137t-78 -91t-116.5 -32t-117 32zM407.5 91q46.5 57 46.5 162q0 102 -47 160t-130 58t-130.5 -57.5t-47.5 -160.5q0 -106 46 -162.5t131 -56.5t131.5 57zM244 700
h65v-64h-65v64zM129 844v44h295v-44h-295z" />
    <glyph glyph-name="uni0232" unicode="&#x232;" horiz-adv-x="587" 
d="M585 712l-271 -416v-296h-42v298l-271 414h50l243 -375l243 375h48zM145 828v43h295v-43h-295z" />
    <glyph glyph-name="uni0233" unicode="&#x233;" horiz-adv-x="520" 
d="M497 500l-236 -557q-34 -80 -84 -117t-125 -53l-8 34q72 17 110 45t63 89l21 53l-214 506h45l192 -462l193 462h43zM112 646v44h295v-44h-295z" />
    <glyph glyph-name="uni0237" unicode="&#x237;" horiz-adv-x="218" 
d="M0 -178q41 0 64.5 24t23.5 87v567h41v-580q0 -70 -33.5 -104t-90.5 -34q-21 0 -54 7v42q26 -9 49 -9z" />
    <glyph glyph-name="uni0259" unicode="&#x259;" horiz-adv-x="540" 
d="M422.5 443.5q63.5 -68.5 63.5 -189.5q0 -79 -27.5 -138t-78.5 -91t-119 -32q-100 0 -155 64t-55 179v8h390v8q0 105 -49.5 162t-140.5 57q-44 0 -86 -15.5t-85 -48.5l-21 35q35 32 87 51t103 19q110 0 173.5 -68.5zM381.5 76.5q45.5 44.5 56.5 126.5h-343
q6 -82 49 -126.5t117 -44.5q75 0 120.5 44.5z" />
    <glyph glyph-name="uni02BB" unicode="&#x2bb;" horiz-adv-x="300" 
d="M162.5 695q-7.5 -20 -8.5 -46h33v-65h-71v54q0 37 10.5 66.5t36.5 56.5l27 -23q-20 -23 -27.5 -43z" />
    <glyph glyph-name="uni02BC" unicode="&#x2bc;" horiz-adv-x="300" 
d="M184 758v-55q0 -36 -10.5 -66t-36.5 -55l-27 21q20 22 27.5 43t8.5 46h-33v66h71z" />
    <glyph glyph-name="uni02BE" unicode="&#x2be;" horiz-adv-x="300" 
d="M220 724.5q28 -27.5 28 -67.5t-28 -67.5t-68 -27.5v41q22 0 36.5 15.5t14.5 38.5t-14.5 38t-36.5 15v42q40 0 68 -27.5z" />
    <glyph glyph-name="uni02BF" unicode="&#x2bf;" horiz-adv-x="300" 
d="M152 710q-22 0 -37 -15t-15 -38t15 -38.5t37 -15.5v-41q-41 0 -69 27.5t-28 67.5t28 67.5t69 27.5v-42z" />
    <glyph glyph-name="circumflex" unicode="&#x2c6;" horiz-adv-x="300" 
d="M72 555h-52l112 202h39l112 -202h-52l-79 159z" />
    <glyph glyph-name="caron" unicode="&#x2c7;" horiz-adv-x="300" 
d="M231 757h52l-112 -202h-39l-112 202h52l80 -160z" />
    <glyph glyph-name="uni02C8" unicode="&#x2c8;" horiz-adv-x="300" 
d="M130 555v200h43v-200h-43z" />
    <glyph glyph-name="uni02C9" unicode="&#x2c9;" horiz-adv-x="300" 
d="M4 635v44h295v-44h-295z" />
    <glyph glyph-name="uni02CA" unicode="&#x2ca;" horiz-adv-x="300" 
d="M170 555h-37l101 202h63z" />
    <glyph glyph-name="uni02CB" unicode="&#x2cb;" horiz-adv-x="300" 
d="M133 555l-127 202h63l101 -202h-37z" />
    <glyph glyph-name="uni02CC" unicode="&#x2cc;" horiz-adv-x="300" 
d="M130 -273v200h43v-200h-43z" />
    <glyph glyph-name="breve" unicode="&#x2d8;" horiz-adv-x="300" 
d="M60 617.5q-41 27.5 -64 89.5l41 17q22 -50 50.5 -72t64.5 -22t64 22t50 72l41 -16q-22 -62 -63 -90t-92 -28t-92 27.5z" />
    <glyph glyph-name="dotaccent" unicode="&#x2d9;" horiz-adv-x="300" 
d="M119 689h65v-64h-65v64z" />
    <glyph glyph-name="ring" unicode="&#x2da;" horiz-adv-x="300" 
d="M83 588q-28 28 -28 68t28 67.5t69 27.5q40 0 68 -27.5t28 -67.5t-28 -68t-68 -28q-41 0 -69 28zM188.5 617.5q14.5 15.5 14.5 38.5t-14.5 38t-36.5 15t-37 -15t-15 -38t15 -38.5t37 -15.5t36.5 15.5z" />
    <glyph glyph-name="ogonek" unicode="&#x2db;" horiz-adv-x="300" 
d="M42 -163q-31 29 -31 74q0 49 34 84t95 45l12 -30q-48 -9 -72 -34t-24 -61q0 -32 19 -50t50 -18q12 0 29 5t32 14l16 -35q-32 -23 -79 -23q-50 0 -81 29z" />
    <glyph glyph-name="tilde" unicode="&#x2dc;" horiz-adv-x="300" 
d="M17 681q21 27 59 27q22 0 40.5 -8.5t47.5 -26.5q20 -13 33.5 -19.5t25.5 -6.5q25 0 38 17.5t12 40.5h34q0 -45 -21 -71.5t-59 -26.5q-22 0 -40.5 8.5t-47.5 26.5q-20 13 -33.5 19.5t-25.5 6.5q-25 0 -38 -17.5t-12 -40.5h-34q0 44 21 71z" />
    <glyph glyph-name="hungarumlaut" unicode="&#x2dd;" horiz-adv-x="300" 
d="M110 555h-28l51 202h57zM221 555h-28l52 202h57z" />
    <glyph glyph-name="gravecomb" unicode="&#x300;" 
d="M-167 555l-127 202h63l101 -202h-37z" />
    <glyph glyph-name="acutecomb" unicode="&#x301;" 
d="M-130 555h-37l101 202h63z" />
    <glyph glyph-name="uni0302" unicode="&#x302;" 
d="M-228 555h-52l112 202h39l112 -202h-52l-79 159z" />
    <glyph glyph-name="tildecomb" unicode="&#x303;" 
d="M-283 681q21 27 59 27q22 0 40.5 -8.5t47.5 -26.5q20 -13 33.5 -19.5t25.5 -6.5q25 0 38 17.5t12 40.5h34q0 -45 -21 -71.5t-59 -26.5q-22 0 -40.5 8.5t-47.5 26.5q-20 13 -33.5 19.5t-25.5 6.5q-25 0 -38 -17.5t-12 -40.5h-34q0 44 21 71z" />
    <glyph glyph-name="uni0304" unicode="&#x304;" 
d="M-296 635v44h295v-44h-295z" />
    <glyph glyph-name="uni0306" unicode="&#x306;" 
d="M-240 617.5q-41 27.5 -64 89.5l41 17q22 -50 50.5 -72t64.5 -22t64 22t50 72l41 -16q-22 -62 -63 -90t-92 -28t-92 27.5z" />
    <glyph glyph-name="uni0307" unicode="&#x307;" 
d="M-181 689h65v-64h-65v64z" />
    <glyph glyph-name="uni0308" unicode="&#x308;" 
d="M-261 687h62v-61h-62v61zM-98 687h62v-61h-62v61z" />
    <glyph glyph-name="hookabovecomb" unicode="&#x309;" 
d="M-126 555h-41v30q0 19 10.5 34.5t29.5 33.5q14 13 21 22.5t7 19.5q0 12 -12 18.5t-33 6.5q-32 0 -65 -12l-12 36q39 18 78 18q42 0 66.5 -18.5t24.5 -47.5q0 -23 -9.5 -36.5t-29.5 -30.5q-18 -16 -26.5 -28t-8.5 -31v-15z" />
    <glyph glyph-name="uni030A" unicode="&#x30a;" 
d="M-217 588q-28 28 -28 68t28 67.5t69 27.5q40 0 68 -27.5t28 -67.5t-28 -68t-68 -28q-41 0 -69 28zM-111.5 617.5q14.5 15.5 14.5 38.5t-14.5 38t-36.5 15t-37 -15t-15 -38t15 -38.5t37 -15.5t36.5 15.5z" />
    <glyph glyph-name="uni030B" unicode="&#x30b;" 
d="M-190 555h-28l51 202h57zM-79 555h-28l52 202h57z" />
    <glyph glyph-name="uni030C" unicode="&#x30c;" 
d="M-69 757h52l-112 -202h-39l-112 202h52l80 -160z" />
    <glyph glyph-name="uni030F" unicode="&#x30f;" 
d="M-218 555l-81 202h57l52 -202h-28zM-107 555l-80 202h57l51 -202h-28z" />
    <glyph glyph-name="uni0311" unicode="&#x311;" 
d="M-57 696q41 -28 64 -89l-41 -18q-22 52 -50 73.5t-64 21.5q-37 0 -65 -21.5t-50 -73.5l-41 17q22 61 63.5 89.5t92.5 28.5q50 0 91 -28z" />
    <glyph glyph-name="uni0312" unicode="&#x312;" 
d="M-137.5 695q-7.5 -20 -8.5 -46h33v-65h-71v54q0 37 10.5 66.5t36.5 56.5l27 -23q-20 -23 -27.5 -43z" />
    <glyph glyph-name="uni031B" unicode="&#x31b;" 
d="M-150 470v24q70 1 96 29t26 87v12h40v-20q0 -67 -37.5 -104.5t-108.5 -42.5z" />
    <glyph glyph-name="dotbelowcomb" unicode="&#x323;" 
d="M-182 -110h67v-65h-67v65z" />
    <glyph glyph-name="uni0324" unicode="&#x324;" 
d="M-261 -112h62v-61h-62v61zM-98 -112h62v-61h-62v61z" />
    <glyph glyph-name="uni0326" unicode="&#x326;" 
d="M-113 -77v-54q0 -37 -10.5 -66.5t-36.5 -55.5l-27 22q20 23 27.5 43t8.5 46h-33v65h71z" />
    <glyph glyph-name="uni0327" unicode="&#x327;" 
d="M-54.5 -58.5q22.5 -17.5 22.5 -52.5q0 -36 -28.5 -58.5t-77.5 -22.5q-22 0 -45.5 4.5t-40.5 14.5l14 35q32 -14 74 -14q30 0 45.5 11t15.5 30q0 15 -9 23t-27 8q-25 0 -52 -11l-19 14l10 97h43l-6 -65q13 4 30 4q28 0 50.5 -17.5z" />
    <glyph glyph-name="uni0328" unicode="&#x328;" 
d="M-258 -163q-31 29 -31 74q0 49 34 84t95 45l12 -30q-48 -9 -72 -34t-24 -61q0 -32 19 -50t50 -18q12 0 29 5t32 14l16 -35q-32 -23 -79 -23q-50 0 -81 29z" />
    <glyph glyph-name="uni032E" unicode="&#x32e;" 
d="M-240 -176.5q-41 27.5 -64 89.5l41 17q22 -50 50.5 -72t64.5 -22t64 22t50 72l41 -16q-22 -62 -63 -90t-92 -28t-92 27.5z" />
    <glyph glyph-name="uni0331" unicode="&#x331;" 
d="M-296 -164v44h295v-44h-295z" />
    <glyph glyph-name="uni0335" unicode="&#x335;" 
d="M-296 227v40h295v-40h-295z" />
    <glyph glyph-name="uni0394" unicode="&#x394;" horiz-adv-x="712" 
d="M680 18v-18h-36l-1 -2l-1 2h-572l-1 -2l-1 2h-36v18l304 694h40zM87 38h538l-269 614z" />
    <glyph glyph-name="Sigma" unicode="&#x3a3;" horiz-adv-x="575" 
d="M534 674h-441l257 -371l13 -19v-37l-13 -19l-256 -370h440v-40h-468l-1 -2v2h-26v32l285 416l-285 415v31h26v2l1 -2h468v-38z" />
    <glyph glyph-name="uni03A9" unicode="&#x3a9;" horiz-adv-x="768" 
d="M659.5 221.5q-47.5 -90.5 -148.5 -183.5h192v-38h-246v36q97 89 151 188t54 189q0 126 -73.5 196t-204.5 70t-204.5 -70t-73.5 -196q0 -91 53.5 -188.5t151.5 -188.5v-36h-246v38h192q-102 93 -148.5 183t-46.5 192q0 94 39 163t111.5 106.5t171.5 37.5t172 -37.5
t112 -106.5t39 -163q0 -101 -47.5 -191.5z" />
    <glyph glyph-name="uni03BC" unicode="&#x3bc;" horiz-adv-x="561" 
d="M473 500v-500h-40v95q-24 -49 -69.5 -75.5t-102.5 -26.5q-89 0 -135 47v-256h-41v716h41v-312q0 -79 32.5 -116.5t99.5 -37.5q79 0 126.5 49.5t47.5 131.5v285h41z" />
    <glyph glyph-name="pi" unicode="&#x3c0;" horiz-adv-x="570" 
d="M567 34l-4 -40l-44 3q-78 5 -119.5 50t-41.5 124v293h-208q-3 -287 -70 -464h-47q35 91 54 209.5t21 254.5h-103v36h527v-36h-132v-293q0 -124 125 -135z" />
    <glyph glyph-name="uni1E08" unicode="&#x1e08;" horiz-adv-x="684" 
d="M529 923l-125 -150h-37l101 150h61zM501.5 54q51.5 21 104.5 69l21 -35q-90 -93 -231 -96l-3 -37q13 4 30 4q28 0 50.5 -17.5t22.5 -52.5q0 -36 -28.5 -58.5t-77.5 -22.5q-22 0 -45.5 4.5t-40.5 14.5l14 35q32 -14 74 -14q30 0 45.5 11t15.5 30q0 15 -9 23t-27 8
q-24 0 -52 -11l-19 14l7 70q-88 7 -152 52.5t-98.5 125t-34.5 186.5q0 113 38.5 194.5t109.5 125t169 43.5q150 0 242 -96l-21 -35q-53 48 -104.5 69t-117.5 21q-129 0 -200.5 -84.5t-71.5 -237.5q0 -154 71 -239t201 -85q66 0 117.5 21z" />
    <glyph glyph-name="uni1E09" unicode="&#x1e09;" horiz-adv-x="487" 
d="M427 768l-127 -202h-37l101 202h63zM381 13q-43 -18 -89 -20l-3 -38q13 4 30 4q28 0 50.5 -17.5t22.5 -52.5q0 -36 -28.5 -58.5t-77.5 -22.5q-22 0 -45.5 4.5t-40.5 14.5l14 35q32 -14 74 -14q30 0 45.5 11t15.5 30q0 15 -9 23t-27 8q-24 0 -52 -11l-19 14l7 72
q-89 11 -142 80.5t-53 175.5q0 77 28.5 136.5t80.5 92t121 32.5q50 0 95 -18t75 -49l-20 -36q-41 33 -76 48t-74 15q-86 0 -135.5 -59.5t-49.5 -162.5q0 -102 49 -159t135 -57q39 0 74.5 14.5t76.5 47.5l20 -35q-30 -30 -73 -48z" />
    <glyph glyph-name="uni1E0C" unicode="&#x1e0c;" horiz-adv-x="733" 
d="M97 712h219q168 0 258.5 -92t90.5 -263t-91 -264t-258 -93h-219v712zM315 38q151 0 227.5 80.5t76.5 238.5t-76.5 237.5t-227.5 79.5h-177v-636h177zM333 -110h67v-65h-67v65z" />
    <glyph glyph-name="uni1E0D" unicode="&#x1e0d;" horiz-adv-x="583" 
d="M495 736v-736h-42v100q-22 -52 -67.5 -79.5t-108.5 -27.5q-66 0 -116.5 32.5t-78.5 92t-28 137.5q0 77 27.5 135.5t78 90t117.5 31.5q63 0 108.5 -27t67.5 -79v330h42zM407 91.5q46 57.5 46 161.5t-46 161t-129 57q-84 0 -131.5 -56.5t-47.5 -159.5q0 -104 47.5 -162.5
t130.5 -58.5q84 0 130 57.5zM260 -110h67v-65h-67v65z" />
    <glyph glyph-name="uni1E0E" unicode="&#x1e0e;" horiz-adv-x="733" 
d="M97 712h219q168 0 258.5 -92t90.5 -263t-91 -264t-258 -93h-219v712zM315 38q151 0 227.5 80.5t76.5 238.5t-76.5 237.5t-227.5 79.5h-177v-636h177zM219 -164v44h295v-44h-295z" />
    <glyph glyph-name="uni1E0F" unicode="&#x1e0f;" horiz-adv-x="583" 
d="M495 736v-736h-42v100q-22 -52 -67.5 -79.5t-108.5 -27.5q-66 0 -116.5 32.5t-78.5 92t-28 137.5q0 77 27.5 135.5t78 90t117.5 31.5q63 0 108.5 -27t67.5 -79v330h42zM407 91.5q46 57.5 46 161.5t-46 161t-129 57q-84 0 -131.5 -56.5t-47.5 -159.5q0 -104 47.5 -162.5
t130.5 -58.5q84 0 130 57.5zM146 -164v44h295v-44h-295z" />
    <glyph glyph-name="uni1E14" unicode="&#x1e14;" horiz-adv-x="582" 
d="M97 0v712h428v-39h-386v-292h366v-40h-366v-302h386v-39h-428zM175 828v43h295v-43h-295zM304 935l-125 150h61l101 -150h-37z" />
    <glyph glyph-name="uni1E15" unicode="&#x1e15;" horiz-adv-x="541" 
d="M101 261v-9q0 -105 49.5 -161.5t141.5 -56.5q47 0 88 15.5t81 49.5l20 -36q-32 -32 -82.5 -51t-104.5 -19q-111 0 -175.5 69t-64.5 190q0 77 29 136t81.5 91.5t120.5 32.5q96 0 150.5 -63t54.5 -176v-12h-389zM163.5 428.5q-47.5 -45.5 -59.5 -126.5h344q-6 83 -48 127.5
t-115 44.5q-74 0 -121.5 -45.5zM137 646v44h295v-44h-295zM266 764l-127 202h63l101 -202h-37z" />
    <glyph glyph-name="uni1E16" unicode="&#x1e16;" horiz-adv-x="582" 
d="M97 0v712h428v-39h-386v-292h366v-40h-366v-302h386v-39h-428zM175 828v43h295v-43h-295zM341 935h-37l101 150h61z" />
    <glyph glyph-name="uni1E17" unicode="&#x1e17;" horiz-adv-x="541" 
d="M101 261v-9q0 -105 49.5 -161.5t141.5 -56.5q47 0 88 15.5t81 49.5l20 -36q-32 -32 -82.5 -51t-104.5 -19q-111 0 -175.5 69t-64.5 190q0 77 29 136t81.5 91.5t120.5 32.5q96 0 150.5 -63t54.5 -176v-12h-389zM163.5 428.5q-47.5 -45.5 -59.5 -126.5h344q-6 83 -48 127.5
t-115 44.5q-74 0 -121.5 -45.5zM137 646v44h295v-44h-295zM303 764h-37l101 202h63z" />
    <glyph glyph-name="uni1E1C" unicode="&#x1e1c;" horiz-adv-x="582" 
d="M230 810.5q-41 24.5 -63 81.5l40 18q26 -48 52.5 -65.5t63.5 -17.5q36 0 62.5 17.5t52.5 65.5l40 -18q-43 -106 -155 -106q-52 0 -93 24.5zM139 673v-292h366v-40h-366v-302h386v-39h-189l-4 -45q13 4 30 4q28 0 50.5 -17.5t22.5 -52.5q0 -36 -28.5 -58.5t-77.5 -22.5
q-22 0 -45.5 4.5t-40.5 14.5l14 35q32 -14 74 -14q30 0 45.5 11t15.5 30q0 15 -9 23t-27 8q-24 0 -52 -11l-19 14l8 77h-196v712h428v-39h-386z" />
    <glyph glyph-name="uni1E1D" unicode="&#x1e1d;" horiz-adv-x="541" 
d="M193 628.5q-41 27.5 -64 89.5l41 17q22 -50 50.5 -72t64.5 -22t64 22t50 72l41 -16q-22 -62 -63 -90t-92 -28t-92 27.5zM101 261v-9q0 -105 49.5 -161.5t141.5 -56.5q47 0 88 15.5t81 49.5l20 -36q-29 -29 -76 -48t-98 -22l-3 -38q13 4 30 4q28 0 50.5 -17.5t22.5 -52.5
q0 -36 -28.5 -58.5t-77.5 -22.5q-22 0 -45.5 4.5t-40.5 14.5l14 35q32 -14 74 -14q30 0 45.5 11t15.5 30q0 15 -9 23t-27 8q-24 0 -52 -11l-19 14l7 71q-98 10 -154 78t-56 180q0 77 29 136t81.5 91.5t120.5 32.5q96 0 150.5 -63t54.5 -176v-12h-389zM163.5 428.5
q-47.5 -45.5 -59.5 -126.5h344q-6 83 -48 127.5t-115 44.5q-74 0 -121.5 -45.5z" />
    <glyph glyph-name="uni1E20" unicode="&#x1e20;" horiz-adv-x="723" 
d="M634 359v-319q-37 -21 -104 -34.5t-136 -13.5q-102 0 -175.5 43.5t-112 125.5t-38.5 196t38.5 195.5t111 124.5t172.5 43q149 0 239 -96l-21 -35q-52 48 -104 69t-117 21q-131 0 -203 -84t-72 -238q0 -157 73 -241t209 -84q55 0 107.5 10t93.5 27v249h-197v41h236z
M239 828v43h295v-43h-295z" />
    <glyph glyph-name="uni1E21" unicode="&#x1e21;" horiz-adv-x="587" 
d="M499 500v-507q0 -107 -50.5 -161.5t-149.5 -54.5q-112 0 -192 56l9 40q50 -30 90 -42.5t95 -12.5q77 0 117 43.5t40 126.5v137q-22 -54 -68 -82t-111 -28q-66 0 -117 31.5t-79.5 88t-28.5 129.5t28.5 129.5t79.5 87.5t117 31q64 0 109.5 -27t68.5 -79v94h42zM409.5 112.5
q47.5 55.5 47.5 151.5q0 97 -47.5 152t-130.5 55q-84 0 -132 -55t-48 -152t48 -152t132 -55q83 0 130.5 55.5zM149 646v44h295v-44h-295z" />
    <glyph glyph-name="uni1E24" unicode="&#x1e24;" horiz-adv-x="759" 
d="M139 712v-331h479v-39h-479v-342h-42v712h42zM619 712h43v-712h-43v712zM346 -110h67v-65h-67v65z" />
    <glyph glyph-name="uni1E25" unicode="&#x1e25;" horiz-adv-x="570" 
d="M485 322v-322h-42v318q0 80 -32.5 117t-103.5 37q-81 0 -129.5 -49t-48.5 -132v-291h-41v736h41v-326q22 50 68 76t106 26q182 0 182 -190zM252 -110h67v-65h-67v65z" />
    <glyph glyph-name="uni1E2A" unicode="&#x1e2a;" horiz-adv-x="759" 
d="M139 712v-331h479v-39h-479v-342h-42v712h42zM619 712h43v-712h-43v712zM288 -176.5q-41 27.5 -64 89.5l41 17q22 -50 50.5 -72t64.5 -22t64 22t50 72l41 -16q-22 -62 -63 -90t-92 -28t-92 27.5z" />
    <glyph glyph-name="uni1E2B" unicode="&#x1e2b;" horiz-adv-x="570" 
d="M485 322v-322h-42v318q0 80 -32.5 117t-103.5 37q-81 0 -129.5 -49t-48.5 -132v-291h-41v736h41v-326q22 50 68 76t106 26q182 0 182 -190zM194 -176.5q-41 27.5 -64 89.5l41 17q22 -50 50.5 -72t64.5 -22t64 22t50 72l41 -16q-22 -62 -63 -90t-92 -28t-92 27.5z" />
    <glyph glyph-name="uni1E2E" unicode="&#x1e2e;" horiz-adv-x="235" 
d="M97 0v712h41v-712h-41zM5 880h62v-61h-62v61zM168 880h62v-61h-62v61zM136 935h-37l101 150h61z" />
    <glyph glyph-name="uni1E2F" unicode="&#x1e2f;" horiz-adv-x="218" 
d="M88 0v500h41v-500h-41zM-3 698h62v-61h-62v61zM160 698h62v-61h-62v61zM128 764h-37l101 202h63z" />
    <glyph glyph-name="uni1E36" unicode="&#x1e36;" horiz-adv-x="532" 
d="M97 0v712h41v-674h379v-38h-420zM275 -110h67v-65h-67v65z" />
    <glyph glyph-name="uni1E37" unicode="&#x1e37;" horiz-adv-x="218" 
d="M88 0v736h41v-736h-41zM76 -110h67v-65h-67v65z" />
    <glyph glyph-name="uni1E3A" unicode="&#x1e3a;" horiz-adv-x="532" 
d="M97 0v712h41v-674h379v-38h-420zM161 -164v44h295v-44h-295z" />
    <glyph glyph-name="uni1E3B" unicode="&#x1e3b;" horiz-adv-x="218" 
d="M88 0v736h41v-736h-41zM-38 -164v44h295v-44h-295z" />
    <glyph glyph-name="uni1E42" unicode="&#x1e42;" horiz-adv-x="848" 
d="M715 712h36v-712h-41l1 610l-269 -610h-34l-271 605l1 -605h-41v712h36l292 -663zM390 -110h67v-65h-67v65z" />
    <glyph glyph-name="uni1E43" unicode="&#x1e43;" horiz-adv-x="860" 
d="M775 322v-322h-42v318q0 80 -29 117t-92 37q-73 0 -116 -49t-43 -132v-291h-42v318q0 80 -29 117t-93 37q-74 0 -117 -49t-43 -132v-291h-41v362q0 78 -8 138h40l7 -94q20 51 61.5 78.5t97.5 27.5q122 0 156 -99q21 47 65.5 73t102.5 26q165 0 165 -190zM398 -110h67v-65
h-67v65z" />
    <glyph glyph-name="uni1E44" unicode="&#x1e44;" horiz-adv-x="739" 
d="M603 712h39v-712h-34l-472 641v-641h-39v712h35l471 -639v639zM337 881h65v-64h-65v64z" />
    <glyph glyph-name="uni1E45" unicode="&#x1e45;" horiz-adv-x="570" 
d="M485 322v-322h-42v318q0 80 -32.5 117t-103.5 37q-81 0 -129.5 -49t-48.5 -132v-291h-41v362q0 78 -8 138h40l7 -95q21 52 68 79.5t108 27.5q182 0 182 -190zM253 700h65v-64h-65v64z" />
    <glyph glyph-name="uni1E46" unicode="&#x1e46;" horiz-adv-x="739" 
d="M603 712h39v-712h-34l-472 641v-641h-39v712h35l471 -639v639zM336 -110h67v-65h-67v65z" />
    <glyph glyph-name="uni1E47" unicode="&#x1e47;" horiz-adv-x="570" 
d="M485 322v-322h-42v318q0 80 -32.5 117t-103.5 37q-81 0 -129.5 -49t-48.5 -132v-291h-41v362q0 78 -8 138h40l7 -95q21 52 68 79.5t108 27.5q182 0 182 -190zM252 -110h67v-65h-67v65z" />
    <glyph glyph-name="uni1E48" unicode="&#x1e48;" horiz-adv-x="739" 
d="M603 712h39v-712h-34l-472 641v-641h-39v712h35l471 -639v639zM222 -164v44h295v-44h-295z" />
    <glyph glyph-name="uni1E49" unicode="&#x1e49;" horiz-adv-x="570" 
d="M485 322v-322h-42v318q0 80 -32.5 117t-103.5 37q-81 0 -129.5 -49t-48.5 -132v-291h-41v362q0 78 -8 138h40l7 -95q21 52 68 79.5t108 27.5q182 0 182 -190zM138 -164v44h295v-44h-295z" />
    <glyph glyph-name="uni1E4C" unicode="&#x1e4c;" horiz-adv-x="759" 
d="M213.5 36q-70.5 44 -108 126t-37.5 194t37.5 194t107.5 126t166 44t166.5 -44t108 -125.5t37.5 -193.5t-37.5 -194.5t-108 -126.5t-166.5 -44q-95 0 -165.5 44zM575 118q70 85 70 239t-69.5 238t-196.5 84t-196.5 -84.5t-69.5 -237.5t70 -238.5t196 -85.5t196 85z
M244 873.5q21 26.5 59 26.5q22 0 40.5 -8.5t47.5 -26.5q20 -13 33.5 -19.5t25.5 -6.5q25 0 38 17.5t12 40.5h34q0 -44 -21 -71t-59 -27q-22 0 -42 9t-46 26q-22 13 -35 19t-24 6q-25 0 -38 -17t-12 -40h-34q0 45 21 71.5zM397 935h-37l101 150h61z" />
    <glyph glyph-name="uni1E4D" unicode="&#x1e4d;" horiz-adv-x="553" 
d="M160 25q-51 32 -78.5 91t-27.5 137t27.5 136.5t78.5 90.5t117 32t116.5 -32t78 -90.5t27.5 -136.5t-27.5 -137t-78 -91t-116.5 -32t-117 32zM407.5 91q46.5 57 46.5 162q0 102 -47 160t-130 58t-130.5 -57.5t-47.5 -160.5q0 -106 46 -162.5t131 -56.5t131.5 57zM142 692
q21 27 59 27q22 0 40.5 -8.5t47.5 -26.5q20 -13 33.5 -19.5t25.5 -6.5q25 0 38 17.5t12 40.5h34q0 -45 -21 -71.5t-59 -26.5q-22 0 -40.5 8.5t-47.5 26.5q-20 13 -33.5 19.5t-25.5 6.5q-25 0 -38 -17.5t-12 -40.5h-34q0 44 21 71zM295 764h-37l101 202h63z" />
    <glyph glyph-name="uni1E4E" unicode="&#x1e4e;" horiz-adv-x="759" 
d="M213.5 36q-70.5 44 -108 126t-37.5 194t37.5 194t107.5 126t166 44t166.5 -44t108 -125.5t37.5 -193.5t-37.5 -194.5t-108 -126.5t-166.5 -44q-95 0 -165.5 44zM575 118q70 85 70 239t-69.5 238t-196.5 84t-196.5 -84.5t-69.5 -237.5t70 -238.5t196 -85.5t196 85z
M244 873.5q21 26.5 59 26.5q22 0 40.5 -8.5t47.5 -26.5q20 -13 33.5 -19.5t25.5 -6.5q25 0 38 17.5t12 40.5h34q0 -44 -21 -71t-59 -27q-22 0 -42 9t-46 26q-22 13 -35 19t-24 6q-25 0 -38 -17t-12 -40h-34q0 45 21 71.5zM266 1042h62v-61h-62v61zM429 1042h62v-61h-62v61z
" />
    <glyph glyph-name="uni1E4F" unicode="&#x1e4f;" horiz-adv-x="553" 
d="M160 25q-51 32 -78.5 91t-27.5 137t27.5 136.5t78.5 90.5t117 32t116.5 -32t78 -90.5t27.5 -136.5t-27.5 -137t-78 -91t-116.5 -32t-117 32zM407.5 91q46.5 57 46.5 162q0 102 -47 160t-130 58t-130.5 -57.5t-47.5 -160.5q0 -106 46 -162.5t131 -56.5t131.5 57zM142 692
q21 27 59 27q22 0 40.5 -8.5t47.5 -26.5q20 -13 33.5 -19.5t25.5 -6.5q25 0 38 17.5t12 40.5h34q0 -45 -21 -71.5t-59 -26.5q-22 0 -40.5 8.5t-47.5 26.5q-20 13 -33.5 19.5t-25.5 6.5q-25 0 -38 -17.5t-12 -40.5h-34q0 44 21 71zM164 896h62v-61h-62v61zM327 896h62v-61
h-62v61z" />
    <glyph glyph-name="uni1E50" unicode="&#x1e50;" horiz-adv-x="759" 
d="M213.5 36q-70.5 44 -108 126t-37.5 194t37.5 194t107.5 126t166 44t166.5 -44t108 -125.5t37.5 -193.5t-37.5 -194.5t-108 -126.5t-166.5 -44q-95 0 -165.5 44zM575 118q70 85 70 239t-69.5 238t-196.5 84t-196.5 -84.5t-69.5 -237.5t70 -238.5t196 -85.5t196 85z
M231 828v43h295v-43h-295zM360 935l-125 150h61l101 -150h-37z" />
    <glyph glyph-name="uni1E51" unicode="&#x1e51;" horiz-adv-x="553" 
d="M160 25q-51 32 -78.5 91t-27.5 137t27.5 136.5t78.5 90.5t117 32t116.5 -32t78 -90.5t27.5 -136.5t-27.5 -137t-78 -91t-116.5 -32t-117 32zM407.5 91q46.5 57 46.5 162q0 102 -47 160t-130 58t-130.5 -57.5t-47.5 -160.5q0 -106 46 -162.5t131 -56.5t131.5 57zM129 646
v44h295v-44h-295zM258 764l-127 202h63l101 -202h-37z" />
    <glyph glyph-name="uni1E52" unicode="&#x1e52;" horiz-adv-x="759" 
d="M213.5 36q-70.5 44 -108 126t-37.5 194t37.5 194t107.5 126t166 44t166.5 -44t108 -125.5t37.5 -193.5t-37.5 -194.5t-108 -126.5t-166.5 -44q-95 0 -165.5 44zM575 118q70 85 70 239t-69.5 238t-196.5 84t-196.5 -84.5t-69.5 -237.5t70 -238.5t196 -85.5t196 85z
M231 828v43h295v-43h-295zM397 935h-37l101 150h61z" />
    <glyph glyph-name="uni1E53" unicode="&#x1e53;" horiz-adv-x="553" 
d="M160 25q-51 32 -78.5 91t-27.5 137t27.5 136.5t78.5 90.5t117 32t116.5 -32t78 -90.5t27.5 -136.5t-27.5 -137t-78 -91t-116.5 -32t-117 32zM407.5 91q46.5 57 46.5 162q0 102 -47 160t-130 58t-130.5 -57.5t-47.5 -160.5q0 -106 46 -162.5t131 -56.5t131.5 57zM129 646
v44h295v-44h-295zM295 764h-37l101 202h63z" />
    <glyph glyph-name="uni1E5A" unicode="&#x1e5a;" horiz-adv-x="684" 
d="M633 0h-43l-87 237q-19 52 -50.5 69.5t-93.5 17.5h-221v-324h-41v712h265q110 0 170 -49.5t60 -142.5q0 -69 -36.5 -115t-103.5 -64q31 -5 53 -26.5t36 -62.5zM363 364q91 0 137.5 40t46.5 117q0 152 -184 152h-224v-309h224zM303 -110h67v-65h-67v65z" />
    <glyph glyph-name="uni1E5B" unicode="&#x1e5b;" horiz-adv-x="336" 
d="M329 509l-3 -38q-12 2 -40 2q-55 0 -90 -25.5t-51 -65t-16 -82.5v-300h-41v362q0 78 -8 138h40l7 -94q20 52 62.5 79t97.5 27q28 0 42 -3zM76 -110h67v-65h-67v65z" />
    <glyph glyph-name="uni1E5E" unicode="&#x1e5e;" horiz-adv-x="684" 
d="M633 0h-43l-87 237q-19 52 -50.5 69.5t-93.5 17.5h-221v-324h-41v712h265q110 0 170 -49.5t60 -142.5q0 -69 -36.5 -115t-103.5 -64q31 -5 53 -26.5t36 -62.5zM363 364q91 0 137.5 40t46.5 117q0 152 -184 152h-224v-309h224zM189 -164v44h295v-44h-295z" />
    <glyph glyph-name="uni1E5F" unicode="&#x1e5f;" horiz-adv-x="336" 
d="M329 509l-3 -38q-12 2 -40 2q-55 0 -90 -25.5t-51 -65t-16 -82.5v-300h-41v362q0 78 -8 138h40l7 -94q20 52 62.5 79t97.5 27q28 0 42 -3zM-38 -164v44h295v-44h-295z" />
    <glyph glyph-name="uni1E60" unicode="&#x1e60;" horiz-adv-x="604" 
d="M164.5 15q-62.5 23 -112.5 73l21 35q53 -49 107 -69.5t131 -20.5q95 0 147.5 40.5t52.5 113.5q0 42 -26 68.5t-64.5 40t-102.5 28.5q-85 20 -132.5 37t-84.5 56t-37 106q0 59 30 103.5t85.5 69t130.5 24.5q148 0 239 -96l-21 -35q-51 47 -103 68.5t-115 21.5
q-96 0 -149.5 -41.5t-53.5 -116.5q0 -64 46.5 -95t130.5 -52l45 -11q73 -17 118 -33.5t76.5 -51.5t31.5 -94q0 -56 -30 -99.5t-85.5 -68t-128.5 -24.5q-84 0 -146.5 23zM269 881h65v-64h-65v64z" />
    <glyph glyph-name="uni1E61" unicode="&#x1e61;" horiz-adv-x="492" 
d="M58 61l19 35q40 -34 78.5 -47.5t91.5 -13.5q67 0 102 23.5t35 68.5q0 36 -23 57.5t-74 34.5l-85 20q-57 13 -92 49t-35 82q0 64 48.5 103t130.5 39q53 0 97.5 -17.5t71.5 -49.5l-20 -36q-34 31 -70 46.5t-79 15.5q-63 0 -97.5 -25t-34.5 -70q0 -38 22 -61t68 -34l86 -21
q66 -15 99 -48t33 -82q0 -61 -50.5 -99t-135.5 -38q-118 0 -186 68zM221 700h65v-64h-65v64z" />
    <glyph glyph-name="uni1E62" unicode="&#x1e62;" horiz-adv-x="604" 
d="M164.5 15q-62.5 23 -112.5 73l21 35q53 -49 107 -69.5t131 -20.5q95 0 147.5 40.5t52.5 113.5q0 42 -26 68.5t-64.5 40t-102.5 28.5q-85 20 -132.5 37t-84.5 56t-37 106q0 59 30 103.5t85.5 69t130.5 24.5q148 0 239 -96l-21 -35q-51 47 -103 68.5t-115 21.5
q-96 0 -149.5 -41.5t-53.5 -116.5q0 -64 46.5 -95t130.5 -52l45 -11q73 -17 118 -33.5t76.5 -51.5t31.5 -94q0 -56 -30 -99.5t-85.5 -68t-128.5 -24.5q-84 0 -146.5 23zM274 -110h67v-65h-67v65z" />
    <glyph glyph-name="uni1E63" unicode="&#x1e63;" horiz-adv-x="492" 
d="M58 61l19 35q40 -34 78.5 -47.5t91.5 -13.5q67 0 102 23.5t35 68.5q0 36 -23 57.5t-74 34.5l-85 20q-57 13 -92 49t-35 82q0 64 48.5 103t130.5 39q53 0 97.5 -17.5t71.5 -49.5l-20 -36q-34 31 -70 46.5t-79 15.5q-63 0 -97.5 -25t-34.5 -70q0 -38 22 -61t68 -34l86 -21
q66 -15 99 -48t33 -82q0 -61 -50.5 -99t-135.5 -38q-118 0 -186 68zM210 -110h67v-65h-67v65z" />
    <glyph glyph-name="uni1E64" unicode="&#x1e64;" horiz-adv-x="604" 
d="M164.5 15q-62.5 23 -112.5 73l21 35q53 -49 107 -69.5t131 -20.5q95 0 147.5 40.5t52.5 113.5q0 42 -26 68.5t-64.5 40t-102.5 28.5q-85 20 -132.5 37t-84.5 56t-37 106q0 59 30 103.5t85.5 69t130.5 24.5q148 0 239 -96l-21 -35q-51 47 -103 68.5t-115 21.5
q-96 0 -149.5 -41.5t-53.5 -116.5q0 -64 46.5 -95t130.5 -52l45 -11q73 -17 118 -33.5t76.5 -51.5t31.5 -94q0 -56 -30 -99.5t-85.5 -68t-128.5 -24.5q-84 0 -146.5 23zM316 773h-37l101 150h61zM160 923h65v-64h-65v64z" />
    <glyph glyph-name="uni1E65" unicode="&#x1e65;" horiz-adv-x="492" 
d="M58 61l19 35q40 -34 78.5 -47.5t91.5 -13.5q67 0 102 23.5t35 68.5q0 36 -23 57.5t-74 34.5l-85 20q-57 13 -92 49t-35 82q0 64 48.5 103t130.5 39q53 0 97.5 -17.5t71.5 -49.5l-20 -36q-34 31 -70 46.5t-79 15.5q-63 0 -97.5 -25t-34.5 -70q0 -38 22 -61t68 -34l86 -21
q66 -15 99 -48t33 -82q0 -61 -50.5 -99t-135.5 -38q-118 0 -186 68zM271 567h-37l101 202h63zM124 760h65v-64h-65v64z" />
    <glyph glyph-name="uni1E66" unicode="&#x1e66;" horiz-adv-x="604" 
d="M164.5 15q-62.5 23 -112.5 73l21 35q53 -49 107 -69.5t131 -20.5q95 0 147.5 40.5t52.5 113.5q0 42 -26 68.5t-64.5 40t-102.5 28.5q-85 20 -132.5 37t-84.5 56t-37 106q0 59 30 103.5t85.5 69t130.5 24.5q148 0 239 -96l-21 -35q-51 47 -103 68.5t-115 21.5
q-96 0 -149.5 -41.5t-53.5 -116.5q0 -64 46.5 -95t130.5 -52l45 -11q73 -17 118 -33.5t76.5 -51.5t31.5 -94q0 -56 -30 -99.5t-85.5 -68t-128.5 -24.5q-84 0 -146.5 23zM381 923h52l-113 -150h-37l-113 150h52l80 -114zM269 1043h65v-64h-65v64z" />
    <glyph glyph-name="uni1E67" unicode="&#x1e67;" horiz-adv-x="492" 
d="M58 61l19 35q40 -34 78.5 -47.5t91.5 -13.5q67 0 102 23.5t35 68.5q0 36 -23 57.5t-74 34.5l-85 20q-57 13 -92 49t-35 82q0 64 48.5 103t130.5 39q53 0 97.5 -17.5t71.5 -49.5l-20 -36q-34 31 -70 46.5t-79 15.5q-63 0 -97.5 -25t-34.5 -70q0 -38 22 -61t68 -34l86 -21
q66 -15 99 -48t33 -82q0 -61 -50.5 -99t-135.5 -38q-118 0 -186 68zM333 768h52l-112 -202h-39l-112 202h52l80 -160zM221 898h65v-64h-65v64z" />
    <glyph glyph-name="uni1E68" unicode="&#x1e68;" horiz-adv-x="604" 
d="M164.5 15q-62.5 23 -112.5 73l21 35q53 -49 107 -69.5t131 -20.5q95 0 147.5 40.5t52.5 113.5q0 42 -26 68.5t-64.5 40t-102.5 28.5q-85 20 -132.5 37t-84.5 56t-37 106q0 59 30 103.5t85.5 69t130.5 24.5q148 0 239 -96l-21 -35q-51 47 -103 68.5t-115 21.5
q-96 0 -149.5 -41.5t-53.5 -116.5q0 -64 46.5 -95t130.5 -52l45 -11q73 -17 118 -33.5t76.5 -51.5t31.5 -94q0 -56 -30 -99.5t-85.5 -68t-128.5 -24.5q-84 0 -146.5 23zM274 -110h67v-65h-67v65zM269 881h65v-64h-65v64z" />
    <glyph glyph-name="uni1E69" unicode="&#x1e69;" horiz-adv-x="492" 
d="M58 61l19 35q40 -34 78.5 -47.5t91.5 -13.5q67 0 102 23.5t35 68.5q0 36 -23 57.5t-74 34.5l-85 20q-57 13 -92 49t-35 82q0 64 48.5 103t130.5 39q53 0 97.5 -17.5t71.5 -49.5l-20 -36q-34 31 -70 46.5t-79 15.5q-63 0 -97.5 -25t-34.5 -70q0 -38 22 -61t68 -34l86 -21
q66 -15 99 -48t33 -82q0 -61 -50.5 -99t-135.5 -38q-118 0 -186 68zM210 -110h67v-65h-67v65zM221 700h65v-64h-65v64z" />
    <glyph glyph-name="uni1E6C" unicode="&#x1e6c;" horiz-adv-x="590" 
d="M274 0v674h-262v38h566v-38h-263v-674h-41zM261 -110h67v-65h-67v65z" />
    <glyph glyph-name="uni1E6D" unicode="&#x1e6d;" horiz-adv-x="324" 
d="M150 464v-319q0 -64 23.5 -87.5t69.5 -23.5q30 0 56 9v-41q-30 -8 -60 -8q-60 0 -95.5 33.5t-35.5 103.5v333h-100v36h100v136l42 18v-154h152v-36h-152zM177 -110h67v-65h-67v65z" />
    <glyph glyph-name="uni1E6E" unicode="&#x1e6e;" horiz-adv-x="590" 
d="M274 0v674h-262v38h566v-38h-263v-674h-41zM147 -164v44h295v-44h-295z" />
    <glyph glyph-name="uni1E6F" unicode="&#x1e6f;" horiz-adv-x="324" 
d="M150 464v-319q0 -64 23.5 -87.5t69.5 -23.5q30 0 56 9v-41q-30 -8 -60 -8q-60 0 -95.5 33.5t-35.5 103.5v333h-100v36h100v136l42 18v-154h152v-36h-152zM63 -164v44h295v-44h-295z" />
    <glyph glyph-name="uni1E78" unicode="&#x1e78;" horiz-adv-x="722" 
d="M160.5 62.5q-68.5 70.5 -68.5 207.5v442h41v-449q0 -230 229 -230q112 0 169.5 58t57.5 172v449h42v-442q0 -137 -68.5 -207.5t-200.5 -70.5q-133 0 -201.5 70.5zM227 873.5q21 26.5 59 26.5q22 0 40.5 -8.5t47.5 -26.5q20 -13 33.5 -19.5t25.5 -6.5q25 0 38 17.5
t12 40.5h34q0 -44 -21 -71t-59 -27q-22 0 -42 9t-46 26q-22 13 -35 19t-24 6q-25 0 -38 -17t-12 -40h-34q0 45 21 71.5zM380 935h-37l101 150h61z" />
    <glyph glyph-name="uni1E79" unicode="&#x1e79;" horiz-adv-x="561" 
d="M473 500v-500h-40v95q-24 -49 -69.5 -75.5t-102.5 -26.5q-86 0 -131 48.5t-45 142.5v316h41v-312q0 -79 32.5 -116.5t99.5 -37.5q79 0 126.5 49.5t47.5 131.5v285h41zM146 692q21 27 59 27q22 0 40.5 -8.5t47.5 -26.5q20 -13 33.5 -19.5t25.5 -6.5q25 0 38 17.5t12 40.5
h34q0 -45 -21 -71.5t-59 -26.5q-22 0 -40.5 8.5t-47.5 26.5q-20 13 -33.5 19.5t-25.5 6.5q-25 0 -38 -17.5t-12 -40.5h-34q0 44 21 71zM299 764h-37l101 202h63z" />
    <glyph glyph-name="uni1E7A" unicode="&#x1e7a;" horiz-adv-x="722" 
d="M160.5 62.5q-68.5 70.5 -68.5 207.5v442h41v-449q0 -230 229 -230q112 0 169.5 58t57.5 172v449h42v-442q0 -137 -68.5 -207.5t-200.5 -70.5q-133 0 -201.5 70.5zM214 828v43h295v-43h-295zM249 1042h62v-61h-62v61zM412 1042h62v-61h-62v61z" />
    <glyph glyph-name="uni1E7B" unicode="&#x1e7b;" horiz-adv-x="561" 
d="M473 500v-500h-40v95q-24 -49 -69.5 -75.5t-102.5 -26.5q-86 0 -131 48.5t-45 142.5v316h41v-312q0 -79 32.5 -116.5t99.5 -37.5q79 0 126.5 49.5t47.5 131.5v285h41zM133 646v44h295v-44h-295zM168 896h62v-61h-62v61zM331 896h62v-61h-62v61z" />
    <glyph glyph-name="Wgrave" unicode="&#x1e80;" horiz-adv-x="1104" 
d="M1019 712h43l-247 -712h-39l-224 643l-225 -643h-38l-247 712h42l224 -652l225 652l37 -1l224 -650zM532 773l-125 150h61l101 -150h-37z" />
    <glyph glyph-name="wgrave" unicode="&#x1e81;" horiz-adv-x="857" 
d="M772 500h44l-177 -500h-50l-160 449l-161 -449h-51l-175 500h46l153 -451l163 451h52l158 -450zM410 566l-127 202h63l101 -202h-37z" />
    <glyph glyph-name="Wacute" unicode="&#x1e82;" horiz-adv-x="1104" 
d="M1019 712h43l-247 -712h-39l-224 643l-225 -643h-38l-247 712h42l224 -652l225 652l37 -1l224 -650zM569 773h-37l101 150h61z" />
    <glyph glyph-name="wacute" unicode="&#x1e83;" horiz-adv-x="857" 
d="M772 500h44l-177 -500h-50l-160 449l-161 -449h-51l-175 500h46l153 -451l163 451h52l158 -450zM447 566h-37l101 202h63z" />
    <glyph glyph-name="Wdieresis" unicode="&#x1e84;" horiz-adv-x="1104" 
d="M1019 712h43l-247 -712h-39l-224 643l-225 -643h-38l-247 712h42l224 -652l225 652l37 -1l224 -650zM438 880h62v-61h-62v61zM601 880h62v-61h-62v61z" />
    <glyph glyph-name="wdieresis" unicode="&#x1e85;" horiz-adv-x="857" 
d="M772 500h44l-177 -500h-50l-160 449l-161 -449h-51l-175 500h46l153 -451l163 451h52l158 -450zM316 698h62v-61h-62v61zM479 698h62v-61h-62v61z" />
    <glyph glyph-name="uni1E8E" unicode="&#x1e8e;" horiz-adv-x="587" 
d="M585 712l-271 -416v-296h-42v298l-271 414h50l243 -375l243 375h48zM260 881h65v-64h-65v64z" />
    <glyph glyph-name="uni1E8F" unicode="&#x1e8f;" horiz-adv-x="520" 
d="M497 500l-236 -557q-34 -80 -84 -117t-125 -53l-8 34q72 17 110 45t63 89l21 53l-214 506h45l192 -462l193 462h43zM227 700h65v-64h-65v64z" />
    <glyph glyph-name="uni1E92" unicode="&#x1e92;" horiz-adv-x="585" 
d="M546 39v-39h-479l-1 -2v2h-24v31l444 642h-444v39h471l1 2v-2h22v-31l-442 -642h452zM266 -110h67v-65h-67v65z" />
    <glyph glyph-name="uni1E93" unicode="&#x1e93;" horiz-adv-x="512" 
d="M109 37h355v-37h-413v28l349 436h-334v36h386v-34zM221 -110h67v-65h-67v65z" />
    <glyph glyph-name="uni1E97" unicode="&#x1e97;" horiz-adv-x="324" 
d="M150 464v-319q0 -64 23.5 -87.5t69.5 -23.5q30 0 56 9v-41q-30 -8 -60 -8q-60 0 -95.5 33.5t-35.5 103.5v333h-100v36h100v136l42 18v-154h152v-36h-152zM16 824h62v-61h-62v61zM179 824h62v-61h-62v61z" />
    <glyph glyph-name="uni1E9E" unicode="&#x1e9e;" horiz-adv-x="683" 
d="M573.5 309.5q38.5 -45.5 38.5 -116.5q0 -59 -27 -104.5t-76 -70.5t-113 -25q-51 0 -99 17.5t-84 50.5l21 38q41 -34 78 -49t77 -15q83 0 131 42.5t48 116.5q0 72 -48.5 110t-139.5 38h-143v40h105q86 0 133 39.5t47 112.5q0 68 -46.5 106t-128.5 38q-107 0 -157.5 -52.5
t-50.5 -164.5v-461h-42v470q0 125 62 187t187 62q102 0 161 -49.5t59 -135.5q0 -60 -27.5 -102t-77.5 -61q74 -16 112.5 -61.5z" />
    <glyph glyph-name="uni1EA0" unicode="&#x1ea0;" horiz-adv-x="721" 
d="M642 0l-85 197h-394l-84 -197h-45l306 712h41l306 -712h-45zM180 237h360l-180 420zM327 -110h67v-65h-67v65z" />
    <glyph glyph-name="uni1EA1" unicode="&#x1ea1;" horiz-adv-x="583" 
d="M495 500v-500h-42v100q-22 -52 -67.5 -79.5t-108.5 -27.5q-67 0 -117.5 31.5t-78 90t-27.5 136.5t28 137t78.5 91.5t116.5 32.5q63 0 108.5 -27t67.5 -79v94h42zM407 91.5q46 57.5 46 161.5q0 105 -46 161.5t-130 56.5t-131 -58t-47 -162q0 -103 47.5 -160t131.5 -57
q83 0 129 57.5zM259 -110h67v-65h-67v65z" />
    <glyph glyph-name="uni1EA2" unicode="&#x1ea2;" horiz-adv-x="721" 
d="M642 0l-85 197h-394l-84 -197h-45l306 712h41l306 -712h-45zM180 237h360l-180 420zM382 773h-42v15q0 18 10.5 28t30.5 22q14 7 21 13.5t7 14.5q0 10 -12 15t-33 5q-32 0 -64 -12l-12 38q36 16 75 16q45 0 69.5 -17t24.5 -47q0 -20 -11.5 -30.5t-33.5 -22.5
q-15 -7 -22.5 -13.5t-7.5 -15.5v-9z" />
    <glyph glyph-name="uni1EA3" unicode="&#x1ea3;" horiz-adv-x="583" 
d="M495 500v-500h-42v100q-22 -52 -67.5 -79.5t-108.5 -27.5q-67 0 -117.5 31.5t-78 90t-27.5 136.5t28 137t78.5 91.5t116.5 32.5q63 0 108.5 -27t67.5 -79v94h42zM407 91.5q46 57.5 46 161.5q0 105 -46 161.5t-130 56.5t-131 -58t-47 -162q0 -103 47.5 -160t131.5 -57
q83 0 129 57.5zM315 566h-41v30q0 19 10.5 34.5t29.5 33.5q14 13 21 22.5t7 19.5q0 12 -12 18.5t-33 6.5q-32 0 -65 -12l-12 36q39 18 78 18q42 0 66.5 -18.5t24.5 -47.5q0 -23 -9.5 -36.5t-29.5 -30.5q-18 -16 -26.5 -28t-8.5 -31v-15z" />
    <glyph glyph-name="uni1EA4" unicode="&#x1ea4;" horiz-adv-x="721" 
d="M642 0l-85 197h-394l-84 -197h-45l306 712h41l306 -712h-45zM180 237h360l-180 420zM477 874h-37l104 143h63zM281 773h-52l113 152h37l113 -152h-52l-79 116z" />
    <glyph glyph-name="uni1EA5" unicode="&#x1ea5;" horiz-adv-x="583" 
d="M495 500v-500h-42v100q-22 -52 -67.5 -79.5t-108.5 -27.5q-67 0 -117.5 31.5t-78 90t-27.5 136.5t28 137t78.5 91.5t116.5 32.5q63 0 108.5 -27t67.5 -79v94h42zM407 91.5q46 57.5 46 161.5q0 105 -46 161.5t-130 56.5t-131 -58t-47 -162q0 -103 47.5 -160t131.5 -57
q83 0 129 57.5zM409 668h-37l104 143h63zM213 566h-52l113 153h37l113 -153h-52l-79 116z" />
    <glyph glyph-name="uni1EA6" unicode="&#x1ea6;" horiz-adv-x="721" 
d="M642 0l-85 197h-394l-84 -197h-45l306 712h41l306 -712h-45zM180 237h360l-180 420zM484 874l-107 143h62l81 -143h-36zM281 773h-52l113 152h37l113 -152h-52l-79 116z" />
    <glyph glyph-name="uni1EA7" unicode="&#x1ea7;" horiz-adv-x="583" 
d="M495 500v-500h-42v100q-22 -52 -67.5 -79.5t-108.5 -27.5q-67 0 -117.5 31.5t-78 90t-27.5 136.5t28 137t78.5 91.5t116.5 32.5q63 0 108.5 -27t67.5 -79v94h42zM407 91.5q46 57.5 46 161.5q0 105 -46 161.5t-130 56.5t-131 -58t-47 -162q0 -103 47.5 -160t131.5 -57
q83 0 129 57.5zM416 668l-107 143h62l81 -143h-36zM213 566h-52l113 153h37l113 -153h-52l-79 116z" />
    <glyph glyph-name="uni1EA8" unicode="&#x1ea8;" horiz-adv-x="721" 
d="M642 0l-85 197h-394l-84 -197h-45l306 712h41l306 -712h-45zM180 237h360l-180 420zM482 874h-43v16q0 17 10 25.5t31 18.5q14 5 21.5 10.5t7.5 13.5q0 22 -46 22q-31 0 -63 -12l-12 37q35 17 74 17q45 0 70.5 -17.5t25.5 -47.5q0 -17 -11 -26t-33 -20q-16 -7 -24 -13
t-8 -15v-9zM281 773h-52l113 152h37l113 -152h-52l-79 116z" />
    <glyph glyph-name="uni1EA9" unicode="&#x1ea9;" horiz-adv-x="583" 
d="M495 500v-500h-42v100q-22 -52 -67.5 -79.5t-108.5 -27.5q-67 0 -117.5 31.5t-78 90t-27.5 136.5t28 137t78.5 91.5t116.5 32.5q63 0 108.5 -27t67.5 -79v94h42zM407 91.5q46 57.5 46 161.5q0 105 -46 161.5t-130 56.5t-131 -58t-47 -162q0 -103 47.5 -160t131.5 -57
q83 0 129 57.5zM414 668h-43v15q0 17 11 26.5t30 17.5q15 7 22 12t7 13q0 10 -12.5 15.5t-33.5 5.5q-32 0 -63 -13l-12 39q39 17 74 17q45 0 70.5 -18t25.5 -48q0 -17 -11.5 -26.5t-32.5 -18.5q-16 -7 -24 -13t-8 -15v-9zM213 566h-52l113 153h37l113 -153h-52l-79 116z" />
    <glyph glyph-name="uni1EAA" unicode="&#x1eaa;" horiz-adv-x="721" 
d="M642 0l-85 197h-394l-84 -197h-45l306 712h41l306 -712h-45zM180 237h360l-180 420zM226.5 1008.5q21.5 26.5 58.5 26.5q22 0 41 -7t47 -21q22 -11 35 -16t24 -5q24 0 37.5 16.5t12.5 36.5h34q0 -43 -21.5 -69.5t-58.5 -26.5q-22 0 -41 7t-47 21q-21 11 -34.5 16t-24.5 5
q-24 0 -37.5 -16.5t-12.5 -36.5h-34q0 43 21.5 69.5zM281 773h-52l113 152h37l113 -152h-52l-79 116z" />
    <glyph glyph-name="uni1EAB" unicode="&#x1eab;" horiz-adv-x="583" 
d="M495 500v-500h-42v100q-22 -52 -67.5 -79.5t-108.5 -27.5q-67 0 -117.5 31.5t-78 90t-27.5 136.5t28 137t78.5 91.5t116.5 32.5q63 0 108.5 -27t67.5 -79v94h42zM407 91.5q46 57.5 46 161.5q0 105 -46 161.5t-130 56.5t-131 -58t-47 -162q0 -103 47.5 -160t131.5 -57
q83 0 129 57.5zM158 802q21 26 59 26q22 0 41 -7t47 -21q16 -8 32 -14t27 -6q24 0 37.5 16.5t12.5 35.5h34q0 -43 -21.5 -69.5t-58.5 -26.5q-22 0 -42 7.5t-46 21.5q-21 11 -34.5 16t-24.5 5q-24 0 -37.5 -17.5t-12.5 -36.5h-34q0 44 21 70zM213 566h-52l113 153h37
l113 -153h-52l-79 116z" />
    <glyph glyph-name="uni1EAC" unicode="&#x1eac;" horiz-adv-x="721" 
d="M642 0l-85 197h-394l-84 -197h-45l306 712h41l306 -712h-45zM180 237h360l-180 420zM327 -110h67v-65h-67v65zM281 773h-52l113 150h37l113 -150h-52l-79 114z" />
    <glyph glyph-name="uni1EAD" unicode="&#x1ead;" horiz-adv-x="583" 
d="M495 500v-500h-42v100q-22 -52 -67.5 -79.5t-108.5 -27.5q-67 0 -117.5 31.5t-78 90t-27.5 136.5t28 137t78.5 91.5t116.5 32.5q63 0 108.5 -27t67.5 -79v94h42zM407 91.5q46 57.5 46 161.5q0 105 -46 161.5t-130 56.5t-131 -58t-47 -162q0 -103 47.5 -160t131.5 -57
q83 0 129 57.5zM259 -110h67v-65h-67v65zM213 566h-52l112 202h39l112 -202h-52l-79 159z" />
    <glyph glyph-name="uni1EAE" unicode="&#x1eae;" horiz-adv-x="721" 
d="M642 0l-85 197h-394l-84 -197h-45l306 712h41l306 -712h-45zM180 237h360l-180 420zM378 874h-35l100 143h62zM268 792.5q-41 24.5 -63 81.5l42 18q26 -48 51.5 -65t62.5 -17q36 0 61.5 17t51.5 65l42 -18q-43 -106 -155 -106q-52 0 -93 24.5z" />
    <glyph glyph-name="uni1EAF" unicode="&#x1eaf;" horiz-adv-x="583" 
d="M495 500v-500h-42v100q-22 -52 -67.5 -79.5t-108.5 -27.5q-67 0 -117.5 31.5t-78 90t-27.5 136.5t28 137t78.5 91.5t116.5 32.5q63 0 108.5 -27t67.5 -79v94h42zM407 91.5q46 57.5 46 161.5q0 105 -46 161.5t-130 56.5t-131 -58t-47 -162q0 -103 47.5 -160t131.5 -57
q83 0 129 57.5zM310 668h-35l100 143h62zM200.5 585q-41.5 25 -63.5 82l42 18q26 -48 51.5 -64.5t62.5 -16.5q36 0 61.5 16.5t51.5 64.5l42 -18q-23 -57 -64 -82t-91 -25q-51 0 -92.5 25z" />
    <glyph glyph-name="uni1EB0" unicode="&#x1eb0;" horiz-adv-x="721" 
d="M642 0l-85 197h-394l-84 -197h-45l306 712h41l306 -712h-45zM180 237h360l-180 420zM343 874l-127 143h62l100 -143h-35zM205 874l42 18q26 -48 51.5 -65t62.5 -17q36 0 61.5 17t51.5 65l42 -18q-22 -57 -63 -81.5t-92 -24.5q-113 0 -156 106z" />
    <glyph glyph-name="uni1EB1" unicode="&#x1eb1;" horiz-adv-x="583" 
d="M495 500v-500h-42v100q-22 -52 -67.5 -79.5t-108.5 -27.5q-67 0 -117.5 31.5t-78 90t-27.5 136.5t28 137t78.5 91.5t116.5 32.5q63 0 108.5 -27t67.5 -79v94h42zM407 91.5q46 57.5 46 161.5q0 105 -46 161.5t-130 56.5t-131 -58t-47 -162q0 -103 47.5 -160t131.5 -57
q83 0 129 57.5zM275 668l-127 143h62l100 -143h-35zM201 585q-41 25 -64 82l42 18q26 -48 51.5 -64.5t62.5 -16.5q36 0 61.5 16.5t51.5 64.5l42 -18q-22 -57 -63 -82t-92 -25t-92 25z" />
    <glyph glyph-name="uni1EB2" unicode="&#x1eb2;" horiz-adv-x="721" 
d="M642 0l-85 197h-394l-84 -197h-45l306 712h41l306 -712h-45zM180 237h360l-180 420zM382 874h-42v16q0 17 10 25.5t31 18.5q14 6 21 11t7 13q0 11 -12 16.5t-33 5.5q-32 0 -64 -12l-12 37q35 17 75 17q44 0 69 -17.5t25 -47.5q0 -17 -10.5 -26t-32.5 -20q-16 -7 -24 -13
t-8 -15v-9zM205 874l42 18q26 -48 51.5 -65t62.5 -17q36 0 61.5 17t51.5 65l42 -18q-22 -57 -63 -81.5t-92 -24.5q-113 0 -156 106z" />
    <glyph glyph-name="uni1EB3" unicode="&#x1eb3;" horiz-adv-x="583" 
d="M495 500v-500h-42v100q-22 -52 -67.5 -79.5t-108.5 -27.5q-67 0 -117.5 31.5t-78 90t-27.5 136.5t28 137t78.5 91.5t116.5 32.5q63 0 108.5 -27t67.5 -79v94h42zM407 91.5q46 57.5 46 161.5q0 105 -46 161.5t-130 56.5t-131 -58t-47 -162q0 -103 47.5 -160t131.5 -57
q83 0 129 57.5zM314 668h-42v15q0 17 11 26.5t30 17.5q15 7 21.5 12t6.5 13q0 10 -12.5 15.5t-32.5 5.5q-33 0 -64 -13l-12 39q39 17 75 17q44 0 69 -18t25 -48q0 -17 -11 -26.5t-32 -18.5q-16 -7 -24 -13t-8 -15v-9zM201 585q-41 25 -64 82l42 18q26 -48 51.5 -64.5
t62.5 -16.5q36 0 61.5 16.5t51.5 64.5l42 -18q-22 -57 -63 -82t-92 -25t-92 25z" />
    <glyph glyph-name="uni1EB4" unicode="&#x1eb4;" horiz-adv-x="721" 
d="M642 0l-85 197h-394l-84 -197h-45l306 712h41l306 -712h-45zM180 237h360l-180 420zM226 999.5q21 27.5 59 27.5q22 0 41.5 -9t46.5 -27q20 -13 33.5 -19.5t25.5 -6.5q25 0 38 17.5t12 41.5h34q0 -47 -21 -75t-59 -28q-22 0 -41.5 9t-46.5 27q-22 14 -35 20.5t-24 6.5
q-25 0 -38 -18t-12 -42h-34q0 48 21 75.5zM205 874l42 18q26 -48 51.5 -65t62.5 -17q36 0 61.5 17t51.5 65l42 -18q-22 -57 -63 -81.5t-92 -24.5q-113 0 -156 106z" />
    <glyph glyph-name="uni1EB5" unicode="&#x1eb5;" horiz-adv-x="583" 
d="M495 500v-500h-42v100q-22 -52 -67.5 -79.5t-108.5 -27.5q-67 0 -117.5 31.5t-78 90t-27.5 136.5t28 137t78.5 91.5t116.5 32.5q63 0 108.5 -27t67.5 -79v94h42zM407 91.5q46 57.5 46 161.5q0 105 -46 161.5t-130 56.5t-131 -58t-47 -162q0 -103 47.5 -160t131.5 -57
q83 0 129 57.5zM158 793q21 27 59 27q22 0 41.5 -9t46.5 -27q22 -14 35 -20.5t24 -6.5q25 0 38 18t12 42h34q0 -48 -21 -75t-59 -27q-22 0 -41.5 9t-46.5 27q-22 14 -35 20.5t-24 6.5q-25 0 -38 -18.5t-12 -41.5h-34q0 48 21 75zM201 585q-41 25 -64 82l42 18
q26 -48 51.5 -64.5t62.5 -16.5q36 0 61.5 16.5t51.5 64.5l42 -18q-22 -57 -63 -82t-92 -25t-92 25z" />
    <glyph glyph-name="uni1EB6" unicode="&#x1eb6;" horiz-adv-x="721" 
d="M642 0l-85 197h-394l-84 -197h-45l306 712h41l306 -712h-45zM180 237h360l-180 420zM327 -110h67v-65h-67v65zM268 810.5q-41 24.5 -63 81.5l40 18q26 -48 52.5 -65.5t63.5 -17.5q36 0 62.5 17.5t52.5 65.5l40 -18q-43 -106 -155 -106q-52 0 -93 24.5z" />
    <glyph glyph-name="uni1EB7" unicode="&#x1eb7;" horiz-adv-x="583" 
d="M495 500v-500h-42v100q-22 -52 -67.5 -79.5t-108.5 -27.5q-67 0 -117.5 31.5t-78 90t-27.5 136.5t28 137t78.5 91.5t116.5 32.5q63 0 108.5 -27t67.5 -79v94h42zM407 91.5q46 57.5 46 161.5q0 105 -46 161.5t-130 56.5t-131 -58t-47 -162q0 -103 47.5 -160t131.5 -57
q83 0 129 57.5zM259 -110h67v-65h-67v65zM201 628.5q-41 27.5 -64 89.5l41 17q22 -50 50.5 -72t64.5 -22t64 22t50 72l41 -16q-22 -62 -63 -90t-92 -28t-92 27.5z" />
    <glyph glyph-name="uni1EB8" unicode="&#x1eb8;" horiz-adv-x="582" 
d="M97 0v712h428v-39h-386v-292h366v-40h-366v-302h386v-39h-428zM289 -110h67v-65h-67v65z" />
    <glyph glyph-name="uni1EB9" unicode="&#x1eb9;" horiz-adv-x="541" 
d="M101 261v-9q0 -105 49.5 -161.5t141.5 -56.5q47 0 88 15.5t81 49.5l20 -36q-32 -32 -82.5 -51t-104.5 -19q-111 0 -175.5 69t-64.5 190q0 77 29 136t81.5 91.5t120.5 32.5q96 0 150.5 -63t54.5 -176v-12h-389zM163.5 428.5q-47.5 -45.5 -59.5 -126.5h344q-6 83 -48 127.5
t-115 44.5q-74 0 -121.5 -45.5zM261 -110h67v-65h-67v65z" />
    <glyph glyph-name="uni1EBA" unicode="&#x1eba;" horiz-adv-x="582" 
d="M97 0v712h428v-39h-386v-292h366v-40h-366v-302h386v-39h-428zM344 773h-42v15q0 18 10.5 28t30.5 22q14 7 21 13.5t7 14.5q0 10 -12 15t-33 5q-32 0 -64 -12l-12 38q36 16 75 16q45 0 69.5 -17t24.5 -47q0 -20 -11.5 -30.5t-33.5 -22.5q-15 -7 -22.5 -13.5t-7.5 -15.5
v-9z" />
    <glyph glyph-name="uni1EBB" unicode="&#x1ebb;" horiz-adv-x="541" 
d="M101 261v-9q0 -105 49.5 -161.5t141.5 -56.5q47 0 88 15.5t81 49.5l20 -36q-32 -32 -82.5 -51t-104.5 -19q-111 0 -175.5 69t-64.5 190q0 77 29 136t81.5 91.5t120.5 32.5q96 0 150.5 -63t54.5 -176v-12h-389zM163.5 428.5q-47.5 -45.5 -59.5 -126.5h344q-6 83 -48 127.5
t-115 44.5q-74 0 -121.5 -45.5zM307 566h-41v30q0 19 10.5 34.5t29.5 33.5q14 13 21 22.5t7 19.5q0 12 -12 18.5t-33 6.5q-32 0 -65 -12l-12 36q39 18 78 18q42 0 66.5 -18.5t24.5 -47.5q0 -23 -9.5 -36.5t-29.5 -30.5q-18 -16 -26.5 -28t-8.5 -31v-15z" />
    <glyph glyph-name="uni1EBC" unicode="&#x1ebc;" horiz-adv-x="582" 
d="M97 0v712h428v-39h-386v-292h366v-40h-366v-302h386v-39h-428zM188 873.5q21 26.5 59 26.5q22 0 40.5 -8.5t47.5 -26.5q20 -13 33.5 -19.5t25.5 -6.5q25 0 38 17.5t12 40.5h34q0 -44 -21 -71t-59 -27q-22 0 -42 9t-46 26q-22 13 -35 19t-24 6q-25 0 -38 -17t-12 -40h-34
q0 45 21 71.5z" />
    <glyph glyph-name="uni1EBD" unicode="&#x1ebd;" horiz-adv-x="541" 
d="M101 261v-9q0 -105 49.5 -161.5t141.5 -56.5q47 0 88 15.5t81 49.5l20 -36q-32 -32 -82.5 -51t-104.5 -19q-111 0 -175.5 69t-64.5 190q0 77 29 136t81.5 91.5t120.5 32.5q96 0 150.5 -63t54.5 -176v-12h-389zM163.5 428.5q-47.5 -45.5 -59.5 -126.5h344q-6 83 -48 127.5
t-115 44.5q-74 0 -121.5 -45.5zM150 692q21 27 59 27q22 0 40.5 -8.5t47.5 -26.5q20 -13 33.5 -19.5t25.5 -6.5q25 0 38 17.5t12 40.5h34q0 -45 -21 -71.5t-59 -26.5q-22 0 -40.5 8.5t-47.5 26.5q-20 13 -33.5 19.5t-25.5 6.5q-25 0 -38 -17.5t-12 -40.5h-34q0 44 21 71z
" />
    <glyph glyph-name="uni1EBE" unicode="&#x1ebe;" horiz-adv-x="582" 
d="M97 0v712h428v-39h-386v-292h366v-40h-366v-302h386v-39h-428zM439 874h-37l104 143h63zM243 773h-52l113 152h37l113 -152h-52l-79 116z" />
    <glyph glyph-name="uni1EBF" unicode="&#x1ebf;" horiz-adv-x="541" 
d="M101 261v-9q0 -105 49.5 -161.5t141.5 -56.5q47 0 88 15.5t81 49.5l20 -36q-32 -32 -82.5 -51t-104.5 -19q-111 0 -175.5 69t-64.5 190q0 77 29 136t81.5 91.5t120.5 32.5q96 0 150.5 -63t54.5 -176v-12h-389zM163.5 428.5q-47.5 -45.5 -59.5 -126.5h344q-6 83 -48 127.5
t-115 44.5q-74 0 -121.5 -45.5zM401 668h-37l104 143h63zM205 566h-52l113 153h37l113 -153h-52l-79 116z" />
    <glyph glyph-name="uni1EC0" unicode="&#x1ec0;" horiz-adv-x="582" 
d="M97 0v712h428v-39h-386v-292h366v-40h-366v-302h386v-39h-428zM446 874l-107 143h62l81 -143h-36zM243 773h-52l113 152h37l113 -152h-52l-79 116z" />
    <glyph glyph-name="uni1EC1" unicode="&#x1ec1;" horiz-adv-x="541" 
d="M101 261v-9q0 -105 49.5 -161.5t141.5 -56.5q47 0 88 15.5t81 49.5l20 -36q-32 -32 -82.5 -51t-104.5 -19q-111 0 -175.5 69t-64.5 190q0 77 29 136t81.5 91.5t120.5 32.5q96 0 150.5 -63t54.5 -176v-12h-389zM163.5 428.5q-47.5 -45.5 -59.5 -126.5h344q-6 83 -48 127.5
t-115 44.5q-74 0 -121.5 -45.5zM408 668l-107 143h62l81 -143h-36zM205 566h-52l113 153h37l113 -153h-52l-79 116z" />
    <glyph glyph-name="uni1EC2" unicode="&#x1ec2;" horiz-adv-x="582" 
d="M97 0v712h428v-39h-386v-292h366v-40h-366v-302h386v-39h-428zM444 874h-43v16q0 17 10 25.5t31 18.5q14 5 21.5 10.5t7.5 13.5q0 22 -46 22q-31 0 -63 -12l-12 37q35 17 74 17q45 0 70.5 -17.5t25.5 -47.5q0 -17 -11 -26t-33 -20q-16 -7 -24 -13t-8 -15v-9zM243 773h-52
l113 152h37l113 -152h-52l-79 116z" />
    <glyph glyph-name="uni1EC3" unicode="&#x1ec3;" horiz-adv-x="541" 
d="M101 261v-9q0 -105 49.5 -161.5t141.5 -56.5q47 0 88 15.5t81 49.5l20 -36q-32 -32 -82.5 -51t-104.5 -19q-111 0 -175.5 69t-64.5 190q0 77 29 136t81.5 91.5t120.5 32.5q96 0 150.5 -63t54.5 -176v-12h-389zM163.5 428.5q-47.5 -45.5 -59.5 -126.5h344q-6 83 -48 127.5
t-115 44.5q-74 0 -121.5 -45.5zM406 668h-43v15q0 17 11 26.5t30 17.5q15 7 22 12t7 13q0 10 -12.5 15.5t-33.5 5.5q-32 0 -63 -13l-12 39q39 17 74 17q45 0 70.5 -18t25.5 -48q0 -17 -11.5 -26.5t-32.5 -18.5q-16 -7 -24 -13t-8 -15v-9zM205 566h-52l113 153h37l113 -153
h-52l-79 116z" />
    <glyph glyph-name="uni1EC4" unicode="&#x1ec4;" horiz-adv-x="582" 
d="M97 0v712h428v-39h-386v-292h366v-40h-366v-302h386v-39h-428zM188.5 1008.5q21.5 26.5 58.5 26.5q22 0 41 -7t47 -21q22 -11 35 -16t24 -5q24 0 37.5 16.5t12.5 36.5h34q0 -43 -21.5 -69.5t-58.5 -26.5q-22 0 -41 7t-47 21q-21 11 -34.5 16t-24.5 5q-24 0 -37.5 -16.5
t-12.5 -36.5h-34q0 43 21.5 69.5zM243 773h-52l113 152h37l113 -152h-52l-79 116z" />
    <glyph glyph-name="uni1EC5" unicode="&#x1ec5;" horiz-adv-x="541" 
d="M101 261v-9q0 -105 49.5 -161.5t141.5 -56.5q47 0 88 15.5t81 49.5l20 -36q-32 -32 -82.5 -51t-104.5 -19q-111 0 -175.5 69t-64.5 190q0 77 29 136t81.5 91.5t120.5 32.5q96 0 150.5 -63t54.5 -176v-12h-389zM163.5 428.5q-47.5 -45.5 -59.5 -126.5h344q-6 83 -48 127.5
t-115 44.5q-74 0 -121.5 -45.5zM150 802q21 26 59 26q22 0 41 -7t47 -21q16 -8 32 -14t27 -6q24 0 37.5 16.5t12.5 35.5h34q0 -43 -21.5 -69.5t-58.5 -26.5q-22 0 -42 7.5t-46 21.5q-21 11 -34.5 16t-24.5 5q-24 0 -37.5 -17.5t-12.5 -36.5h-34q0 44 21 70zM205 566h-52
l113 153h37l113 -153h-52l-79 116z" />
    <glyph glyph-name="uni1EC6" unicode="&#x1ec6;" horiz-adv-x="582" 
d="M97 0v712h428v-39h-386v-292h366v-40h-366v-302h386v-39h-428zM289 -110h67v-65h-67v65zM243 773h-52l113 150h37l113 -150h-52l-79 114z" />
    <glyph glyph-name="uni1EC7" unicode="&#x1ec7;" horiz-adv-x="541" 
d="M101 261v-9q0 -105 49.5 -161.5t141.5 -56.5q47 0 88 15.5t81 49.5l20 -36q-32 -32 -82.5 -51t-104.5 -19q-111 0 -175.5 69t-64.5 190q0 77 29 136t81.5 91.5t120.5 32.5q96 0 150.5 -63t54.5 -176v-12h-389zM163.5 428.5q-47.5 -45.5 -59.5 -126.5h344q-6 83 -48 127.5
t-115 44.5q-74 0 -121.5 -45.5zM261 -110h67v-65h-67v65zM205 566h-52l112 202h39l112 -202h-52l-79 159z" />
    <glyph glyph-name="uni1EC8" unicode="&#x1ec8;" horiz-adv-x="235" 
d="M97 0v712h41v-712h-41zM139 773h-42v15q0 18 10.5 28t30.5 22q14 7 21 13.5t7 14.5q0 10 -12 15t-33 5q-32 0 -64 -12l-12 38q36 16 75 16q45 0 69.5 -17t24.5 -47q0 -20 -11.5 -30.5t-33.5 -22.5q-15 -7 -22.5 -13.5t-7.5 -15.5v-9z" />
    <glyph glyph-name="uni1EC9" unicode="&#x1ec9;" horiz-adv-x="218" 
d="M88 0v500h41v-500h-41zM132 566h-41v30q0 19 10.5 34.5t29.5 33.5q14 13 21 22.5t7 19.5q0 12 -12 18.5t-33 6.5q-32 0 -65 -12l-12 36q39 18 78 18q42 0 66.5 -18.5t24.5 -47.5q0 -23 -9.5 -36.5t-29.5 -30.5q-18 -16 -26.5 -28t-8.5 -31v-15z" />
    <glyph glyph-name="uni1ECA" unicode="&#x1eca;" horiz-adv-x="235" 
d="M97 0v712h41v-712h-41zM84 -110h67v-65h-67v65z" />
    <glyph glyph-name="uni1ECB" unicode="&#x1ecb;" horiz-adv-x="218" 
d="M88 0v500h41v-500h-41zM77 700h65v-64h-65v64zM74 -110h67v-65h-67v65z" />
    <glyph glyph-name="uni1ECC" unicode="&#x1ecc;" horiz-adv-x="759" 
d="M213.5 36q-70.5 44 -108 126t-37.5 194t37.5 194t107.5 126t166 44t166.5 -44t108 -125.5t37.5 -193.5t-37.5 -194.5t-108 -126.5t-166.5 -44q-95 0 -165.5 44zM575 118q70 85 70 239t-69.5 238t-196.5 84t-196.5 -84.5t-69.5 -237.5t70 -238.5t196 -85.5t196 85z
M345 -110h67v-65h-67v65z" />
    <glyph glyph-name="uni1ECD" unicode="&#x1ecd;" horiz-adv-x="553" 
d="M160 25q-51 32 -78.5 91t-27.5 137t27.5 136.5t78.5 90.5t117 32t116.5 -32t78 -90.5t27.5 -136.5t-27.5 -137t-78 -91t-116.5 -32t-117 32zM407.5 91q46.5 57 46.5 162q0 102 -47 160t-130 58t-130.5 -57.5t-47.5 -160.5q0 -106 46 -162.5t131 -56.5t131.5 57zM243 -110
h67v-65h-67v65z" />
    <glyph glyph-name="uni1ECE" unicode="&#x1ece;" horiz-adv-x="759" 
d="M213.5 36q-70.5 44 -108 126t-37.5 194t37.5 194t107.5 126t166 44t166.5 -44t108 -125.5t37.5 -193.5t-37.5 -194.5t-108 -126.5t-166.5 -44q-95 0 -165.5 44zM575 118q70 85 70 239t-69.5 238t-196.5 84t-196.5 -84.5t-69.5 -237.5t70 -238.5t196 -85.5t196 85z
M400 773h-42v15q0 18 10.5 28t30.5 22q14 7 21 13.5t7 14.5q0 10 -12 15t-33 5q-32 0 -64 -12l-12 38q36 16 75 16q45 0 69.5 -17t24.5 -47q0 -20 -11.5 -30.5t-33.5 -22.5q-15 -7 -22.5 -13.5t-7.5 -15.5v-9z" />
    <glyph glyph-name="uni1ECF" unicode="&#x1ecf;" horiz-adv-x="553" 
d="M160 25q-51 32 -78.5 91t-27.5 137t27.5 136.5t78.5 90.5t117 32t116.5 -32t78 -90.5t27.5 -136.5t-27.5 -137t-78 -91t-116.5 -32t-117 32zM407.5 91q46.5 57 46.5 162q0 102 -47 160t-130 58t-130.5 -57.5t-47.5 -160.5q0 -106 46 -162.5t131 -56.5t131.5 57zM299 566
h-41v30q0 19 10.5 34.5t29.5 33.5q14 13 21 22.5t7 19.5q0 12 -12 18.5t-33 6.5q-32 0 -65 -12l-12 36q39 18 78 18q42 0 66.5 -18.5t24.5 -47.5q0 -23 -9.5 -36.5t-29.5 -30.5q-18 -16 -26.5 -28t-8.5 -31v-15z" />
    <glyph glyph-name="uni1ED0" unicode="&#x1ed0;" horiz-adv-x="759" 
d="M213.5 36q-70.5 44 -108 126t-37.5 194t37.5 194t107.5 126t166 44t166.5 -44t108 -125.5t37.5 -193.5t-37.5 -194.5t-108 -126.5t-166.5 -44q-95 0 -165.5 44zM575 118q70 85 70 239t-69.5 238t-196.5 84t-196.5 -84.5t-69.5 -237.5t70 -238.5t196 -85.5t196 85z
M495 874h-37l104 143h63zM299 773h-52l113 152h37l113 -152h-52l-79 116z" />
    <glyph glyph-name="uni1ED1" unicode="&#x1ed1;" horiz-adv-x="553" 
d="M160 25q-51 32 -78.5 91t-27.5 137t27.5 136.5t78.5 90.5t117 32t116.5 -32t78 -90.5t27.5 -136.5t-27.5 -137t-78 -91t-116.5 -32t-117 32zM407.5 91q46.5 57 46.5 162q0 102 -47 160t-130 58t-130.5 -57.5t-47.5 -160.5q0 -106 46 -162.5t131 -56.5t131.5 57zM393 668
h-37l104 143h63zM197 566h-52l113 153h37l113 -153h-52l-79 116z" />
    <glyph glyph-name="uni1ED2" unicode="&#x1ed2;" horiz-adv-x="759" 
d="M213.5 36q-70.5 44 -108 126t-37.5 194t37.5 194t107.5 126t166 44t166.5 -44t108 -125.5t37.5 -193.5t-37.5 -194.5t-108 -126.5t-166.5 -44q-95 0 -165.5 44zM575 118q70 85 70 239t-69.5 238t-196.5 84t-196.5 -84.5t-69.5 -237.5t70 -238.5t196 -85.5t196 85z
M502 874l-107 143h62l81 -143h-36zM299 773h-52l113 152h37l113 -152h-52l-79 116z" />
    <glyph glyph-name="uni1ED3" unicode="&#x1ed3;" horiz-adv-x="553" 
d="M160 25q-51 32 -78.5 91t-27.5 137t27.5 136.5t78.5 90.5t117 32t116.5 -32t78 -90.5t27.5 -136.5t-27.5 -137t-78 -91t-116.5 -32t-117 32zM407.5 91q46.5 57 46.5 162q0 102 -47 160t-130 58t-130.5 -57.5t-47.5 -160.5q0 -106 46 -162.5t131 -56.5t131.5 57zM400 668
l-107 143h62l81 -143h-36zM197 566h-52l113 153h37l113 -153h-52l-79 116z" />
    <glyph glyph-name="uni1ED4" unicode="&#x1ed4;" horiz-adv-x="759" 
d="M213.5 36q-70.5 44 -108 126t-37.5 194t37.5 194t107.5 126t166 44t166.5 -44t108 -125.5t37.5 -193.5t-37.5 -194.5t-108 -126.5t-166.5 -44q-95 0 -165.5 44zM575 118q70 85 70 239t-69.5 238t-196.5 84t-196.5 -84.5t-69.5 -237.5t70 -238.5t196 -85.5t196 85z
M500 874h-43v16q0 17 10 25.5t31 18.5q14 5 21.5 10.5t7.5 13.5q0 22 -46 22q-31 0 -63 -12l-12 37q35 17 74 17q45 0 70.5 -17.5t25.5 -47.5q0 -17 -11 -26t-33 -20q-16 -7 -24 -13t-8 -15v-9zM299 773h-52l113 152h37l113 -152h-52l-79 116z" />
    <glyph glyph-name="uni1ED5" unicode="&#x1ed5;" horiz-adv-x="553" 
d="M160 25q-51 32 -78.5 91t-27.5 137t27.5 136.5t78.5 90.5t117 32t116.5 -32t78 -90.5t27.5 -136.5t-27.5 -137t-78 -91t-116.5 -32t-117 32zM407.5 91q46.5 57 46.5 162q0 102 -47 160t-130 58t-130.5 -57.5t-47.5 -160.5q0 -106 46 -162.5t131 -56.5t131.5 57zM398 668
h-43v15q0 17 11 26.5t30 17.5q15 7 22 12t7 13q0 10 -12.5 15.5t-33.5 5.5q-32 0 -63 -13l-12 39q39 17 74 17q45 0 70.5 -18t25.5 -48q0 -17 -11.5 -26.5t-32.5 -18.5q-16 -7 -24 -13t-8 -15v-9zM197 566h-52l113 153h37l113 -153h-52l-79 116z" />
    <glyph glyph-name="uni1ED6" unicode="&#x1ed6;" horiz-adv-x="759" 
d="M213.5 36q-70.5 44 -108 126t-37.5 194t37.5 194t107.5 126t166 44t166.5 -44t108 -125.5t37.5 -193.5t-37.5 -194.5t-108 -126.5t-166.5 -44q-95 0 -165.5 44zM575 118q70 85 70 239t-69.5 238t-196.5 84t-196.5 -84.5t-69.5 -237.5t70 -238.5t196 -85.5t196 85z
M244.5 1008.5q21.5 26.5 58.5 26.5q22 0 41 -7t47 -21q22 -11 35 -16t24 -5q24 0 37.5 16.5t12.5 36.5h34q0 -43 -21.5 -69.5t-58.5 -26.5q-22 0 -41 7t-47 21q-21 11 -34.5 16t-24.5 5q-24 0 -37.5 -16.5t-12.5 -36.5h-34q0 43 21.5 69.5zM299 773h-52l113 152h37l113 -152
h-52l-79 116z" />
    <glyph glyph-name="uni1ED7" unicode="&#x1ed7;" horiz-adv-x="553" 
d="M160 25q-51 32 -78.5 91t-27.5 137t27.5 136.5t78.5 90.5t117 32t116.5 -32t78 -90.5t27.5 -136.5t-27.5 -137t-78 -91t-116.5 -32t-117 32zM407.5 91q46.5 57 46.5 162q0 102 -47 160t-130 58t-130.5 -57.5t-47.5 -160.5q0 -106 46 -162.5t131 -56.5t131.5 57zM142 802
q21 26 59 26q22 0 41 -7t47 -21q16 -8 32 -14t27 -6q24 0 37.5 16.5t12.5 35.5h34q0 -43 -21.5 -69.5t-58.5 -26.5q-22 0 -42 7.5t-46 21.5q-21 11 -34.5 16t-24.5 5q-24 0 -37.5 -17.5t-12.5 -36.5h-34q0 44 21 70zM197 566h-52l113 153h37l113 -153h-52l-79 116z" />
    <glyph glyph-name="uni1ED8" unicode="&#x1ed8;" horiz-adv-x="759" 
d="M213.5 36q-70.5 44 -108 126t-37.5 194t37.5 194t107.5 126t166 44t166.5 -44t108 -125.5t37.5 -193.5t-37.5 -194.5t-108 -126.5t-166.5 -44q-95 0 -165.5 44zM575 118q70 85 70 239t-69.5 238t-196.5 84t-196.5 -84.5t-69.5 -237.5t70 -238.5t196 -85.5t196 85z
M345 -110h67v-65h-67v65zM299 773h-52l113 150h37l113 -150h-52l-79 114z" />
    <glyph glyph-name="uni1ED9" unicode="&#x1ed9;" horiz-adv-x="553" 
d="M160 25q-51 32 -78.5 91t-27.5 137t27.5 136.5t78.5 90.5t117 32t116.5 -32t78 -90.5t27.5 -136.5t-27.5 -137t-78 -91t-116.5 -32t-117 32zM407.5 91q46.5 57 46.5 162q0 102 -47 160t-130 58t-130.5 -57.5t-47.5 -160.5q0 -106 46 -162.5t131 -56.5t131.5 57zM243 -110
h67v-65h-67v65zM197 566h-52l112 202h39l112 -202h-52l-79 159z" />
    <glyph glyph-name="uni1EDA" unicode="&#x1eda;" horiz-adv-x="759" 
d="M653 715q-38 -38 -107 -41q71 -44 108 -125t37 -192q0 -112 -38 -194.5t-108.5 -126.5t-165.5 -44t-165 44t-108 126t-38 194t37.5 194t108.5 126t169 44q27 0 79 -4q48 -4 65 -4q67 1 95 27t28 88v13h41v-20q0 -67 -38 -105zM575.5 595q-69.5 84 -196.5 84t-196.5 -84.5
t-69.5 -237.5t70 -238.5t196 -85.5t196 85t70 239t-69.5 238zM397 773h-37l101 150h61z" />
    <glyph glyph-name="uni1EDB" unicode="&#x1edb;" horiz-adv-x="553" 
d="M472.5 387q26.5 -57 26.5 -134q0 -78 -27.5 -137t-78 -91t-116.5 -32t-117 32t-78.5 91t-27.5 137t28 136.5t78.5 90.5t117.5 32q20 0 38 -3q22 -2 29 -2q56 0 80 28t24 89v12h41v-20q0 -54 -24 -89.5t-69 -49.5q49 -33 75.5 -90zM407.5 91q46.5 57 46.5 162
q0 102 -47 160t-130 58t-130.5 -57.5t-47.5 -160.5q0 -106 46 -162.5t131 -56.5t131.5 57zM295 566h-37l101 202h63z" />
    <glyph glyph-name="uni1EDC" unicode="&#x1edc;" horiz-adv-x="759" 
d="M653 715q-38 -38 -107 -41q71 -44 108 -125t37 -192q0 -112 -38 -194.5t-108.5 -126.5t-165.5 -44t-165 44t-108 126t-38 194t37.5 194t108.5 126t169 44q27 0 79 -4q48 -4 65 -4q67 1 95 27t28 88v13h41v-20q0 -67 -38 -105zM575.5 595q-69.5 84 -196.5 84t-196.5 -84.5
t-69.5 -237.5t70 -238.5t196 -85.5t196 85t70 239t-69.5 238zM360 773l-125 150h61l101 -150h-37z" />
    <glyph glyph-name="uni1EDD" unicode="&#x1edd;" horiz-adv-x="553" 
d="M472.5 387q26.5 -57 26.5 -134q0 -78 -27.5 -137t-78 -91t-116.5 -32t-117 32t-78.5 91t-27.5 137t28 136.5t78.5 90.5t117.5 32q20 0 38 -3q22 -2 29 -2q56 0 80 28t24 89v12h41v-20q0 -54 -24 -89.5t-69 -49.5q49 -33 75.5 -90zM407.5 91q46.5 57 46.5 162
q0 102 -47 160t-130 58t-130.5 -57.5t-47.5 -160.5q0 -106 46 -162.5t131 -56.5t131.5 57zM258 566l-127 202h63l101 -202h-37z" />
    <glyph glyph-name="uni1EDE" unicode="&#x1ede;" horiz-adv-x="759" 
d="M653 715q-38 -38 -107 -41q71 -44 108 -125t37 -192q0 -112 -38 -194.5t-108.5 -126.5t-165.5 -44t-165 44t-108 126t-38 194t37.5 194t108.5 126t169 44q27 0 79 -4q48 -4 65 -4q67 1 95 27t28 88v13h41v-20q0 -67 -38 -105zM575.5 595q-69.5 84 -196.5 84t-196.5 -84.5
t-69.5 -237.5t70 -238.5t196 -85.5t196 85t70 239t-69.5 238zM400 773h-42v15q0 18 10.5 28t30.5 22q14 7 21 13.5t7 14.5q0 10 -12 15t-33 5q-32 0 -64 -12l-12 38q36 16 75 16q45 0 69.5 -17t24.5 -47q0 -20 -11.5 -30.5t-33.5 -22.5q-15 -7 -22.5 -13.5t-7.5 -15.5v-9z
" />
    <glyph glyph-name="uni1EDF" unicode="&#x1edf;" horiz-adv-x="553" 
d="M472.5 387q26.5 -57 26.5 -134q0 -78 -27.5 -137t-78 -91t-116.5 -32t-117 32t-78.5 91t-27.5 137t28 136.5t78.5 90.5t117.5 32q20 0 38 -3q22 -2 29 -2q56 0 80 28t24 89v12h41v-20q0 -54 -24 -89.5t-69 -49.5q49 -33 75.5 -90zM407.5 91q46.5 57 46.5 162
q0 102 -47 160t-130 58t-130.5 -57.5t-47.5 -160.5q0 -106 46 -162.5t131 -56.5t131.5 57zM299 566h-41v30q0 19 10.5 34.5t29.5 33.5q14 13 21 22.5t7 19.5q0 12 -12 18.5t-33 6.5q-32 0 -65 -12l-12 36q39 18 78 18q42 0 66.5 -18.5t24.5 -47.5q0 -23 -9.5 -36.5
t-29.5 -30.5q-18 -16 -26.5 -28t-8.5 -31v-15z" />
    <glyph glyph-name="uni1EE0" unicode="&#x1ee0;" horiz-adv-x="759" 
d="M653 715q-38 -38 -107 -41q71 -44 108 -125t37 -192q0 -112 -38 -194.5t-108.5 -126.5t-165.5 -44t-165 44t-108 126t-38 194t37.5 194t108.5 126t169 44q27 0 79 -4q48 -4 65 -4q67 1 95 27t28 88v13h41v-20q0 -67 -38 -105zM575.5 595q-69.5 84 -196.5 84t-196.5 -84.5
t-69.5 -237.5t70 -238.5t196 -85.5t196 85t70 239t-69.5 238zM244 873.5q21 26.5 59 26.5q22 0 40.5 -8.5t47.5 -26.5q20 -13 33.5 -19.5t25.5 -6.5q25 0 38 17.5t12 40.5h34q0 -44 -21 -71t-59 -27q-22 0 -42 9t-46 26q-22 13 -35 19t-24 6q-25 0 -38 -17t-12 -40h-34
q0 45 21 71.5z" />
    <glyph glyph-name="uni1EE1" unicode="&#x1ee1;" horiz-adv-x="553" 
d="M472.5 387q26.5 -57 26.5 -134q0 -78 -27.5 -137t-78 -91t-116.5 -32t-117 32t-78.5 91t-27.5 137t28 136.5t78.5 90.5t117.5 32q20 0 38 -3q22 -2 29 -2q56 0 80 28t24 89v12h41v-20q0 -54 -24 -89.5t-69 -49.5q49 -33 75.5 -90zM407.5 91q46.5 57 46.5 162
q0 102 -47 160t-130 58t-130.5 -57.5t-47.5 -160.5q0 -106 46 -162.5t131 -56.5t131.5 57zM142 692q21 27 59 27q22 0 40.5 -8.5t47.5 -26.5q20 -13 33.5 -19.5t25.5 -6.5q25 0 38 17.5t12 40.5h34q0 -45 -21 -71.5t-59 -26.5q-22 0 -40.5 8.5t-47.5 26.5q-20 13 -33.5 19.5
t-25.5 6.5q-25 0 -38 -17.5t-12 -40.5h-34q0 44 21 71z" />
    <glyph glyph-name="uni1EE2" unicode="&#x1ee2;" horiz-adv-x="759" 
d="M653 715q-38 -38 -107 -41q71 -44 108 -125t37 -192q0 -112 -38 -194.5t-108.5 -126.5t-165.5 -44t-165 44t-108 126t-38 194t37.5 194t108.5 126t169 44q27 0 79 -4q48 -4 65 -4q67 1 95 27t28 88v13h41v-20q0 -67 -38 -105zM575.5 595q-69.5 84 -196.5 84t-196.5 -84.5
t-69.5 -237.5t70 -238.5t196 -85.5t196 85t70 239t-69.5 238zM346 -110h67v-65h-67v65z" />
    <glyph glyph-name="uni1EE3" unicode="&#x1ee3;" horiz-adv-x="553" 
d="M472.5 387q26.5 -57 26.5 -134q0 -78 -27.5 -137t-78 -91t-116.5 -32t-117 32t-78.5 91t-27.5 137t28 136.5t78.5 90.5t117.5 32q20 0 38 -3q22 -2 29 -2q56 0 80 28t24 89v12h41v-20q0 -54 -24 -89.5t-69 -49.5q49 -33 75.5 -90zM407.5 91q46.5 57 46.5 162
q0 102 -47 160t-130 58t-130.5 -57.5t-47.5 -160.5q0 -106 46 -162.5t131 -56.5t131.5 57zM243 -110h67v-65h-67v65z" />
    <glyph glyph-name="uni1EE4" unicode="&#x1ee4;" horiz-adv-x="722" 
d="M160.5 62.5q-68.5 70.5 -68.5 207.5v442h41v-449q0 -230 229 -230q112 0 169.5 58t57.5 172v449h42v-442q0 -137 -68.5 -207.5t-200.5 -70.5q-133 0 -201.5 70.5zM328 -110h67v-65h-67v65z" />
    <glyph glyph-name="uni1EE5" unicode="&#x1ee5;" horiz-adv-x="561" 
d="M473 500v-500h-40v95q-24 -49 -69.5 -75.5t-102.5 -26.5q-86 0 -131 48.5t-45 142.5v316h41v-312q0 -79 32.5 -116.5t99.5 -37.5q79 0 126.5 49.5t47.5 131.5v285h41zM247 -110h67v-65h-67v65z" />
    <glyph glyph-name="uni1EE6" unicode="&#x1ee6;" horiz-adv-x="722" 
d="M160.5 62.5q-68.5 70.5 -68.5 207.5v442h41v-449q0 -230 229 -230q112 0 169.5 58t57.5 172v449h42v-442q0 -137 -68.5 -207.5t-200.5 -70.5q-133 0 -201.5 70.5zM383 773h-42v15q0 18 10.5 28t30.5 22q14 7 21 13.5t7 14.5q0 10 -12 15t-33 5q-32 0 -64 -12l-12 38
q36 16 75 16q45 0 69.5 -17t24.5 -47q0 -20 -11.5 -30.5t-33.5 -22.5q-15 -7 -22.5 -13.5t-7.5 -15.5v-9z" />
    <glyph glyph-name="uni1EE7" unicode="&#x1ee7;" horiz-adv-x="561" 
d="M473 500v-500h-40v95q-24 -49 -69.5 -75.5t-102.5 -26.5q-86 0 -131 48.5t-45 142.5v316h41v-312q0 -79 32.5 -116.5t99.5 -37.5q79 0 126.5 49.5t47.5 131.5v285h41zM303 566h-41v30q0 19 10.5 34.5t29.5 33.5q14 13 21 22.5t7 19.5q0 12 -12 18.5t-33 6.5
q-32 0 -65 -12l-12 36q39 18 78 18q42 0 66.5 -18.5t24.5 -47.5q0 -23 -9.5 -36.5t-29.5 -30.5q-18 -16 -26.5 -28t-8.5 -31v-15z" />
    <glyph glyph-name="uni1EE8" unicode="&#x1ee8;" horiz-adv-x="722" 
d="M751 840v-20q0 -62 -30.5 -98.5t-89.5 -44.5v-407q0 -137 -68.5 -207.5t-200.5 -70.5q-133 0 -201.5 70.5t-68.5 207.5v442h41v-449q0 -230 229 -230q112 0 169.5 58t57.5 172v449h12q59 1 84.5 27.5t25.5 87.5v13h40zM380 773h-37l101 150h61z" />
    <glyph glyph-name="uni1EE9" unicode="&#x1ee9;" horiz-adv-x="569" 
d="M597 636v-20q0 -65 -32 -103t-92 -45v-468h-40v95q-24 -49 -69.5 -75.5t-102.5 -26.5q-86 0 -131 48.5t-45 142.5v316h41v-312q0 -79 32.5 -116.5t99.5 -37.5q79 0 126.5 49.5t47.5 131.5v285h12q59 1 86 30.5t27 93.5v12h40zM299 566h-37l101 202h63z" />
    <glyph glyph-name="uni1EEA" unicode="&#x1eea;" horiz-adv-x="722" 
d="M751 840v-20q0 -62 -30.5 -98.5t-89.5 -44.5v-407q0 -137 -68.5 -207.5t-200.5 -70.5q-133 0 -201.5 70.5t-68.5 207.5v442h41v-449q0 -230 229 -230q112 0 169.5 58t57.5 172v449h12q59 1 84.5 27.5t25.5 87.5v13h40zM343 773l-125 150h61l101 -150h-37z" />
    <glyph glyph-name="uni1EEB" unicode="&#x1eeb;" horiz-adv-x="569" 
d="M597 636v-20q0 -65 -32 -103t-92 -45v-468h-40v95q-24 -49 -69.5 -75.5t-102.5 -26.5q-86 0 -131 48.5t-45 142.5v316h41v-312q0 -79 32.5 -116.5t99.5 -37.5q79 0 126.5 49.5t47.5 131.5v285h12q59 1 86 30.5t27 93.5v12h40zM262 566l-127 202h63l101 -202h-37z" />
    <glyph glyph-name="uni1EEC" unicode="&#x1eec;" horiz-adv-x="722" 
d="M751 840v-20q0 -62 -30.5 -98.5t-89.5 -44.5v-407q0 -137 -68.5 -207.5t-200.5 -70.5q-133 0 -201.5 70.5t-68.5 207.5v442h41v-449q0 -230 229 -230q112 0 169.5 58t57.5 172v449h12q59 1 84.5 27.5t25.5 87.5v13h40zM383 773h-42v15q0 18 10.5 28t30.5 22q14 7 21 13.5
t7 14.5q0 10 -12 15t-33 5q-32 0 -64 -12l-12 38q36 16 75 16q45 0 69.5 -17t24.5 -47q0 -20 -11.5 -30.5t-33.5 -22.5q-15 -7 -22.5 -13.5t-7.5 -15.5v-9z" />
    <glyph glyph-name="uni1EED" unicode="&#x1eed;" horiz-adv-x="569" 
d="M597 636v-20q0 -65 -32 -103t-92 -45v-468h-40v95q-24 -49 -69.5 -75.5t-102.5 -26.5q-86 0 -131 48.5t-45 142.5v316h41v-312q0 -79 32.5 -116.5t99.5 -37.5q79 0 126.5 49.5t47.5 131.5v285h12q59 1 86 30.5t27 93.5v12h40zM303 566h-41v30q0 19 10.5 34.5t29.5 33.5
q14 13 21 22.5t7 19.5q0 12 -12 18.5t-33 6.5q-32 0 -65 -12l-12 36q39 18 78 18q42 0 66.5 -18.5t24.5 -47.5q0 -23 -9.5 -36.5t-29.5 -30.5q-18 -16 -26.5 -28t-8.5 -31v-15z" />
    <glyph glyph-name="uni1EEE" unicode="&#x1eee;" horiz-adv-x="722" 
d="M751 840v-20q0 -62 -30.5 -98.5t-89.5 -44.5v-407q0 -137 -68.5 -207.5t-200.5 -70.5q-133 0 -201.5 70.5t-68.5 207.5v442h41v-449q0 -230 229 -230q112 0 169.5 58t57.5 172v449h12q59 1 84.5 27.5t25.5 87.5v13h40zM227 873.5q21 26.5 59 26.5q22 0 40.5 -8.5
t47.5 -26.5q20 -13 33.5 -19.5t25.5 -6.5q25 0 38 17.5t12 40.5h34q0 -44 -21 -71t-59 -27q-22 0 -42 9t-46 26q-22 13 -35 19t-24 6q-25 0 -38 -17t-12 -40h-34q0 45 21 71.5z" />
    <glyph glyph-name="uni1EEF" unicode="&#x1eef;" horiz-adv-x="569" 
d="M597 636v-20q0 -65 -32 -103t-92 -45v-468h-40v95q-24 -49 -69.5 -75.5t-102.5 -26.5q-86 0 -131 48.5t-45 142.5v316h41v-312q0 -79 32.5 -116.5t99.5 -37.5q79 0 126.5 49.5t47.5 131.5v285h12q59 1 86 30.5t27 93.5v12h40zM146 692q21 27 59 27q22 0 40.5 -8.5
t47.5 -26.5q20 -13 33.5 -19.5t25.5 -6.5q25 0 38 17.5t12 40.5h34q0 -45 -21 -71.5t-59 -26.5q-22 0 -40.5 8.5t-47.5 26.5q-20 13 -33.5 19.5t-25.5 6.5q-25 0 -38 -17.5t-12 -40.5h-34q0 44 21 71z" />
    <glyph glyph-name="uni1EF0" unicode="&#x1ef0;" horiz-adv-x="722" 
d="M751 840v-20q0 -62 -30.5 -98.5t-89.5 -44.5v-407q0 -137 -68.5 -207.5t-200.5 -70.5q-133 0 -201.5 70.5t-68.5 207.5v442h41v-449q0 -230 229 -230q112 0 169.5 58t57.5 172v449h12q59 1 84.5 27.5t25.5 87.5v13h40zM328 -110h67v-65h-67v65z" />
    <glyph glyph-name="uni1EF1" unicode="&#x1ef1;" horiz-adv-x="569" 
d="M597 636v-20q0 -65 -32 -103t-92 -45v-468h-40v95q-24 -49 -69.5 -75.5t-102.5 -26.5q-86 0 -131 48.5t-45 142.5v316h41v-312q0 -79 32.5 -116.5t99.5 -37.5q79 0 126.5 49.5t47.5 131.5v285h12q59 1 86 30.5t27 93.5v12h40zM247 -110h67v-65h-67v65z" />
    <glyph glyph-name="Ygrave" unicode="&#x1ef2;" horiz-adv-x="587" 
d="M585 712l-271 -416v-296h-42v298l-271 414h50l243 -375l243 375h48zM274 773l-125 150h61l101 -150h-37z" />
    <glyph glyph-name="ygrave" unicode="&#x1ef3;" horiz-adv-x="520" 
d="M497 500l-236 -557q-34 -80 -84 -117t-125 -53l-8 34q72 17 110 45t63 89l21 53l-214 506h45l192 -462l193 462h43zM241 566l-127 202h63l101 -202h-37z" />
    <glyph glyph-name="uni1EF4" unicode="&#x1ef4;" horiz-adv-x="587" 
d="M585 712l-271 -416v-296h-42v298l-271 414h50l243 -375l243 375h48zM259 -110h67v-65h-67v65z" />
    <glyph glyph-name="uni1EF5" unicode="&#x1ef5;" horiz-adv-x="520" 
d="M497 500l-236 -557q-34 -80 -84 -117t-125 -53l-8 34q72 17 110 45t63 89l21 53l-214 506h45l192 -462l193 462h43zM348 -110h67v-65h-67v65z" />
    <glyph glyph-name="uni1EF6" unicode="&#x1ef6;" horiz-adv-x="587" 
d="M585 712l-271 -416v-296h-42v298l-271 414h50l243 -375l243 375h48zM314 773h-42v15q0 18 10.5 28t30.5 22q14 7 21 13.5t7 14.5q0 10 -12 15t-33 5q-32 0 -64 -12l-12 38q36 16 75 16q45 0 69.5 -17t24.5 -47q0 -20 -11.5 -30.5t-33.5 -22.5q-15 -7 -22.5 -13.5
t-7.5 -15.5v-9z" />
    <glyph glyph-name="uni1EF7" unicode="&#x1ef7;" horiz-adv-x="520" 
d="M497 500l-236 -557q-34 -80 -84 -117t-125 -53l-8 34q72 17 110 45t63 89l21 53l-214 506h45l192 -462l193 462h43zM282 566h-41v30q0 19 10.5 34.5t29.5 33.5q14 13 21 22.5t7 19.5q0 12 -12 18.5t-33 6.5q-32 0 -65 -12l-12 36q39 18 78 18q42 0 66.5 -18.5t24.5 -47.5
q0 -23 -9.5 -36.5t-29.5 -30.5q-18 -16 -26.5 -28t-8.5 -31v-15z" />
    <glyph glyph-name="uni1EF8" unicode="&#x1ef8;" horiz-adv-x="587" 
d="M585 712l-271 -416v-296h-42v298l-271 414h50l243 -375l243 375h48zM158 873.5q21 26.5 59 26.5q22 0 40.5 -8.5t47.5 -26.5q20 -13 33.5 -19.5t25.5 -6.5q25 0 38 17.5t12 40.5h34q0 -44 -21 -71t-59 -27q-22 0 -42 9t-46 26q-22 13 -35 19t-24 6q-25 0 -38 -17t-12 -40
h-34q0 45 21 71.5z" />
    <glyph glyph-name="uni1EF9" unicode="&#x1ef9;" horiz-adv-x="520" 
d="M497 500l-236 -557q-34 -80 -84 -117t-125 -53l-8 34q72 17 110 45t63 89l21 53l-214 506h45l192 -462l193 462h43zM125 692q21 27 59 27q22 0 40.5 -8.5t47.5 -26.5q20 -13 33.5 -19.5t25.5 -6.5q25 0 38 17.5t12 40.5h34q0 -45 -21 -71.5t-59 -26.5q-22 0 -40.5 8.5
t-47.5 26.5q-20 13 -33.5 19.5t-25.5 6.5q-25 0 -38 -17.5t-12 -40.5h-34q0 44 21 71z" />
    <glyph glyph-name="uni2007" unicode="&#x2007;" horiz-adv-x="606" 
 />
    <glyph glyph-name="uni2008" unicode="&#x2008;" horiz-adv-x="214" 
 />
    <glyph glyph-name="uni2009" unicode="&#x2009;" horiz-adv-x="202" 
 />
    <glyph glyph-name="uni200A" unicode="&#x200a;" horiz-adv-x="101" 
 />
    <glyph glyph-name="uni200B" unicode="&#x200b;" 
 />
    <glyph glyph-name="uni2010" unicode="&#x2010;" horiz-adv-x="420" 
d="M77 248v39h266v-39h-266z" />
    <glyph glyph-name="figuredash" unicode="&#x2012;" horiz-adv-x="606" 
d="M77 251v34h452v-34h-452z" />
    <glyph glyph-name="endash" unicode="&#x2013;" horiz-adv-x="505" 
d="M0 251v34h505v-34h-505z" />
    <glyph glyph-name="emdash" unicode="&#x2014;" horiz-adv-x="1010" 
d="M0 251v34h1010v-34h-1010z" />
    <glyph glyph-name="uni2015" unicode="&#x2015;" horiz-adv-x="1010" 
d="M0 251v34h1010v-34h-1010z" />
    <glyph glyph-name="quoteleft" unicode="&#x2018;" horiz-adv-x="214" 
d="M117 657.5q-7 -18.5 -8 -39.5h32v-71h-68v55q0 35 9.5 63t33.5 52l27 -20q-19 -21 -26 -39.5z" />
    <glyph glyph-name="quoteright" unicode="&#x2019;" horiz-adv-x="214" 
d="M141 712v-56q0 -34 -10 -62t-34 -52l-26 20q19 21 25.5 39.5t7.5 39.5h-31v71h68z" />
    <glyph glyph-name="quotesinglbase" unicode="&#x201a;" horiz-adv-x="214" 
d="M141 71v-56q0 -71 -44 -114l-26 20q19 21 25.5 39.5t7.5 39.5h-31v71h68z" />
    <glyph glyph-name="quotedblleft" unicode="&#x201c;" horiz-adv-x="359" 
d="M117 657.5q-7 -18.5 -8 -39.5h32v-71h-68v55q0 35 9.5 63t33.5 52l27 -20q-19 -21 -26 -39.5zM262 657.5q-7 -18.5 -8 -39.5h32v-71h-68v55q0 35 9.5 63t33.5 52l27 -20q-19 -21 -26 -39.5z" />
    <glyph glyph-name="quotedblright" unicode="&#x201d;" horiz-adv-x="359" 
d="M141 712v-56q0 -34 -10 -62t-34 -52l-26 20q19 21 25.5 39.5t7.5 39.5h-31v71h68zM286 712v-56q0 -34 -10 -62t-34 -52l-26 20q19 21 25.5 39.5t7.5 39.5h-31v71h68z" />
    <glyph glyph-name="quotedblbase" unicode="&#x201e;" horiz-adv-x="359" 
d="M141 71v-56q0 -71 -44 -114l-26 20q19 21 25.5 39.5t7.5 39.5h-31v71h68zM286 71v-56q0 -71 -44 -114l-26 20q19 21 25.5 39.5t7.5 39.5h-31v71h68z" />
    <glyph glyph-name="dagger" unicode="&#x2020;" horiz-adv-x="309" 
d="M172 720v-121h117v-29h-117v-403h-35v403h-117v29h117v121h35z" />
    <glyph glyph-name="daggerdbl" unicode="&#x2021;" horiz-adv-x="309" 
d="M172 720v-121h117v-29h-117v-253h117v-29h-117v-121h-35v121h-117v29h117v253h-117v29h117v121h35z" />
    <glyph glyph-name="bullet" unicode="&#x2022;" horiz-adv-x="529" 
d="M174 112.5q-42 23.5 -67 65t-25 90.5q0 46 24 87.5t66 66.5t93 25q48 0 90 -23.5t67 -64.5t25 -91q0 -49 -24.5 -90t-66.5 -65t-91 -24t-91 23.5z" />
    <glyph glyph-name="ellipsis" unicode="&#x2026;" horiz-adv-x="642" 
d="M73 71h68v-71h-68v71zM286 71h70v-71h-70v71zM500 71h70v-71h-70v71z" />
    <glyph glyph-name="perthousand" unicode="&#x2030;" horiz-adv-x="1324" 
d="M109 338.5q-43 54.5 -43 162.5q0 109 43 163.5t121 54.5t121.5 -54.5t43.5 -162.5q0 -109 -43.5 -163.5t-121.5 -54.5t-121 54.5zM283 0h-51l411 712h50zM319 365q29 44 29 137q0 91 -29 135t-89 44t-89.5 -44t-29.5 -135q0 -92 29.5 -136.5t89.5 -44.5t89 44zM574.5 48
q-43.5 55 -43.5 163q0 109 43.5 163t121.5 54t121.5 -54t43.5 -163q0 -108 -44 -163t-121 -55q-78 0 -121.5 55zM973.5 48q-43.5 55 -43.5 163q0 109 43 163t121 54t121.5 -54t43.5 -163q0 -108 -43.5 -163t-121.5 -55q-77 0 -120.5 55zM785 74.5q29 43.5 29 136.5
q0 92 -29 135.5t-89 43.5t-89.5 -43.5t-29.5 -135.5t29.5 -136t89.5 -44t89 43.5zM1184 74.5q29 43.5 29 136.5q0 92 -29 135.5t-90 43.5q-60 0 -89 -43.5t-29 -135.5q0 -93 29 -136.5t89 -43.5q61 0 90 43.5z" />
    <glyph glyph-name="minute" unicode="&#x2032;" horiz-adv-x="202" 
d="M88 444l-13 268h52l-11 -268h-28z" />
    <glyph glyph-name="second" unicode="&#x2033;" horiz-adv-x="397" 
d="M88 444l-13 268h52l-11 -268h-28zM283 444l-14 268h53l-11 -268h-28z" />
    <glyph glyph-name="guilsinglleft" unicode="&#x2039;" horiz-adv-x="238" 
d="M159 89l-130 178l132 180h47l-128 -179l124 -179h-45z" />
    <glyph glyph-name="guilsinglright" unicode="&#x203a;" horiz-adv-x="238" 
d="M79 89h-46l125 179l-128 179h47l132 -180z" />
    <glyph glyph-name="fraction" unicode="&#x2044;" horiz-adv-x="160" 
d="M-113 -22l-39 21l426 735l37 -21z" />
    <glyph glyph-name="uni2070" unicode="&#x2070;" horiz-adv-x="380" 
d="M80.5 336q-39.5 55 -39.5 163q0 109 39 163t110 54q70 0 109 -53.5t39 -163.5q0 -108 -39 -163t-109 -55t-109.5 55zM268 362.5q25 43.5 25 136.5q0 92 -25 135.5t-78 43.5t-78 -43.5t-25 -135.5q0 -93 25 -136.5t78 -43.5t78 43.5z" />
    <glyph glyph-name="uni2074" unicode="&#x2074;" horiz-adv-x="380" 
d="M350 417v-37h-64v-95h-46v95h-197v33l206 299h37v-295h64zM91 417h149v216z" />
    <glyph glyph-name="uni2075" unicode="&#x2075;" horiz-adv-x="380" 
d="M297 515q37 -37 37 -97q0 -61 -39.5 -98.5t-99.5 -37.5q-39 0 -77 16t-64 43l26 30q60 -52 114 -52q44 0 71.5 26.5t27.5 71.5q0 43 -27 70.5t-65 27.5q-31 0 -56.5 -13t-43.5 -36h-36v246h253v-36h-208v-157q36 33 90 33q60 0 97 -37z" />
    <glyph glyph-name="uni2076" unicode="&#x2076;" horiz-adv-x="380" 
d="M304.5 515.5q36.5 -37.5 36.5 -97.5t-39 -98.5t-96 -38.5q-75 0 -118 52t-43 155q0 117 45.5 172.5t117.5 55.5q39 0 77.5 -16.5t64.5 -41.5l-27 -31q-28 25 -58 38.5t-57 13.5q-51 0 -85 -47.5t-34 -143.5v-14q12 36 44.5 57.5t75.5 21.5q59 0 95.5 -37.5zM271 347
q26 27 26 71q0 43 -26 70t-69 27q-42 0 -70 -27.5t-28 -69.5q0 -44 27.5 -71t70.5 -27t69 27z" />
    <glyph glyph-name="uni2077" unicode="&#x2077;" horiz-adv-x="380" 
d="M52 712h276v-31l-199 -396h-43l196 391h-230v36z" />
    <glyph glyph-name="uni2078" unicode="&#x2078;" horiz-adv-x="380" 
d="M316.5 464q24.5 -28 24.5 -65q0 -55 -39 -86t-112 -31t-112.5 31t-39.5 86q0 38 24.5 66t61.5 39q-34 12 -55.5 38.5t-21.5 60.5q0 52 37.5 82.5t105.5 30.5q67 0 104 -30.5t37 -82.5q0 -34 -21 -61.5t-55 -38.5q37 -11 61.5 -39zM116.5 545q24.5 -22 73.5 -29
q48 7 73 29t25 55q0 38 -25 59t-73 21t-73 -21t-25 -59q0 -33 24.5 -55zM271 339q27 22 27 62q0 36 -26.5 57.5t-81.5 28.5q-56 -7 -82 -28.5t-26 -57.5q0 -40 26.5 -62t81.5 -22q54 0 81 22z" />
    <glyph glyph-name="uni2079" unicode="&#x2079;" horiz-adv-x="380" 
d="M291.5 664q42.5 -52 42.5 -155q0 -116 -45 -172t-117 -56q-39 0 -77.5 17t-65.5 42l28 30q28 -25 58 -38.5t57 -13.5q51 0 85 47.5t34 143.5v15q-13 -36 -45.5 -57.5t-74.5 -21.5q-59 0 -96 37t-37 97q0 61 39 99t97 38q75 0 117.5 -52zM248 509.5q28 27.5 28 69.5
q0 44 -27.5 71t-70.5 27t-69 -27t-26 -71q0 -43 26 -70t69 -27q42 0 70 27.5z" />
    <glyph glyph-name="uni2080" unicode="&#x2080;" horiz-adv-x="380" 
d="M80.5 51q-39.5 55 -39.5 163q0 109 39 163t110 54q70 0 109 -53.5t39 -163.5q0 -108 -39 -163t-109 -55t-109.5 55zM268 77.5q25 43.5 25 136.5q0 92 -25 135.5t-78 43.5t-78 -43.5t-25 -135.5q0 -93 25 -136.5t78 -43.5t78 43.5z" />
    <glyph glyph-name="uni2081" unicode="&#x2081;" horiz-adv-x="380" 
d="M235 37h74v-37h-189v37h75v339l-70 -47v49l75 49h35v-390z" />
    <glyph glyph-name="uni2082" unicode="&#x2082;" horiz-adv-x="380" 
d="M329 37v-37h-271v32l149 168q31 34 46 62t15 57q0 36 -21 55.5t-57 19.5q-27 0 -59.5 -14t-61.5 -38l-28 31q30 26 68.5 42t79.5 16q58 0 90 -31t32 -80q0 -36 -17 -71t-53 -74l-126 -138h214z" />
    <glyph glyph-name="uni2083" unicode="&#x2083;" horiz-adv-x="380" 
d="M298 183q20 -26 20 -67q0 -57 -37 -88t-97 -31q-42 0 -80.5 16.5t-67.5 42.5l28 30q29 -24 61 -37.5t59 -13.5q42 0 67.5 20t25.5 62q0 82 -102 82h-48v36h38q47 0 74 21.5t27 62.5q0 36 -21.5 55.5t-55.5 19.5q-59 0 -120 -52l-28 31q30 26 68.5 42t79.5 16q57 0 89 -30
t32 -79q0 -37 -19.5 -63.5t-49.5 -39.5q37 -10 57 -36z" />
    <glyph glyph-name="uni2084" unicode="&#x2084;" horiz-adv-x="380" 
d="M350 132v-37h-64v-95h-46v95h-197v33l206 299h37v-295h64zM91 132h149v216z" />
    <glyph glyph-name="uni2085" unicode="&#x2085;" horiz-adv-x="380" 
d="M297 230q37 -37 37 -97q0 -61 -39.5 -98.5t-99.5 -37.5q-39 0 -77 16t-64 43l26 30q60 -52 114 -52q44 0 71.5 26.5t27.5 71.5q0 43 -27 70.5t-65 27.5q-31 0 -56.5 -13t-43.5 -36h-36v246h253v-36h-208v-157q36 33 90 33q60 0 97 -37z" />
    <glyph glyph-name="uni2086" unicode="&#x2086;" horiz-adv-x="380" 
d="M304.5 230.5q36.5 -37.5 36.5 -97.5t-39 -98.5t-96 -38.5q-75 0 -118 52t-43 155q0 117 45.5 172.5t117.5 55.5q39 0 77.5 -16.5t64.5 -41.5l-27 -31q-28 25 -58 38.5t-57 13.5q-51 0 -85 -47.5t-34 -143.5v-14q12 36 44.5 57.5t75.5 21.5q59 0 95.5 -37.5zM271 62
q26 27 26 71q0 43 -26 70t-69 27q-42 0 -70 -27.5t-28 -69.5q0 -44 27.5 -71t70.5 -27t69 27z" />
    <glyph glyph-name="uni2087" unicode="&#x2087;" horiz-adv-x="380" 
d="M52 427h276v-31l-199 -396h-43l196 391h-230v36z" />
    <glyph glyph-name="uni2088" unicode="&#x2088;" horiz-adv-x="380" 
d="M316.5 179q24.5 -28 24.5 -65q0 -55 -39 -86t-112 -31t-112.5 31t-39.5 86q0 38 24.5 66t61.5 39q-34 12 -55.5 38.5t-21.5 60.5q0 52 37.5 82.5t105.5 30.5q67 0 104 -30.5t37 -82.5q0 -34 -21 -61.5t-55 -38.5q37 -11 61.5 -39zM116.5 260q24.5 -22 73.5 -29
q48 7 73 29t25 55q0 38 -25 59t-73 21t-73 -21t-25 -59q0 -33 24.5 -55zM271 54q27 22 27 62q0 36 -26.5 57.5t-81.5 28.5q-56 -7 -82 -28.5t-26 -57.5q0 -40 26.5 -62t81.5 -22q54 0 81 22z" />
    <glyph glyph-name="uni2089" unicode="&#x2089;" horiz-adv-x="380" 
d="M291.5 379q42.5 -52 42.5 -155q0 -116 -45 -172t-117 -56q-39 0 -77.5 17t-65.5 42l28 30q28 -25 58 -38.5t57 -13.5q51 0 85 47.5t34 143.5v15q-13 -36 -45.5 -57.5t-74.5 -21.5q-59 0 -96 37t-37 97q0 61 39 99t97 38q75 0 117.5 -52zM248 224.5q28 27.5 28 69.5
q0 44 -27.5 71t-70.5 27t-69 -27t-26 -71q0 -43 26 -70t69 -27q42 0 70 27.5z" />
    <glyph glyph-name="colonmonetary" unicode="&#x20a1;" horiz-adv-x="600" 
d="M177 594q-65 -86 -65 -237q0 -101 29.5 -174t84.5 -112t131 -39q47 0 98 25t89 66l22 -35q-42 -43 -99.5 -69.5t-108.5 -26.5q-46 0 -87 12l-52 -129l-39 14l52 131q-50 24 -81 64l-62 -156l-39 16l72 182q-52 90 -52 231q0 113 34.5 194.5t99.5 125t154 43.5l44 108h44
l-45 -113q49 -9 93 -36l58 149h46l-69 -172q26 -20 37 -32l-22 -35q-38 41 -89 66t-98 25q-115 0 -180 -86z" />
    <glyph glyph-name="franc" unicode="&#x20a3;" horiz-adv-x="600" 
d="M583 496v-40h-12q-75 0 -113 -48.5t-38 -116.5v-291h-42v342h-248v-342h-42v712h411v-38h-369v-293h248v108h43v-85q22 45 60.5 68.5t83.5 23.5h18z" />
    <glyph glyph-name="lira" unicode="&#x20a4;" horiz-adv-x="600" 
d="M186 99.5q-18 -38.5 -61 -61.5h433v-38h-509v30q60 28 86.5 64.5t26.5 92.5v74h-113v40h113v111h-113v41h113v77q0 89 47.5 139.5t132.5 50.5q61 0 117 -24.5t101 -71.5l-22 -35q-41 44 -92 67.5t-106 23.5q-65 0 -100.5 -40t-35.5 -114v-73h193v-41h-193v-111h193v-40
h-193v-54q0 -69 -18 -107.5z" />
    <glyph glyph-name="uni20A6" unicode="&#x20a6;" horiz-adv-x="600" 
d="M589 411h-102v-110h102v-40h-102v-261h-38l-294 611v-611h-42v261h-102v40h102v110h-102v42h102v259h39l293 -607v607h42v-259h102v-42z" />
    <glyph glyph-name="peseta" unicode="&#x20a7;" horiz-adv-x="1200" 
d="M657 67.5q32 -34.5 93 -34.5q23 0 42 3l-1 -39q-22 -3 -46 -3q-78 0 -120 45t-42 119v306h-84q-10 -91 -71.5 -139.5t-164.5 -48.5h-119v-276h-42v728h161q116 0 177 -57.5t61 -168.5v-2h82v156h42v-156h155v-35l-155 -1v-297q0 -65 32 -99.5zM457 502q0 95 -48.5 141
t-148.5 46h-114v-375h114q197 0 197 188zM1098.5 237q38.5 -18 55 -43t16.5 -64q0 -61 -52 -99t-136 -38q-58 0 -106.5 17.5t-82.5 50.5l21 35q45 -34 81.5 -47.5t84.5 -14.5q69 0 106.5 25t37.5 71q0 27 -13 44.5t-43.5 30t-86.5 24.5q-93 23 -131.5 54t-38.5 85
q0 66 50.5 105t134.5 39q49 0 94 -18t71 -49l-18 -36q-39 32 -74.5 47t-75.5 15q-62 0 -98.5 -27t-36.5 -73q0 -27 12 -44t39.5 -29.5t78.5 -25.5q72 -17 110.5 -35z" />
    <glyph glyph-name="uni20A9" unicode="&#x20a9;" horiz-adv-x="600" 
d="M589 411h-87l-15 -110h102v-40h-107l-34 -261h-46l-101 597l-102 -597h-46l-34 261h-108v40h103l-15 110h-88v42h83l-34 259h51l67 -567l99 567h48l98 -567l68 567h50l-34 -259h82v-42z" />
    <glyph glyph-name="dong" unicode="&#x20ab;" horiz-adv-x="600" 
d="M561 572h-77v-572h-44v99q-22 -51 -63 -77.5t-98 -26.5q-58 0 -105.5 30t-75 87.5t-27.5 136.5t27.5 135.5t75 85.5t105.5 29t99.5 -26.5t62.5 -78.5v178h-159v39h159v101h43v-101h77v-39zM399.5 91.5q40.5 55.5 40.5 155.5q0 99 -40 154.5t-120 55.5q-76 0 -120 -54
t-44 -154q0 -99 44.5 -156t118.5 -57q80 0 120.5 55.5zM85 -131v39h399v-39h-399z" />
    <glyph glyph-name="Euro" unicode="&#x20ac;" horiz-adv-x="600" 
d="M480 56.5q51 24.5 87 66.5l21 -35q-39 -44 -95.5 -70t-112.5 -26q-106 0 -171 69.5t-82 199.5h-116v40h112q-2 36 -2 56q0 19 2 55h-112v41h116q17 129 82.5 198t170.5 69q123 0 208 -96l-21 -35q-36 42 -87 66.5t-102 24.5q-87 0 -139.5 -57.5t-67.5 -169.5h190v-41
h-194q-2 -36 -2 -55q0 -20 2 -56h194v-40h-190q14 -113 66.5 -171t140.5 -58q51 0 102 24.5z" />
    <glyph glyph-name="uni20AD" unicode="&#x20ad;" horiz-adv-x="600" 
d="M538 336h-319l352 -336h-56l-346 327v-327h-44v336h-114v42h114v334h44v-325l346 325h56l-356 -334h323v-42z" />
    <glyph glyph-name="uni20B1" unicode="&#x20b1;" horiz-adv-x="600" 
d="M589 545h-89q4 -23 4 -54q0 -28 -5 -56h90v-41h-101q-24 -61 -79.5 -93t-137.5 -32h-115v-269h-43v394h-102v41h102v110h-102v41h102v126h158q85 0 140 -32t78 -94h100v-41zM458 491q0 92 -46.5 137t-142.5 45h-112v-365h112q189 0 189 183z" />
    <glyph glyph-name="uni20B2" unicode="&#x20b2;" horiz-adv-x="600" 
d="M340 359h206v-316q-29 -20 -80.5 -34t-102.5 -17v-108h-42v109q-123 9 -192.5 105t-69.5 259q0 162 69 257.5t193 104.5v109h42v-109q49 -4 101.5 -29.5t90.5 -65.5l-22 -35q-38 41 -89.5 66t-99.5 25q-114 0 -178.5 -85.5t-64.5 -237.5q0 -100 29 -173.5t84 -112.5
t131 -39q35 0 78 10t84 27v249h-167v41z" />
    <glyph glyph-name="uni20B5" unicode="&#x20b5;" horiz-adv-x="600" 
d="M464 62q46 24 80 61l22 -35q-39 -40 -91.5 -65.5t-100.5 -29.5v-109h-42v109q-123 10 -192.5 105.5t-69.5 258.5q0 162 69.5 257t192.5 105v109h42v-109q48 -4 100.5 -29.5t91.5 -65.5l-22 -35q-34 37 -80 61t-90 29v-646q44 5 90 29zM170 128q58 -85 162 -95v646
q-104 -10 -162 -94.5t-58 -227.5q0 -144 58 -229z" />
    <glyph glyph-name="uni20B9" unicode="&#x20b9;" horiz-adv-x="600" 
d="M581 672h-195q65 -36 81 -111h114v-41h-110v-5q0 -83 -53 -134t-142 -59q24 -9 43.5 -28t40.5 -51l158 -243h-48l-149 228q-32 50 -65.5 69t-91.5 19h-146v41h222q89 0 137 37t48 121v5h-407v41h402q-23 111 -180 111h-222v40h563v-40z" />
    <glyph glyph-name="uni20BA" unicode="&#x20ba;" horiz-adv-x="600" 
d="M553 87q-94 -94 -244 -94q-69 0 -128 13v369l-114 -63v48l114 63v118l-114 -63v48l114 63v123h41v-101l198 109v-47l-198 -109v-118l198 110v-49l-198 -109v-354q44 -11 84 -11q69 0 124.5 21t100.5 68z" />
    <glyph glyph-name="uni20BC" unicode="&#x20bc;" horiz-adv-x="600" 
d="M436 645q46 -66 70.5 -221t24.5 -424h-42q0 252 -20.5 398.5t-57.5 208.5t-90 70v-314h-42v313q-52 -10 -88 -73t-56 -209t-20 -394h-42q0 268 24.5 423t69 221t112.5 74v110h42v-110q69 -7 115 -73z" />
    <glyph glyph-name="uni20BD" unicode="&#x20bd;" horiz-adv-x="600" 
d="M156 307v-110h191v-40h-191v-157h-43v157h-102v40h102v110h-102v40h102v365h224q110 0 171 -53t61 -151q0 -60 -29 -105.5t-81.5 -70.5t-121.5 -25h-181zM157 347h181q91 0 138.5 41.5t47.5 121.5t-47 121t-140 41h-180v-325z" />
    <glyph glyph-name="uni2113" unicode="&#x2113;" horiz-adv-x="606" 
d="M243 16q-23 30 -23 80v160l-52 -68l-33 28l85 110v240q0 151 96 151q41 0 62.5 -28.5t21.5 -62.5q0 -74 -28.5 -140.5t-85.5 -145.5q-18 -24 -25 -37v-200q0 -38 13.5 -58t43.5 -20q22 0 41.5 12t46.5 38l28 -31q-33 -29 -56.5 -43.5t-59.5 -14.5q-52 0 -75 30zM279 410
q35 58 55 108.5t20 94.5q0 23 -12 41t-31 18q-24 0 -37 -27t-13 -94v-168z" />
    <glyph glyph-name="uni2116" unicode="&#x2116;" horiz-adv-x="1059" 
d="M795.5 455q-37.5 41 -37.5 111t37.5 110.5t99.5 40.5t100 -40.5t38 -110.5t-38 -111t-100 -41t-99.5 41zM603 73v639h39v-712h-34l-472 641v-641h-39v712h35zM825.5 651.5q-23.5 -30.5 -23.5 -85.5q0 -116 93 -116t93 116q0 55 -23.5 85.5t-69.5 30.5t-69.5 -30.5z
M765 248v39h266v-39h-266z" />
    <glyph glyph-name="trademark" unicode="&#x2122;" horiz-adv-x="908" 
d="M4 675v37h346v-37h-152v-388h-42v388h-152zM785 712h34v-425h-39v340l-145 -278h-31l-145 272v-334h-41v425h35l167 -317z" />
    <glyph glyph-name="uni2126" unicode="&#x2126;" horiz-adv-x="768" 
d="M659.5 221.5q-47.5 -90.5 -148.5 -183.5h192v-38h-246v36q97 89 151 188t54 189q0 126 -73.5 196t-204.5 70t-204.5 -70t-73.5 -196q0 -91 53.5 -188.5t151.5 -188.5v-36h-246v38h192q-102 93 -148.5 183t-46.5 192q0 94 39 163t111.5 106.5t171.5 37.5t172 -37.5
t112 -106.5t39 -163q0 -101 -47.5 -191.5z" />
    <glyph glyph-name="estimated" unicode="&#x212e;" horiz-adv-x="903" 
d="M238 43q-91 48 -139 129t-48 176q0 96 49 181t139.5 136.5t210.5 51.5q146 0 236 -55t128 -141t38 -187h-649q-5 0 -5 -6v-173q0 -22 7 -30q40 -48 102.5 -73t141.5 -25q82 0 144.5 27.5t117.5 80.5h72q-62 -74 -136.5 -107t-194.5 -33q-123 0 -214 48zM700 366q5 0 5 6
v190q0 14 -10 26q-47 55 -113.5 76.5t-134.5 21.5q-64 0 -126.5 -22.5t-113.5 -73.5q-9 -9 -9 -27v-191q0 -6 5 -6h497z" />
    <glyph glyph-name="partialdiff" unicode="&#x2202;" horiz-adv-x="600" 
d="M376 728.5q69 -39.5 115.5 -143.5t46.5 -285q0 -161 -64.5 -238t-165.5 -77q-69 0 -123.5 32.5t-86 95t-31.5 150.5q0 89 33 151.5t88 94t121 31.5q57 0 101.5 -22.5t76.5 -76.5q-24 159 -97 224t-165 65h-50v33q35 5 56 5q76 0 145 -39.5zM405 53q44 30 69 89t25 142
q0 71 -26.5 120.5t-70 74t-96.5 24.5q-56 0 -100.5 -28t-70.5 -84t-26 -135q0 -74 25.5 -126.5t70 -79.5t99.5 -27q57 0 101 30z" />
    <glyph glyph-name="emptyset" unicode="&#x2205;" horiz-adv-x="600" 
d="M106 104q-49 40 -77 95.5t-28 120.5q0 76 39.5 142t108 105.5t152.5 39.5q87 0 161 -45l76 101l44 -33l-77 -101q44 -39 69 -93t25 -116q0 -77 -40 -142.5t-108.5 -104t-149.5 -38.5q-77 0 -150 40l-77 -103l-45 29zM433 526q-60 37 -132 37q-69 0 -125 -31.5
t-88.5 -87.5t-32.5 -124q0 -54 20 -100.5t58 -80.5zM423.5 109q56.5 31 89.5 86.5t33 124.5q0 50 -18 94.5t-51 78.5l-299 -385q55 -30 123 -30q66 0 122.5 31z" />
    <glyph glyph-name="uni2206" unicode="&#x2206;" horiz-adv-x="768" 
d="M659.5 221.5q-47.5 -90.5 -148.5 -183.5h192v-38h-246v36q97 89 151 188t54 189q0 126 -73.5 196t-204.5 70t-204.5 -70t-73.5 -196q0 -91 53.5 -188.5t151.5 -188.5v-36h-246v38h192q-102 93 -148.5 183t-46.5 192q0 94 39 163t111.5 106.5t171.5 37.5t172 -37.5
t112 -106.5t39 -163q0 -101 -47.5 -191.5z" />
    <glyph glyph-name="product" unicode="&#x220f;" horiz-adv-x="600" 
d="M546 712v-894h-41v853h-410v-853h-41v894h492z" />
    <glyph glyph-name="summation" unicode="&#x2211;" horiz-adv-x="575" 
d="M534 674h-441l257 -371l13 -19v-37l-13 -19l-256 -370h440v-40h-468l-1 -2v2h-26v32l285 416l-285 415v31h26v2l1 -2h468v-38z" />
    <glyph glyph-name="minus" unicode="&#x2212;" horiz-adv-x="600" 
d="M546 306v-40h-492v40h492z" />
    <glyph glyph-name="uni2215" unicode="&#x2215;" horiz-adv-x="600" 
d="M193 -59l-42 16l255 796l43 -15z" />
    <glyph glyph-name="uni2219" unicode="&#x2219;" horiz-adv-x="600" 
d="M266 303h69v-71h-69v71z" />
    <glyph glyph-name="radical" unicode="&#x221a;" horiz-adv-x="600" 
d="M586 766l-291 -968h-36l-164 468h-92v40h122l152 -441l263 901h46z" />
    <glyph glyph-name="infinity" unicode="&#x221e;" horiz-adv-x="600" 
d="M519 375q34 -36 34 -88t-34 -88t-90 -36q-36 0 -71.5 21.5t-57.5 61.5q-22 -40 -57.5 -61.5t-71.5 -21.5q-56 0 -90 36t-34 88t34 88t90 36q36 0 71.5 -21.5t57.5 -61.5q22 40 57.5 61.5t71.5 21.5q56 0 90 -36zM230 217q28 18 52 71q-24 52 -52 69.5t-60 17.5
q-38 0 -59.5 -25t-21.5 -63t21.5 -63t59.5 -25q32 0 60 18zM489.5 224q21.5 25 21.5 63t-21.5 63t-59.5 25q-32 0 -60 -17.5t-52 -69.5q24 -53 52 -71t60 -18q38 0 59.5 25z" />
    <glyph glyph-name="integral" unicode="&#x222b;" horiz-adv-x="600" 
d="M455 713v-41q-27 8 -48 8q-40 0 -63 -23.5t-23 -84.5v-620q0 -68 -33.5 -102t-89.5 -34q-20 0 -53 7v42q26 -9 48 -9q41 0 63.5 23.5t22.5 85.5v620q0 68 33.5 101.5t89.5 33.5q20 0 53 -7z" />
    <glyph glyph-name="approxequal" unicode="&#x2248;" horiz-adv-x="583" 
d="M538 417q-20 -45 -50.5 -69t-74.5 -24q-34 0 -64.5 12.5t-76.5 36.5q-35 20 -56.5 29t-41.5 9q-35 0 -56.5 -19t-35.5 -51l-37 16q21 45 52 68.5t75 23.5q34 0 66 -13t73 -36q37 -19 58 -28t41 -9q35 0 56.5 18.5t36.5 50.5zM538 215q-20 -45 -50.5 -69t-74.5 -24
q-34 0 -64.5 12.5t-76.5 36.5q-35 20 -56.5 29t-41.5 9q-35 0 -56.5 -19t-35.5 -51l-37 16q21 45 52 68.5t75 23.5q34 0 66 -13t73 -36q37 -19 58 -28t41 -9q35 0 56.5 18.5t36.5 50.5z" />
    <glyph glyph-name="notequal" unicode="&#x2260;" horiz-adv-x="600" 
d="M546 367h-199l-67 -162h266v-40h-282l-58 -140l-35 17l51 123h-168v40h185l67 162h-252v40h268l58 139l35 -15l-51 -124h182v-40z" />
    <glyph glyph-name="lessequal" unicode="&#x2264;" horiz-adv-x="600" 
d="M546 538v-45l-427 -170l427 -168v-47l-492 197v36zM54 0v40h492v-40h-492z" />
    <glyph glyph-name="greaterequal" unicode="&#x2265;" horiz-adv-x="600" 
d="M54 538l492 -197v-36l-492 -197v47l427 168l-427 170v45zM54 0v40h492v-40h-492z" />
    <glyph glyph-name="lozenge" unicode="&#x25ca;" horiz-adv-x="606" 
d="M555 282l-234 -484h-36l-233 484l233 484h36zM512 282l-209 435l-209 -435l209 -435z" />
    <glyph glyph-name="uniF8FF" unicode="&#xf8ff;" horiz-adv-x="665" 
d="M138 1l71 226l-192 146h239l74 226l78 -226h239l-192 -146l71 -226l-196 136zM264 200h28v76l29 -55h23l30 55v-76h28v131h-27l-42 -79l-42 79h-27v-131z" />
    <glyph glyph-name="Iacute_J.loclNLD" horiz-adv-x="535" 
d="M97 0v712h41v-712h-41zM136 773h-37l101 150h61zM227 -137q42 -9 72 -9q53 0 75.5 32.5t22.5 108.5v717h41v-719q0 -96 -32 -137.5t-104 -41.5q-30 0 -75 8v41zM436 773h-37l101 150h61z" />
    <glyph glyph-name="i.loclTRK" horiz-adv-x="218" 
d="M88 0v500h41v-500h-41zM77 700h65v-64h-65v64z" />
    </font>
</defs>
</svg>
